<svg xmlns="http://www.w3.org/2000/svg"><defs><font id="FuturaPT-Bold" horiz-adv-x="1024"><font-face font-family="Futura PT Bold" font-weight="700" units-per-em="2048" panose-1="2 11 9 2 2 2 4 2 2 3" ascent="1563" descent="-485" x-height="915" cap-height="1366" bbox="-801 -532 2644 2005" underline-thickness="102" underline-position="-204" unicode-range="U+0020-FB02"/><glyph glyph-name="afii10017.var.accented" unicode="А`" horiz-adv-x="1454" d="M1061 0l-84 229H481L389 0H14l525 1366h387L1440 0h-379zM580 500h303L729 942zm256 1403l206-150-315-278-152 112z"/><glyph glyph-name="afii10022.var.accented" unicode="Е`" horiz-adv-x="1001" d="M920 1366v-301H498V838h399V537H498V301h422V0H143v1366h777zm-312 537l207-150-315-278-152 112z"/><glyph glyph-name="afii10026.var.accented" unicode="И`" horiz-adv-x="1517" d="M143 1366h357V506l512 860h362V0h-356v860L506 0H143v1366zm723 537l207-150-315-278-152 112z"/><glyph glyph-name="afii10032.var.accented" unicode="О`" horiz-adv-x="1671" d="M1589 682q0-140-54.5-274.5T1374 172q-103-99-243.5-151T836-31 541 21.5 297 172Q191 273 136.5 407.5T82 682q0 141 54.5 276.5T297 1194q103 98 244 150.5t295 52.5 294.5-52 243.5-151q106-100 160.5-235.5T1589 682zm-753 371q-77 0-150-27.5T559 944Q451 839 451 676q0-150 108-254 114-109 277-109 167 0 274 107 50 50 80.5 118.5T1221 682q0 76-30.5 145T1110 944q-56 53-128.5 81T836 1053zm110 850l207-150-315-278-152 112z"/><glyph glyph-name="afii10037.var.accented" unicode="У`" horiz-adv-x="1275" d="M0 1366h397l260-608 228 608h379L649 0H274l191 383zm745 537l207-150-315-278-152 112z"/><glyph glyph-name="afii10045.var.accented" unicode="Ы`" horiz-adv-x="1800" d="M1300 0v1366h357V0h-357zM143 0v1366h357V834h172q52 0 95-3.5t102-15 113-39 97-69.5q109-107 109-289t-103-287q-42-42-96-70T873.5 20.5 762.5 4 651 0H143zm357 274h137q113 0 154 41 36 36 36 103 0 65-39 100-43 41-151 41H500V274zm508 1629l206-150-315-278-151 112z"/><glyph glyph-name="afii10047.var.accented" unicode="Э`" horiz-adv-x="1265" d="M102 72v354q56-56 138-96 93-45 217-45 150 0 241 75 91 76 115 199H293v275h508q-22 110-105 178-89 71-239 71-121 0-217-51-81-45-138-108v370q204 101 402 101 303 0 489-193 88-92 139.5-223.5T1184 688q0-154-53.5-292.5T979 156Q880 54 760 11.5T492-31Q365-31 256 4q-67 20-154 68zm537 1831l207-150-316-278-151 112z"/><glyph glyph-name="afii10048.var.accented" unicode="Ю`" horiz-adv-x="2224" d="M498 838h176q43 237 223 391 195 168 487 168 330 0 539-201 103-97 161-231t58-281q0-145-58.5-280.5T1923 170Q1714-31 1384-31q-153 0-271.5 43T893 145Q703 317 674 563H498V0H143v1366h355V838zm899 215q-160 0-273-113-49-49-78.5-116.5T1016 682q0-156 112-262 110-107 267-107 76 0 145 30t119 79q51 51 82 123.5t31 142.5q0 68-29.5 136.5T1659 946q-110 107-262 107zm-176 850l206-150-315-278-151 112z"/><glyph glyph-name="afii10049.var.accented" unicode="Я`" horiz-adv-x="1265" d="M29 0l381 514q-117 19-203 107-107 110-107 286 0 99 30.5 183t82.5 139q128 137 383 137h526V0H766v465h-35L438 0H29zm737 739v328H666q-103 0-154-47-47-41-47-117 0-74 43-117 50-47 158-47h100zm-25 1164l207-150-315-278-152 112z"/><glyph glyph-name="afii10023.var.accented" unicode="Ё`" horiz-adv-x="1001" d="M920 1366v-301H498V838h399V537H498V301h422V0H143v1366h777zm-355 537l156-117-295-279-100 80zM61 1698q0 58 40.5 98.5T201 1837t99-40.5 40-98.5-40-98.5-99-40.5-99.5 40.5T61 1698zm656 0q0 58 40.5 98.5T856 1837t98.5-40.5T995 1698t-40.5-98.5T856 1559t-98.5 40.5T717 1698z"/><glyph glyph-name="afii10065.var.accented" unicode="а`" horiz-adv-x="1261" d="M821 827v88h328V0H821v100Q725-31 537-31q-191 0-330 146Q76 255 76 451q0 225 141 366 60 60 146.5 94.5T547 946q166 0 274-119zM621 668q-81 0-144-60-65-62-65-149 0-90 63-150 28-26 68-43.5t80-17.5q84 0 147 63 61 61 61 148 0 88-63 149-64 60-147 60zm122 825l207-150-315-278-152 113z"/><glyph glyph-name="afii10070.var.accented" unicode="е`" horiz-adv-x="1159" d="M1083 432v-35H401q0-40 15-82.5t43-70.5q45-45 135-45 63 0 106 24 40 24 58 62h313q-31-112-110-189Q830-31 588-31q-239 0-379 140Q74 244 74 455q0 220 137 354 137 133 375 133 218 0 352-125 145-138 145-385zM412 586h370q-13 58-53 98-49 49-135 49-84 0-133-49-41-45-49-98zm282 907l207-150-315-278-152 113z"/><glyph glyph-name="afii10074.var.accented" unicode="и`" horiz-adv-x="1200" d="M113 915h327V444l363 471h284V0H760v483L401 0H113v915zm598 578l207-150-316-278-151 113z"/><glyph glyph-name="afii10080.var.accented" unicode="о`" horiz-adv-x="1251" d="M627 668q-39 0-79.5-16.5T479 608q-63-60-63-149 0-83 63-146 61-61 148-61 84 0 145 61 64 61 64 146 0 38-17 78.5T772 608q-28 27-67.5 43.5T627 668zm549-209q0-199-142-338Q879-31 625-31T217 121Q76 259 76 459q0 199 141 336 155 151 408 151 250 0 409-151 142-138 142-336zM741 1493l207-150-315-278-152 113z"/><glyph glyph-name="afii10085.var.accented" unicode="у`" horiz-adv-x="1236" d="M135-469l307 594L0 915h381l244-469 237 469h375L502-469H135zm596 1962l207-150-315-278-152 113z"/><glyph glyph-name="afii10093.var.accented" unicode="ы`" horiz-adv-x="1519" d="M1079 0v915h328V0h-328zM440 610h224q158 0 245-82 82-80 82-219 0-141-78-219-43-43-110.5-66.5T664 0H113v915h327V610zm0-397h123q24 0 50 8.5t38 20.5q23 23 23 65 0 45-25 66-31 24-90 24H440V213zm432 1280l207-150-315-278-152 113z"/><glyph glyph-name="afii10095.var.accented" unicode="э`" horiz-adv-x="974" d="M94 31v274q100-88 246-88 101 0 158 35 59 36 77 104H223v213h352q-28 69-86 101-58 30-143 30-80 0-145-28-51-20-107-72v270q133 74 307 74 230 0 363-129 135-130 135-352 0-128-40.5-221T758 94Q626-31 389-31 240-31 94 31zm426 1462l207-150-315-278-152 113z"/><glyph glyph-name="afii10096.var.accented" unicode="ю`" horiz-adv-x="1667" d="M1042 668q-87 0-147-60-64-64-64-149 0-84 64-148 56-59 147-59 87 0 146 59 61 61 61 152 0 82-57 145-56 60-150 60zm-602-62h97q48 146 174 240 135 100 329 100 127 0 232.5-41T1450 795q63-63 102-150t39-182-36-185-105-157q-65-65-170-108.5T1030-31q-250 0-387 140-41 43-72 106t-43 133h-88V0H113v915h327V606zm510 887l207-150-315-278-152 113z"/><glyph glyph-name="afii10097.var.accented" unicode="я`" horiz-adv-x="1069" d="M57 0l254 319q-93 18-159 80-72 72-72 197 0 138 82 223 51 54 127.5 75T473 915h483V0H629v291h-27L401 0H57zm572 492v210h-99q-72 0-102-28-29-29-29-78 0-51 31-78 33-26 96-26h103zm18 1001l207-150-315-278-152 113z"/><glyph glyph-name="afii10071.var.accented" unicode="ё`" horiz-adv-x="1159" d="M1083 432v-35H401q0-40 15-82.5t43-70.5q45-45 135-45 63 0 106 24 40 24 58 62h313q-31-112-110-189Q830-31 588-31q-239 0-379 140Q74 244 74 455q0 220 137 354 137 133 375 133 218 0 352-125 145-138 145-385zM412 586h370q-13 58-53 98-49 49-135 49-84 0-133-49-41-45-49-98zm190 907l154-117-291-278-98 80zm158-209q0 60 41.5 101.5T903 1427t102-41.5 42-101.5-42-101.5-102-41.5-101.5 41.5T760 1284zm-680 0q0 60 41.5 101.5T223 1427t102-41.5 42-101.5-42-101.5-102-41.5-101.5 41.5T80 1284z"/><glyph glyph-name="fi" unicode="fi" horiz-adv-x="1196" d="M694 647H465V0H137v647H23v268h114v113q0 111 25.5 199t99.5 159q65 63 160.5 96.5T623 1516q103 0 204-31.5t162-91.5q115-111 115-308v-47H776v31q0 82-41 123t-114 41q-69 0-113-47-43-45-43-142V915h229V647zm82 268h328V0H776v915z"/><glyph glyph-name="fl" unicode="fl" horiz-adv-x="1216" d="M694 647H465V0H137v647H23v268h114v121q0 107 25.5 192.5T262 1386q134 130 356 130 107 0 206.5-34.5T989 1380q72-74 93.5-158t21.5-198V0H776v1032q0 111-41 156-42 45-112 45-71 0-115-47-43-47-43-142V915h229V647z"/><glyph glyph-name=".notdef" horiz-adv-x="477"/><glyph glyph-name=".null" horiz-adv-x="0"/><glyph glyph-name="nonmarkingreturn" horiz-adv-x="682"/><glyph glyph-name="space" horiz-adv-x="477"/><glyph glyph-name="exclam" unicode="!" horiz-adv-x="698" d="M518 465H178v901h340V465zM350-39q-85 0-149 64t-64 149q0 86 64 150 63 63 149 63 87 0 152-65 59-59 59-148 0-88-61-149-64-64-150-64z"/><glyph glyph-name="quotedbl" unicode="&quot;" horiz-adv-x="845" d="M379 1366l-51-549H133l-49 549h295zm383 0l-49-549H516l-49 549h295z"/><glyph glyph-name="numbersign" unicode="#" horiz-adv-x="1228" d="M973 612h207l-35-239H936L877 0H602l62 373H489L430 0H160l61 373H12l37 239h207l29 170H78l37 238h207l55 346h270l-57-346h174l55 346h273l-56-346h205l-37-238H999zm-273 0l27 170H553l-27-170h174z"/><glyph glyph-name="dollar" unicode="$" horiz-adv-x="1228" d="M547 1587h205v-225q148-9 309-105L926 995q-113 88-230 88-84 0-123-36-30-26-30-68 0-40 28-68 35-32 95-51l106-37q53-18 80.5-28.5t74.5-38 83-62.5q102-99 102-250 0-189-115-309-43-45-109-80T752 2v-231H547V-8Q428-5 315 41 208 86 117 158l147 274q71-68 142-104 96-47 186-47 86 0 133 47 37 37 37 86 0 48-41 78-27 19-92 40l-121 41q-156 54-225 127-88 91-88 238 0 175 102 289 96 107 250 135v225z"/><glyph glyph-name="percent" unicode="%" horiz-adv-x="1832" d="M438 711q-181 0-284 108-86 92-86 221 0 66 22 127.5t62 104.5q97 108 286 108 187 0 291-108 86-90 86-225 0-136-88-228-103-108-289-108zM432 0l791 1366h178L608 0H432zm10 1200q-68 0-112-47-41-44-41-106 0-71 53-117 40-37 100-37 63 0 109 43 45 45 45 111 0 68-49 114-42 39-105 39zm951-727q-69 0-113-47-41-44-41-107 0-70 53-116 40-37 101-37 62 0 108 43 45 45 45 110 0 69-49 115-42 39-104 39zm-4-489q-182 0-285 108-86 92-86 221 0 66 22 127.5t62 104.5q97 108 287 108 186 0 290-108 86-90 86-226 0-135-88-227-103-108-288-108z"/><glyph glyph-name="ampersand" unicode="&amp;" horiz-adv-x="1548" d="M1229 717l201-195q-80-101-187-198L1548 0h-442L987 125Q774-31 528-31 310-31 193 84 82 190 82 354q0 160 102 262 38 40 100.5 76.5T408 750q-45 52-80 108-47 77-47 168 0 68 28 134t76 116q119 121 322 121 200 0 317-113 53-52 81-120.5t28-135.5q0-124-95-219-69-69-159-107l172-180q99 92 178 195zM793 340L578 571q-74-42-104-84-25-36-25-75 0-59 40-93 43-38 117-38 93 0 187 59zm-177 702q0-37 37-92 22-32 72-82 41 21 82 62 43 49 43 100 0 61-37 94-34 31-82 31-45 0-78-29-37-32-37-84z"/><glyph glyph-name="quotesingle" unicode="'" horiz-adv-x="460" d="M379 1366l-51-549H133l-49 549h295z"/><glyph glyph-name="parenleft" unicode="(" horiz-adv-x="724" d="M629-262L397-385q-74 108-118 212.5T197 74q-32 124-46 229.5T137 553q0 287 76 537 62 202 184 403l232-123q-106-195-152-371-25-93-41-214.5T420 563q0-96 14-215t35-209q48-209 160-401z"/><glyph glyph-name="parenright" unicode=")" horiz-adv-x="724" d="M328-385L96-262Q208-70 256 139q21 90 35 209t14 215q0 100-16 221.5T248 999q-46 176-152 371l232 123q122-201 184-403 76-250 76-539 0-142-14-247.5T528 74q-38-142-82-246.5T328-385z"/><glyph glyph-name="asterisk" unicode="*" horiz-adv-x="1325" d="M358 1354l211-90-20 229h225l-20-229 213 90 69-211-225-53 152-175-181-131-120 195-119-195-181 131 152 172-225 54z"/><glyph glyph-name="plus" unicode="+" d="M68 573v246h311v314h266V819h311V573H645V260H379v313H68z"/><glyph glyph-name="comma" unicode="," horiz-adv-x="851" d="M-18-305l256 647h307L193-305H-18z"/><glyph glyph-name="hyphen" unicode="-" horiz-adv-x="722" d="M102 414v272h519V414H102z"/><glyph glyph-name="period" unicode="." horiz-adv-x="620" d="M311-39q-85 0-149 64T98 174q0 86 64 150 63 63 149 63 87 0 152-65 59-59 59-148 0-88-61-149-64-64-150-64z"/><glyph glyph-name="slash" unicode="/" horiz-adv-x="1376" d="M-61-385L985 1493h268L205-385H-61z"/><glyph glyph-name="zero" unicode="0" horiz-adv-x="1228" d="M614 1079q-62 0-108-43-53-45-86-150t-33-206q0-93 32-200t87-156q46-43 108-43 63 0 109 43 54 47 86.5 152.5T842 678q0 97-34 205t-85 153q-46 43-109 43zm580-397q0-176-54-320T991 125Q913 49 814.5 9T614-31 414 9 238 125q-95 93-149 237T35 682q0 177 54 321.5T238 1241q78 76 176 116t200 40 200.5-40T991 1241q95-93 149-237.5t54-321.5z"/><glyph glyph-name="one" unicode="1" horiz-adv-x="1228" d="M479 0v1065H285v301h549V0H479z"/><glyph glyph-name="two" unicode="2" horiz-adv-x="1228" d="M1149 301V0H53l346 362q182 191 281 347 74 114 74 213 0 86-41 131-36 41-101 41-74 0-118-56-45-59-50-168H78q1 123 44.5 219.5T229 1249q148 148 387 148 243 0 385-142 134-134 134-335 0-122-51.5-217T932 514L702 301h447z"/><glyph glyph-name="three" unicode="3" horiz-adv-x="1228" d="M57 467h363q3-85 55-137 51-54 139-54 84 0 140 60 41 46 41 113 0 77-54 120-47 39-131 39-35 0-59-8v240q91-13 145 34 45 40 45 97 0 27-10.5 55t-25.5 43q-37 37-101 37-63 0-98-35-47-44-47-121H129q6 99 43.5 180.5T262 1264q128 133 361 133 217 0 340-121 110-110 110-264 0-95-41-168-40-72-104-105 100-37 162-125 57-83 57-200 0-178-121-299Q880-31 618-31q-239 0-391 142-63 56-111 146T57 467z"/><glyph glyph-name="four" unicode="4" horiz-adv-x="1228" d="M1012 1366V530h166V258h-166V0H684v258H23v227l526 881h463zM362 530h322v557z"/><glyph glyph-name="five" unicode="5" horiz-adv-x="1228" d="M1014 1366v-301H541l-25-152q70 11 111 11 230 0 360-136 125-125 125-323 0-207-131-342Q832-31 555-31 289-31 94 92l53 332q82-76 164-111 99-47 205-47 113 0 178 68 54 57 54 139 0 91-66 148-75 67-246 67-138 0-252-57l119 735h711z"/><glyph glyph-name="six" unicode="6" horiz-adv-x="1228" d="M547 1366h403L561 901q95 43 191 43 80 0 162-33t147-98q129-129 129-326 0-215-141-356Q887-31 612-31q-286 0-448 166Q39 264 39 455q0 244 203 510zm59-1116q95 0 158 63t63 156q0 83-63 143-66 64-158 64-87 0-153-60-68-62-68-141 0-94 59-156 66-69 162-69z"/><glyph glyph-name="seven" unicode="7" horiz-adv-x="1228" d="M119 0l622 1065H172v301h1120L510 0H119z"/><glyph glyph-name="eight" unicode="8" horiz-adv-x="1228" d="M856 719q103-32 176-105 105-102 105-241 0-147-111-258Q880-31 612-31q-263 0-407 144-54 54-83.5 123T92 373q0 66 28.5 133.5T193 618q32 32 79.5 59.5T365 719q-73 28-123 78-92 92-92 217 0 75 30 142.5t82 115.5q64 59 159 92t206 33q109 0 200-34.5t152-96.5q100-100 100-250 0-129-84-213-56-56-139-84zm-238 440q-68 0-112-47-41-44-41-104 0-53 43-99 42-45 108-45 60 0 101 41 47 47 47 105 0 64-47 108-44 41-99 41zm-4-584q-64 0-114-47-49-49-49-112 0-68 47-115 49-49 116-49 68 0 115 47 49 49 49 117 0 66-49 112-50 47-115 47z"/><glyph glyph-name="nine" unicode="9" horiz-adv-x="1228" d="M682 0H281l387 461q-79-43-183-43-185 0-313 125Q35 678 35 872q0 210 137 353 168 172 449 172 276 0 438-162 65-67 100-155t35-183q0-234-207-502zm-57 1116q-93 0-158-65-68-68-68-156 0-85 66-147 65-62 160-62 90 0 153 57 31 28 51.5 72t20.5 84q0 39-19 81.5t-47 70.5q-69 65-159 65z"/><glyph glyph-name="colon" unicode=":" horiz-adv-x="620" d="M311 520q-85 0-149 64T98 733q0 86 64 150 63 63 149 63 87 0 152-65 59-59 59-148 0-88-61-149-64-64-150-64zm0-551q-85 0-149 64T98 182q0 86 64 150 63 63 149 63 87 0 152-65 59-59 59-148 0-88-61-149-64-64-150-64z"/><glyph glyph-name="semicolon" unicode=";" horiz-adv-x="804" d="M-18-305l256 647h307L193-305H-18zm397 825q-86 0-150 64-63 63-63 149 0 87 63 150t150 63q86 0 151-65 60-60 60-148 0-87-62-149-64-64-149-64z"/><glyph glyph-name="less" unicode="&lt;" d="M68 797l888 450V985L348 684l608-303V119L68 573v224z"/><glyph glyph-name="equal" unicode="=" d="M68 758v231h888V758H68zm0-355v232h888V403H68z"/><glyph glyph-name="greater" unicode="&gt;" d="M956 571L68 119v264l608 301L68 985v262l888-452V571z"/><glyph glyph-name="question" unicode="?" horiz-adv-x="1120" d="M711 473H377v332q38-10 69-10 126 0 193 67 47 47 47 113 0 61-35 96-36 39-98 39-56 0-88-35-37-37-37-102H68q4 91 38 166t84 125q133 133 357 133 221 0 362-133 129-122 129-293 0-148-98-258-92-102-229-131V473zM553-31q-86 0-150 64-63 63-63 149 0 87 63 150t148 63q89 0 154-65 59-59 59-148 0-87-62-149-64-64-149-64z"/><glyph glyph-name="at" unicode="@" horiz-adv-x="1501" d="M952 930l15 78 182-2-76-388q-12-58-12-81 0-72 45-72 31 0 61 27 46 39 76.5 126t30.5 168q0 89-34.5 172.5T1149 1096q-61 59-157 94t-195 35q-229 0-389-160-162-162-162-397 0-118 45-225t125-179q141-125 383-125 179 0 368 62l41-164q-201-62-415-62-310 0-508 183-103 95-160 229.5T68 670q0 151 58 285.5T279 1182q102 99 240.5 153t268.5 54q137 0 268-50t222-149q72-77 114-181t42-223q0-112-39.5-210T1288 408q-90-93-190-93-47 0-94.5 27.5T938 426q-44-62-111-95.5T684 297q-109 0-186 74-103 100-103 247 0 81 30.5 157.5T508 911q108 117 246 117 55 0 108.5-24t89.5-74zm-174-92q-58 0-108-50-66-63-66-161 0-65 41-109 35-35 88-35 60 0 109 49 30 32 47.5 77t17.5 87q0 66-43 109-38 33-86 33z"/><glyph glyph-name="A" unicode="A" horiz-adv-x="1454" d="M1061 0l-84 229H481L389 0H14l525 1366h387L1440 0h-379zM580 500h303L729 942z"/><glyph glyph-name="B" unicode="B" horiz-adv-x="1265" d="M713 0H143v1366h529q202 0 299-106 84-91 84-256 0-91-39-168-41-76-111-107 114-13 187-82 92-89 92-250 0-167-101-268-58-59-153-94T713 0zM498 1094V827h65q94 0 135 43 33 33 33 91 0 54-33 92-41 41-135 41h-65zm0-531V276h80q170 0 219 56 28 32 28 88 0 64-34 98-20 20-59 30.5T660 561t-89 2h-73z"/><glyph glyph-name="C" unicode="C" horiz-adv-x="1206" d="M1124 457V37Q1019-1 951-16T817-31q-167 0-301 56.5T289 174q-99 99-153 231T82 672q0 143 56 275t151 229 229 155 287 58q145 0 319-70V895q-122 149-309 149-145 0-246-90-118-110-118-280 0-73 28.5-144.5T561 408q46-43 113.5-69T815 313q178 0 309 144z"/><glyph glyph-name="D" unicode="D" horiz-adv-x="1423" d="M639 0H143v1366h465q348 0 543-188 190-183 190-498 0-295-178-473-90-90-225-148.5T639 0zM498 1065V301h71q199 0 299 98 105 100 105 281 0 95-28 173.5T866 979q-56 52-126.5 69T584 1065h-86z"/><glyph glyph-name="E" unicode="E" horiz-adv-x="1001" d="M920 1366v-301H498V838h399V537H498V301h422V0H143v1366h777z"/><glyph glyph-name="F" unicode="F" horiz-adv-x="993" d="M926 1366v-301H498V838h389V537H498V0H143v1366h783z"/><glyph glyph-name="G" unicode="G" horiz-adv-x="1585" d="M799 498v276h704q0-210-50-356.5T1284 160Q1099-12 803-12q-326 0-524 202-86 86-141.5 211.5T82 684q0 156 55.5 288T287 1196q201 201 530 201 217 0 369-92 77-48 141.5-123.5T1430 1024l-338-139q-32 82-99 137-82 68-190 68-139 0-234-95-57-57-87.5-143T451 682q0-178 108-295 98-104 250-104 122 0 197 63 69 56 84 152H799z"/><glyph glyph-name="H" unicode="H" horiz-adv-x="1509" d="M498 1366V856h512v510h356V0h-356v553H498V0H143v1366h355z"/><glyph glyph-name="I" unicode="I" horiz-adv-x="641" d="M143 1366h355V0H143v1366z"/><glyph glyph-name="J" unicode="J" horiz-adv-x="958" d="M461 1366h354V426q0-110-22-182.5T698 98Q569-31 365-31q-119 0-215 62Q70 85 14 170l232 238q3-30 17-62.5t32-46.5q32-25 67-25t62 23q37 35 37 137v932z"/><glyph glyph-name="K" unicode="K" horiz-adv-x="1433" d="M498 1366V803l434 563h438L827 719 1419 0H961L498 592V0H143v1366h355z"/><glyph glyph-name="L" unicode="L" horiz-adv-x="962" d="M143 1366h355V301h426V0H143v1366z"/><glyph glyph-name="M" unicode="M" horiz-adv-x="1873" d="M434 0H82l231 1366h351l276-729 293 729h354L1792 0h-354l-101 786L1008 0H866L551 786z"/><glyph glyph-name="N" unicode="N" horiz-adv-x="1648" d="M498 0H143v1366h355l653-836v836h354V0h-354L498 836V0z"/><glyph glyph-name="O" unicode="O" horiz-adv-x="1671" d="M1589 682q0-140-54.5-274.5T1374 172q-103-99-243.5-151T836-31 541 21.5 297 172Q191 273 136.5 407.5T82 682q0 141 54.5 276.5T297 1194q103 98 244 150.5t295 52.5 294.5-52 243.5-151q106-100 160.5-235.5T1589 682zm-753 371q-77 0-150-27.5T559 944Q451 839 451 676q0-150 108-254 114-109 277-109 167 0 274 107 50 50 80.5 118.5T1221 682q0 76-30.5 145T1110 944q-56 53-128.5 81T836 1053z"/><glyph glyph-name="P" unicode="P" horiz-adv-x="1226" d="M721 453H498V0H143v1366h566q218 0 346-123 73-70 100-151.5t27-180.5q0-101-24.5-185.5T1061 571t-156.5-94T721 453zm-223 626V739h118q103 0 150 43 45 39 45 125 0 82-41 123-47 49-152 49H498z"/><glyph glyph-name="Q" unicode="Q" horiz-adv-x="1671" d="M1407 217l235-242-325-49-115 131q-161-88-358-88-362 0-570 226-95 101-143.5 231T82 688q0 143 56.5 275T293 1190q103 100 243.5 153.5T834 1397q151 0 294.5-52.5T1376 1192q95-91 153-223.5t58-290.5q0-146-55-275-46-107-125-186zM725 545l334 43 94-103q64 91 64 201 0 64-30 133.5T1106 940q-54 54-128.5 83.5T834 1053q-75 0-146.5-29T563 940q-52-54-81-126.5T453 666q0-74 28.5-139T555 418q50-48 124-76.5T831 313q49 0 111 15z"/><glyph glyph-name="R" unicode="R" horiz-adv-x="1284" d="M143 1366h553q218 0 334-121 57-58 87-140t30-167q0-179-109-285-75-73-188-94L1278 0H838L498 524V0H143v1366zm355-274V754h67q114 0 172 55 45 45 45 115t-47 114q-54 54-170 54h-67z"/><glyph glyph-name="S" unicode="S" horiz-adv-x="1169" d="M82 123l151 287q64-60 146-100t168-40q94 0 137 47 35 35 35 86 0 48-39 82-6 5-12 9.5t-14.5 9-14.5 8-18 8-18.5 6.5-22 7-22 7.5T532 549t-28 8l-92 29q-137 43-197 110-78 85-78 242 0 205 125 330 129 129 350 129 100 0 212-29.5t210-81.5l-141-276q-116 92-234 92-73 0-116-41-35-35-35-74 0-38 18-61 29-35 119-62l109-33q55-17 88.5-30t79-41 79.5-64q50-53 69.5-110.5T1090 453q0-215-129-344Q880 28 781-1.5T557-31q-146 0-268 45Q189 49 82 123z"/><glyph glyph-name="T" unicode="T" horiz-adv-x="964" d="M950 1065H659V0H305v1065H14v301h936v-301z"/><glyph glyph-name="U" unicode="U" horiz-adv-x="1476" d="M143 1366h355V557q0-30 1.5-49.5t7.5-51 21-59.5 39-51q31-29 76.5-47t91.5-18q45 0 89.5 16t74.5 43q24 21 40 47.5t23.5 47.5 11.5 54.5 4.5 49 .5 49.5v778h354V582q0-67-3.5-111T1312 366t-46.5-117-85.5-110Q1013-31 729-31q-153 0-269 45.5T276 133q-80 87-106.5 199T143 582v784z"/><glyph glyph-name="V" unicode="V" horiz-adv-x="1431" d="M0 1366h387l328-831 332 831h385L850 0H573z"/><glyph glyph-name="W" unicode="W" horiz-adv-x="2076" d="M0 1366h371l237-883 289 883h283l268-883 258 883h371L1640 0h-362l-248 791L768 0H408z"/><glyph glyph-name="X" unicode="X" horiz-adv-x="1456" d="M0 0l535 729-439 637h439l202-354 211 354h436L940 729 1456 0h-430L735 444 428 0H0z"/><glyph glyph-name="Y" unicode="Y" horiz-adv-x="1310" d="M469 0v655l-494 711h424l258-373 248 373h430L825 655V0H469z"/><glyph glyph-name="Z" unicode="Z" horiz-adv-x="1292" d="M1266 1366L623 301h573V0H27l647 1065H137v301h1129z"/><glyph glyph-name="bracketleft" unicode="[" horiz-adv-x="690" d="M608 1303H424V-193h184v-192H164v1878h444v-190z"/><glyph glyph-name="backslash" unicode="\" horiz-adv-x="1376" d="M1438-385h-267L123 1493h268z"/><glyph glyph-name="bracketright" unicode="]" horiz-adv-x="690" d="M266 1303H82v190h444V-385H82v192h184v1496z"/><glyph glyph-name="asciicircum" unicode="^" d="M512 1153L287 676H10l328 690h348l330-690H737z"/><glyph glyph-name="underscore" unicode="_" d="M0-365v271h1024v-271H0z"/><glyph glyph-name="grave" unicode="`" d="M512 1065l-315 278 209 150 258-315z"/><glyph glyph-name="a" unicode="a" horiz-adv-x="1261" d="M821 827v88h328V0H821v100Q725-31 537-31q-191 0-330 146Q76 255 76 451q0 225 141 366 60 60 146.5 94.5T547 946q166 0 274-119zM621 668q-81 0-144-60-65-62-65-149 0-90 63-150 28-26 68-43.5t80-17.5q84 0 147 63 61 61 61 148 0 88-63 149-64 60-147 60z"/><glyph glyph-name="b" unicode="b" horiz-adv-x="1261" d="M113 1493h327V827q111 119 273 119 194 0 323-123 67-64 108.5-157.5T1186 461q0-107-39-202T1038 96Q908-31 717-31q-176 0-277 131V0H113v1493zM641 248q84 0 145 61 64 64 64 144 0 91-64 155-60 60-145 60-90 0-149-62-26-27-44-68.5T430 459q0-42 19-84.5t51-71.5q62-55 141-55z"/><glyph glyph-name="c" unicode="c" horiz-adv-x="878" d="M805 295V20Q701-31 578-31q-214 0-361 140-66 64-103.5 153.5T76 451q0 101 39 193.5T223 805q146 139 369 139 111 0 213-51V618q-83 60-170 60-96 0-160-64-63-63-63-157 0-91 57-154 66-70 168-70 96 0 168 62z"/><glyph glyph-name="d" unicode="d" horiz-adv-x="1261" d="M1149 1493V0H821v100Q720-31 545-31 353-31 223 96q-70 68-108.5 162.5T76 461q0 111 41 204.5T225 823q129 123 324 123 161 0 272-119v666h328zM621 248q79 0 141 55 32 29 50.5 71.5T831 459q0 37-17.5 78.5T770 606q-59 62-149 62-86 0-146-60-63-63-63-155 0-81 63-144 61-61 146-61z"/><glyph glyph-name="e" unicode="e" horiz-adv-x="1159" d="M1083 432v-35H401q0-40 15-82.5t43-70.5q45-45 135-45 63 0 106 24 40 24 58 62h313q-31-112-110-189Q830-31 588-31q-239 0-379 140Q74 244 74 455q0 220 137 354 137 133 375 133 218 0 352-125 145-138 145-385zM412 586h370q-13 58-53 98-49 49-135 49-84 0-133-49-41-45-49-98z"/><glyph glyph-name="f" unicode="f" horiz-adv-x="706" d="M694 647H465V0H137v647H23v268h114v154q0 89 17 161.5t67 139.5q109 146 318 146 76 0 157-31v-283q-52 31-102 31-61 0-92-35-37-41-37-154V915h229V647z"/><glyph glyph-name="g" unicode="g" horiz-adv-x="1255" d="M815 915h328V57q0-123-24-211t-101-168Q873-469 614-469q-269 0-428 162-85 88-100 190h365q30-94 153-94 93 0 146 51 65 60 65 170v92Q747 29 680 5.5T541-18q-213 0-338 129-61 62-94 150T76 444q0 105 36.5 199.5T211 803q65 68 152 103.5T543 942q165 0 272-121v94zM621 670q-84 0-146-62-63-66-63-147 0-87 63-150 59-59 148-59 86 0 147 61 29 29 45 70t16 78q0 36-18 78t-47 71q-60 60-145 60z"/><glyph glyph-name="h" unicode="h" horiz-adv-x="1198" d="M113 0v1493h327V801q45 56 103 90 77 45 188 45 172 0 270-98 55-55 70.5-113.5T1087 582V0H760v463q0 133-41 178-35 39-105 39-74 0-118-39-56-52-56-149V0H113z"/><glyph glyph-name="i" unicode="i" horiz-adv-x="550" d="M113 915h327V0H113v915zm-21 381q0 77 54 131t130 54 130.5-54.5T461 1296t-54-130-131-54q-76 0-130 54t-54 130z"/><glyph glyph-name="j" unicode="j" horiz-adv-x="550" d="M113 915h327V-469H113V915zm-21 381q0 77 54 131t130 54 130.5-54.5T461 1296t-54-130-131-54q-76 0-130 54t-54 130z"/><glyph glyph-name="k" unicode="k" horiz-adv-x="1230" d="M113 1493h327V586l310 329h444L762 494 1229 0H774L440 375V0H113v1493z"/><glyph glyph-name="l" unicode="l" horiz-adv-x="550" d="M113 1493h327V0H113v1493z"/><glyph glyph-name="m" unicode="m" horiz-adv-x="1787" d="M113 0v915h327V805q55 66 127.5 96.5T715 932q102 0 176-41 81-42 127-131 47 83 125 127 80 45 190 45 168 0 254-84t86-252V0h-327v453q0 151-48 196-35 31-86 31-56 0-96-37-59-57-59-174V0H729v453q0 75-8.5 122T686 649q-35 37-98 37-57 0-90-33-26-25-40-65.5T442 520t-2-67V0H113z"/><glyph glyph-name="n" unicode="n" horiz-adv-x="1198" d="M113 0v915h327V801q102 135 291 135 172 0 270-98 54-54 70-111.5t16-144.5V0H760v463q0 42-1 63t-10.5 57.5T719 641q-37 39-105 39-74 0-120-43-24-23-39-63t-15-82V0H113z"/><glyph glyph-name="o" unicode="o" horiz-adv-x="1251" d="M627 668q-39 0-79.5-16.5T479 608q-63-60-63-149 0-83 63-146 61-61 148-61 84 0 145 61 64 61 64 146 0 38-17 78.5T772 608q-28 27-67.5 43.5T627 668zm549-209q0-199-142-338Q879-31 625-31T217 121Q76 259 76 459q0 199 141 336 155 151 408 151 250 0 409-151 142-138 142-336z"/><glyph glyph-name="p" unicode="p" horiz-adv-x="1261" d="M440 88v-557H113V915h327V815q104 131 281 131 193 0 326-133 139-139 139-354 0-218-148-363Q908-31 725-31 555-31 440 88zm201 580q-85 0-147-62-64-64-64-151 0-38 18.5-78.5T494 309q61-61 147-61 87 0 145 61 28 28 46 67t18 79q0 87-64 151-59 62-145 62z"/><glyph glyph-name="q" unicode="q" horiz-adv-x="1261" d="M821-469V88Q706-31 537-31 353-31 223 96 76 243 76 459q0 215 139 354 64 64 150.5 98.5T541 946q176 0 280-131v100h328V-469H821zM621 668q-87 0-146-62-63-63-63-151 0-40 17.5-79t45.5-67q58-61 146-61 86 0 147 61 27 27 45 67t18 79q0 88-63 151-62 62-147 62z"/><glyph glyph-name="r" unicode="r" horiz-adv-x="837" d="M113 0v915h327V766q46 85 129 127 67 37 170 37 3 0 10-.5t22.5-1.5 33.5-2V616q-66 33-141 33-96 0-150-49-74-67-74-209V0H113z"/><glyph glyph-name="s" unicode="s" horiz-adv-x="909" d="M55 76l117 227q61-45 131-67 67-23 127-23 56 0 84 25 16 16 16 43t-16 41q-17 15-86 32l-86 21q-108 24-160 80-59 62-59 157 0 65 23.5 124T209 836q52 53 138.5 81.5T537 946q156 0 292-59L719 678q-101 45-172 45-46 0-76-18-29-16-29-46 0-35 39-51 17-6 51.5-13t57.5-13l59-17q34-9 75-30.5t60-40.5q33-32 51.5-81.5T854 311q0-139-92-227Q647-31 424-31 231-31 55 76z"/><glyph glyph-name="t" unicode="t" horiz-adv-x="671" d="M662 647H475V0H147v647H43v268h104v302h328V915h187V647z"/><glyph glyph-name="u" unicode="u" horiz-adv-x="1208" d="M113 915h327V403q0-89 49-133 39-34 115-34 77 0 117 38 47 47 47 129v512h328V344q0-74-16.5-131.5T1008 98Q932 20 832.5-5.5T612-31q-60 0-108.5 4.5T397-9.5t-108.5 40T199 100q-86 91-86 244v571z"/><glyph glyph-name="v" unicode="v" horiz-adv-x="1173" d="M0 915h367l219-469 223 469h365L696 0H473z"/><glyph glyph-name="w" unicode="w" horiz-adv-x="1841" d="M0 915h367l217-483 231 483h201l231-497 230 497h364L1362 0h-221L911 504 692 0H471z"/><glyph glyph-name="x" unicode="x" horiz-adv-x="1335" d="M0 0l457 498L86 915h426l158-188 161 188h424L877 498 1335 0H901L668 272 434 0H0z"/><glyph glyph-name="y" unicode="y" horiz-adv-x="1236" d="M135-469l307 594L0 915h381l244-469 237 469h375L502-469H135z"/><glyph glyph-name="z" unicode="z" horiz-adv-x="1058" d="M1018 915L590 268h383V0H41l432 647H104v268h914z"/><glyph glyph-name="braceleft" unicode="{" d="M623 1137V815q0-107-25-156-32-62-98-102 66-40 98-102 25-49 25-156V-29q0-34 4-52t19.5-34.5 48.5-23 89-6.5h41v-234h-39q-24 0-73-3t-74-3q-58 0-103.5 11.5t-74.5 28-50 44.5-31.5 51-16 57.5T357-138t-1 50v403q0 123-112 140v225q112 15 112 139v377q0 30 1 50t6.5 54.5 16 57.5 31.5 51 50 44.5 74.5 28T639 1493q25 0 74-3t73-3h39v-234h-41q-56 0-89-6.5t-48.5-23T627 1189t-4-52z"/><glyph glyph-name="bar" unicode="|" d="M379-512v2048h266V-512H379z"/><glyph glyph-name="braceright" unicode="}" d="M446 815v322q0 34-4 52t-19.5 34.5-48.5 23-89 6.5h-41v234h39q25 0 74 3t73 3q57 0 102.5-11.5T607 1453t50-44 31.5-51 16.5-57.5 7-54 1-50.5V819q0-23 2.5-39t12-40 34.5-39.5 63-20.5V455q-31-5-53.5-17.5t-33.5-26-17-33.5-7-32.5-1-30.5V-88q0-30-1-50.5t-7-54-16.5-57.5-31.5-51-50-44-74.5-28.5T430-385q-24 0-73 3t-74 3h-39v234h41q56 0 89 6.5t48.5 23T442-81t4 52v328q0 107 25 156 32 62 98 102-66 40-98 102-25 49-25 156z"/><glyph glyph-name="asciitilde" unicode="~" d="M526 461l-71 24q-107 39-150 39-50 0-88-35-33-29-59-90L12 496l17 34q4 8 16 34t19.5 40T84 639.5t25 38.5 28 31q71 71 180 71 68 0 189-43l74-26q83-31 131-31 54 0 94 31 35 31 55 73l152-88-11-22q-44-100-108-168-81-84-195-84-25 0-52 4.5t-42.5 9-43 14T526 461z"/><glyph glyph-name="uni00A0" horiz-adv-x="477"/><glyph glyph-name="exclamdown" unicode="¡" horiz-adv-x="698" d="M180-471v901h340v-901H180zm170 979q-86 0-149 63-64 64-64 150 0 85 64 149t149 64q86 0 152-66 59-59 59-147 0-89-61-150-63-63-150-63z"/><glyph glyph-name="cent" unicode="¢" horiz-adv-x="1228" d="M680 1352h192v-187q55-3 107-30V840q-69 69-164 69-92 0-153-61-68-68-68-164 0-97 68-162 63-57 153-57 94 0 164 70V240q-57-26-107-29V20H680v179q-174 24-293 143-64 66-100.5 155.5T250 686q0 103 39.5 196T395 1040q112 112 285 138v174z"/><glyph glyph-name="sterling" unicode="£" horiz-adv-x="1228" d="M319 516H63v197h148q-49 114-49 217 0 87 33.5 172T297 1253q143 138 401 138 244 0 369-127 123-123 123-336 0-37-2-51H831q3 24 3 49 0 93-50 143-46 43-112 43-77 0-121-51-49-55-49-141 0-91 51-207h313V516H610q8-56 8-102 0-55-16-113l96-29q136-41 193-41 43 0 66.5 25.5T981 322h221q-2-80-32.5-155T1087 45q-79-74-208-74-88 0-217 41l-78 25Q482 68 401 68q-98 0-125-68H41q12 64 42.5 126.5T152 229q73 77 180 93 12 38 12 86 0 53-25 108z"/><glyph glyph-name="currency" unicode="¤" horiz-adv-x="1366" d="M184 137L41 281l211 211q-90 125-90 282 0 147 92 281L39 1268l145 145 213-213q133 90 287 90 148 0 281-88l211 209 143-143-209-209q94-129 94-287 0-151-90-278l211-211-141-146-211 211q-130-92-291-92-158 0-287 90zm777 635q0 116-80 199-79 82-197 82-117 0-197-80-81-81-81-201 0-116 81-197t197-81 195 79q82 82 82 199z"/><glyph glyph-name="yen" unicode="¥" horiz-adv-x="1228" d="M426 674H92v215h205L8 1366h404l204-393 197 393h410L922 889h215V674H786l-12-19V547h363V334H774V0H438v334H92v213h346v108z"/><glyph glyph-name="brokenbar" unicode="¦" d="M379 694v842h266V694H379zm0-1206v842h266v-842H379z"/><glyph glyph-name="section" unicode="§" horiz-adv-x="1228" d="M1028 1110H741q0 83-45 125-29 27-78 27-50 0-81-31-33-33-33-78 0-59 53-98 45-35 152-78l82-35q121-52 186-121 90-97 90-227 0-46-14-103.5t-33-93.5q-51-94-162-145 76-44 115-109 41-67 41-166 0-142-92-241-112-121-312-121-187 0-295 106Q203-167 203 16h286V2q0-81 46-121 32-28 81-28 61 0 93 32 36 36 36 88 0 73-49 117-23 20-59.5 35.5T508 172q-59 20-86 30.5T352 238t-76 59Q176 400 176 557q0 124 64 211 53 71 135 115-72 47-105 98-43 63-43 162 0 160 90 250 45 45 120 72.5t171 27.5q80 0 159.5-21t135.5-65q125-99 125-297zM768 563q0 59-37 101-42 49-113 49-59 0-102-43-45-45-45-107 0-23 12-52.5t31-49.5q18-19 46.5-32t57.5-13q65 0 113 51 37 42 37 96z"/><glyph glyph-name="dieresis" unicode="¨" d="M743 1071q-73 0-125 55-51 57-51 123 0 63 54 125 53 53 122 53 72 0 123-51 56-56 56-127 0-68-54-125-53-53-125-53zm-464 0q-73 0-125 55-52 58-52 123 0 63 54 125 53 53 123 53 71 0 122-51 56-56 56-127 0-68-54-125-53-53-124-53z"/><glyph glyph-name="copyright" unicode="©" horiz-adv-x="1556" d="M1026 1065V772q-33 52-87.5 81.5T825 883q-81 0-139-52-63-60-63-153 0-84 53-141 58-58 149-58 107 0 201 101V295q-77-43-192-43-222 0-353 135-116 119-116 291 0 84 32 161t84 134q127 137 334 137 97 0 211-45zm463-381q0-136-55-271.5T1276 174q-93-93-223-149T778-31 503.5 25 281 174Q178 277 123 412.5T68 684q0 134 55 269.5T281 1192q93 93 222.5 149t274.5 56 275-56 223-149q103-103 158-238.5t55-269.5zm-711 584q-104 0-204-39.5T397 1116q-84-79-135-192.5T211 682t51-241.5T397 248q77-73 177-112.5T778 96t204 39.5T1159 248q84 79 135.5 192.5T1346 682t-51.5 241.5T1159 1116q-77 73-177 112.5T778 1268z"/><glyph glyph-name="ordfeminine" unicode="ª" horiz-adv-x="737" d="M485 1294v54h193V805H485v61q-55-78-157-78-123 0-199 76-86 83-86 213 0 60 24.5 118t61.5 95q76 76 193 76 102 0 163-72zM57 547v155h621V547H57zm310 653q-48 0-82-31-41-36-41-92 0-51 41-92 33-33 82-33t82 33q40 38 40 92 0 56-43 92-36 31-79 31z"/><glyph glyph-name="guillemotleft" unicode="«" horiz-adv-x="1087" d="M999 786L772 467l234-315L819 20 508 467l311 444zm-450 0L322 467l233-315L369 20 57 467l312 444z"/><glyph glyph-name="logicalnot" unicode="¬" d="M956 0H690v307H68v240h888V0z"/><glyph glyph-name="uni00AD" unicode="­" horiz-adv-x="722" d="M102 414v272h519V414H102z"/><glyph glyph-name="registered" unicode="®" horiz-adv-x="1579" d="M68 684q0 194 97.5 358.5t264 259.5 361.5 95q147 0 280.5-56.5T1301 1189t153-227 57-278q-1-145-59-277t-154-228-229-153-278-57q-146 0-280 57T280 179.5 125.5 408 68 684zm1300 0q0 161-75.5 295T1084 1190.5 791 1268q-159 0-292-77.5t-210.5-212T211 684t77.5-295.5 211-214T791 96q157 0 290 78.5t210 214 77 295.5zm-442-61l-8-5 243-311H856L707 537V307H467v776h324q125 0 199.5-67.5T1065 834q0-74-38-132.5T926 623zM707 903V745h14q108 0 108 80 0 37-28 57.5T721 903h-14z"/><glyph glyph-name="macron" unicode="¯" d="M106 1104v201h812v-201H106z"/><glyph glyph-name="degree" unicode="°" d="M516 743q-134 0-227 93-92 92-92 221 0 127 92 217 96 92 221 92 64 0 123-24.5t102-65.5q92-89 92-219 0-129-92-221-93-93-219-93zm-151 312q0-61 41.5-102.5T512 911t105.5 41.5T659 1055t-41.5 102-105.5 41-105.5-41-41.5-102z"/><glyph glyph-name="plusminus" unicode="±" d="M68 731v246h311v313h266V977h311V731H645V416H379v315H68zm0-629v246h888V102H68z"/><glyph glyph-name="twosuperior" unicode="²" horiz-adv-x="765" d="M698 735V561H68l198 219q10 11 40.5 45t42.5 47.5 31 37.5 32 44q59 85 59 154 0 52-27 82-20 22-57 22-33 0-55-22-35-35-35-98H80q3 63 28.5 123t65.5 100q82 82 219 82 141 0 221-82 74-76 74-203 0-88-37.5-156T526 811l-86-76h258z"/><glyph glyph-name="threesuperior" unicode="³" horiz-adv-x="765" d="M68 840h208q3-46 33-76 33-33 80-33 50 0 78 31 29 29 29 78 0 42-29 71-33 29-76 29-5 0-47-6v139q65-4 92 21 27 24 27 65 0 35-23 58-19 22-57 22-39 0-61-27-23-26-23-63H109q8 111 79 182 76 76 209 76 125 0 193-70 61-61 61-157 0-66-26-109-20-33-56-55 49-15 82-58 47-63 47-139 0-111-71-182-82-82-230-82-144 0-231 82-86 81-98 203z"/><glyph glyph-name="acute" unicode="´" d="M621 1493l206-150-315-278-152 113z"/><glyph glyph-name="mu" unicode="µ" horiz-adv-x="1196" d="M440-471H113V915h327V506q0-173 62-230 34-34 96-34 59 0 98 39 60 60 60 233v401h327V0H756v115q-18-54-58-90-44-41-100-41-62 0-106 41-34 32-52 79v-575z"/><glyph glyph-name="mu" unicode="μ" horiz-adv-x="1196" d="M440-471H113V915h327V506q0-173 62-230 34-34 96-34 59 0 98 39 60 60 60 233v401h327V0H756v115q-18-54-58-90-44-41-100-41-62 0-106 41-34 32-52 79v-575z"/><glyph glyph-name="paragraph" unicode="¶" horiz-adv-x="1366" d="M674-195H440v846h-20q-83 0-157 30t-122 81q-86 91-86 237 0 165 101 261 114 106 372 106h689v-217h-148V-195H836v1344H674V-195z"/><glyph glyph-name="periodcentered" unicode="·" horiz-adv-x="507" d="M254 469q-101 0-174 70Q0 616 0 723q0 49 20.5 99T80 909q73 70 174 70 99 0 170-68 84-78 84-188 0-104-74-178-76-76-180-76z"/><glyph glyph-name="cedilla" unicode="¸" d="M590-94l217-90-254-299-172 82z"/><glyph glyph-name="onesuperior" unicode="¹" horiz-adv-x="452" d="M180 547v647H68v172h317V547H180z"/><glyph glyph-name="ordmasculine" unicode="º" horiz-adv-x="727" d="M365 788q-153 0-242 89-80 80-80 200 0 119 80 199 90 90 242 90 149 0 235-86 40-38 62-91.5t22-109.5q0-120-82-202-89-89-237-89zM53 547v155h621V547H53zm312 653q-48 0-86-33-37-32-37-90 0-55 37-88 35-35 86-35 41 0 77 29 43 37 43 94 0 59-36 90-38 33-84 33z"/><glyph glyph-name="guillemotright" unicode="»" horiz-adv-x="1087" d="M78 152l233 315L84 786l180 125 311-444L264 20zm450 0l234 315-227 319 180 125 311-444L715 20z"/><glyph glyph-name="onequarter" unicode="¼" horiz-adv-x="1587" d="M246 0l790 1366h178L422 0H246zm-66 547v647H68v172h317V547H180zm1260 272V313h96V156h-96V0h-193v156H866v129l305 534h269zm-365-506h172v316z"/><glyph glyph-name="onehalf" unicode="½" horiz-adv-x="1609" d="M213 0l791 1366h178L389 0H213zm-33 547v647H68v172h317V547H180zm1362-373V0H911l199 219q9 10 33 36.5t34 38 27 31.5 28.5 36 22.5 32q60 87 60 154 0 52-27 82-20 22-57 22-33 0-55-22-35-35-35-99H924q3 63 28.5 123.5T1018 754q82 82 219 82 141 0 221-82 74-76 74-203 0-88-37.5-156T1370 250l-86-76h258z"/><glyph glyph-name="threequarters" unicode="¾" horiz-adv-x="1820" d="M483 0l791 1366h178L659 0H483zM68 840h208q3-46 33-76 33-33 80-33 50 0 78 31 29 33 29 80 0 40-29 69t-76 29q-26 0-47-6v139q68 0 92 21 27 24 27 65 0 35-23 58-19 22-57 22-39 0-61-27-23-26-23-63H109q8 111 79 182 76 76 209 76 125 0 193-70 61-61 61-157 0-66-26-109-20-33-56-55 48-14 82-58 47-59 47-143 0-107-71-178-82-82-230-82-144 0-231 82-86 81-98 203zm1210-527h172v316zm364 506V313h97V156h-97V0h-192v156h-381v129l305 534h268z"/><glyph glyph-name="questiondown" unicode="¿" horiz-adv-x="1120" d="M410 436h333V84q-27 10-71 10-41 0-68-3t-61.5-17.5T481 31q-47-47-47-113 0-62 37-94 33-33 90-33 62 0 94 37 37 40 37 100h361q-7-102-48.5-184T903-389Q779-496 563-496q-230 0-360 125Q82-254 82-78q0 142 98 254 90 100 230 131v129zm157 498q86 0 150-64 63-63 63-149 0-87-63-150t-150-63q-86 0-151 65-60 60-60 148 0 87 62 149 64 64 149 64z"/><glyph glyph-name="Agrave" unicode="À" horiz-adv-x="1454" d="M1061 0l-84 229H481L389 0H14l525 1366h387L1440 0h-379zM580 500h303L729 942zm147 975l-315 278 209 150 258-316z"/><glyph glyph-name="Aacute" unicode="Á" horiz-adv-x="1454" d="M1061 0l-84 229H481L389 0H14l525 1366h387L1440 0h-379zM580 500h303L729 942zm256 1403l206-150-315-278-152 112z"/><glyph glyph-name="Acircumflex" unicode="Â" horiz-adv-x="1454" d="M1061 0l-84 229H481L389 0H14l525 1366h387L1440 0h-379zM580 500h303L729 942zm-117 975l-139 157 401 301 405-301-145-157-260 200z"/><glyph glyph-name="Atilde" unicode="Ã" horiz-adv-x="1454" d="M1061 0l-84 229H481L389 0H14l525 1366h387L1440 0h-379zM580 500h303L729 942zm354 1276l158-95q-14-36-40-76.5t-51-64.5q-59-59-147-59-54 0-119 30l-61 31q-49 25-74 25t-46.5-21.5T522 1481l-160 94q29 89 82 139 62 58 144 58 53 0 123-29l59-27q68-30 88-30 50 0 76 90z"/><glyph glyph-name="Adieresis" unicode="Ä" horiz-adv-x="1454" d="M1061 0l-84 229H481L389 0H14l525 1366h387L1440 0h-379zM580 500h303L729 942zm378 981q-72 0-124 55-52 58-52 123 0 63 54 125 53 53 122 53 72 0 123-51 56-56 56-127 0-68-54-125-53-53-125-53zm-464 0q-73 0-125 55-52 58-52 123 0 63 54 125 53 53 123 53 71 0 122-51 56-56 56-127 0-68-54-125-53-53-124-53z"/><glyph glyph-name="Aring" unicode="Å" horiz-adv-x="1454" d="M1061 0l-84 229H481L389 0H14l525 1366h387L1440 0h-379zM580 500h303L729 942zm428 1192q0-82-54-136-75-75-227-75t-227 75q-54 54-54 136 0 83 54 137 76 76 227 76t227-76q54-54 54-137zm-281 84q-57 0-88-31-21-21-21-51 0-31 21-52 30-30 88-30t88 30q21 21 21 52 0 30-21 51-31 31-88 31z"/><glyph glyph-name="AE" unicode="Æ" horiz-adv-x="1892" d="M1055 0l-88 240H473L387 0H14l527 1366h835l109-301h-449l84-227h449l112-301h-450l90-236h446L1878 0h-823zM571 510h299L725 913z"/><glyph glyph-name="Ccedilla" unicode="Ç" horiz-adv-x="1206" d="M1124 457V37Q1019-1 951-16T817-31q-167 0-301 56.5T289 174q-99 99-153 231T82 672q0 143 56 275t151 229 229 155 287 58q145 0 319-70V895q-122 149-309 149-145 0-246-90-118-110-118-280 0-73 28.5-144.5T561 408q46-43 113.5-69T815 313q178 0 309 144zM741-94l230-90-238-299-188 82z"/><glyph glyph-name="Egrave" unicode="È" horiz-adv-x="1001" d="M920 1366v-301H498V838h399V537H498V301h422V0H143v1366h777zm-347 109l-315 278 209 150 258-316z"/><glyph glyph-name="Eacute" unicode="É" horiz-adv-x="1001" d="M920 1366v-301H498V838h399V537H498V301h422V0H143v1366h777zm-330 537l207-150-316-278-151 112z"/><glyph glyph-name="Ecircumflex" unicode="Ê" horiz-adv-x="1001" d="M920 1366v-301H498V838h399V537H498V301h422V0H143v1366h777zm-652 109l-139 157 401 301 406-301-145-157-261 200z"/><glyph glyph-name="Edieresis" unicode="Ë" horiz-adv-x="1001" d="M920 1366v-301H498V838h399V537H498V301h422V0H143v1366h777zm-156 115q-73 0-125 55-51 57-51 123 0 64 53 125 53 53 123 53 72 0 123-51 55-55 55-127 0-69-53-125-53-53-125-53zm-465 0q-73 0-125 55-51 57-51 123 0 64 53 125 53 53 123 53 72 0 123-51 55-55 55-127 0-69-53-125-53-53-125-53z"/><glyph glyph-name="Igrave" unicode="Ì" horiz-adv-x="641" d="M143 1366h355V0H143v1366zm205 109L33 1753l209 150 258-316z"/><glyph glyph-name="Iacute" unicode="Í" horiz-adv-x="641" d="M143 1366h355V0H143v1366zm273 537l207-150-316-278-151 112z"/><glyph glyph-name="Icircumflex" unicode="Î" horiz-adv-x="641" d="M143 1366h355V0H143v1366zm-86 109l-139 157 401 301 406-301-145-157-261 200z"/><glyph glyph-name="Idieresis" unicode="Ï" horiz-adv-x="641" d="M143 1366h355V0H143v1366zm410 115q-73 0-125 55-51 57-51 123 0 64 53 125 53 53 123 53 72 0 123-51 55-55 55-127 0-69-53-125-53-53-125-53zm-465 0q-73 0-125 55-51 57-51 123 0 64 53 125 53 53 123 53 72 0 123-51 55-55 55-127 0-69-53-125-53-53-125-53z"/><glyph glyph-name="Eth" unicode="Ð" horiz-adv-x="1509" d="M725 0H229v606H41v246h188v514h465q348 0 543-188 190-183 190-498 0-295-178-473-90-90-225-148.5T725 0zM584 1065V852h241V606H584V301h71q199 0 299 98 105 100 105 281 0 95-28 173.5T952 979q-56 52-126.5 69T670 1065h-86z"/><glyph glyph-name="Ntilde" unicode="Ñ" horiz-adv-x="1648" d="M498 0H143v1366h355l653-836v836h354V0h-354L498 836V0zm532 1776l158-95q-36-90-90-141-59-59-148-59-54 0-119 30l-61 31q-49 25-74 25t-46.5-21.5T618 1481l-159 94q29 89 82 139 62 58 143 58 53 0 123-29l59-27q68-30 88-30 50 0 76 90z"/><glyph glyph-name="Ograve" unicode="Ò" horiz-adv-x="1671" d="M1589 682q0-140-54.5-274.5T1374 172q-103-99-243.5-151T836-31 541 21.5 297 172Q191 273 136.5 407.5T82 682q0 141 54.5 276.5T297 1194q103 98 244 150.5t295 52.5 294.5-52 243.5-151q106-100 160.5-235.5T1589 682zm-753 371q-77 0-150-27.5T559 944Q451 839 451 676q0-150 108-254 114-109 277-109 167 0 274 107 50 50 80.5 118.5T1221 682q0 76-30.5 145T1110 944q-56 53-128.5 81T836 1053zm2 422l-316 278 209 150 258-316z"/><glyph glyph-name="Oacute" unicode="Ó" horiz-adv-x="1671" d="M1589 682q0-140-54.5-274.5T1374 172q-103-99-243.5-151T836-31 541 21.5 297 172Q191 273 136.5 407.5T82 682q0 141 54.5 276.5T297 1194q103 98 244 150.5t295 52.5 294.5-52 243.5-151q106-100 160.5-235.5T1589 682zm-753 371q-77 0-150-27.5T559 944Q451 839 451 676q0-150 108-254 114-109 277-109 167 0 274 107 50 50 80.5 118.5T1221 682q0 76-30.5 145T1110 944q-56 53-128.5 81T836 1053zm110 850l207-150-315-278-152 112z"/><glyph glyph-name="Ocircumflex" unicode="Ô" horiz-adv-x="1671" d="M1589 682q0-140-54.5-274.5T1374 172q-103-99-243.5-151T836-31 541 21.5 297 172Q191 273 136.5 407.5T82 682q0 141 54.5 276.5T297 1194q103 98 244 150.5t295 52.5 294.5-52 243.5-151q106-100 160.5-235.5T1589 682zm-753 371q-77 0-150-27.5T559 944Q451 839 451 676q0-150 108-254 114-109 277-109 167 0 274 107 50 50 80.5 118.5T1221 682q0 76-30.5 145T1110 944q-56 53-128.5 81T836 1053zm-263 422l-139 157 402 301 405-301-145-157-260 200z"/><glyph glyph-name="Otilde" unicode="Õ" horiz-adv-x="1671" d="M1589 682q0-140-54.5-274.5T1374 172q-103-99-243.5-151T836-31 541 21.5 297 172Q191 273 136.5 407.5T82 682q0 141 54.5 276.5T297 1194q103 98 244 150.5t295 52.5 294.5-52 243.5-151q106-100 160.5-235.5T1589 682zm-753 371q-77 0-150-27.5T559 944Q451 839 451 676q0-150 108-254 114-109 277-109 167 0 274 107 50 50 80.5 118.5T1221 682q0 76-30.5 145T1110 944q-56 53-128.5 81T836 1053zm208 723l158-95q-36-90-90-141-59-59-147-59-54 0-119 30l-62 31q-49 25-73 25-25 0-46.5-21.5T633 1481l-160 94q29 89 82 139 62 58 143 58 53 0 123-29l60-27q68-30 88-30 49 0 75 90z"/><glyph glyph-name="Odieresis" unicode="Ö" horiz-adv-x="1671" d="M1589 682q0-140-54.5-274.5T1374 172q-103-99-243.5-151T836-31 541 21.5 297 172Q191 273 136.5 407.5T82 682q0 141 54.5 276.5T297 1194q103 98 244 150.5t295 52.5 294.5-52 243.5-151q106-100 160.5-235.5T1589 682zm-753 371q-77 0-150-27.5T559 944Q451 839 451 676q0-150 108-254 114-109 277-109 167 0 274 107 50 50 80.5 118.5T1221 682q0 76-30.5 145T1110 944q-56 53-128.5 81T836 1053zm233 428q-73 0-125 55-51 57-51 123 0 64 53 125 53 53 123 53 72 0 123-51 55-55 55-127 0-69-53-125-53-53-125-53zm-465 0q-73 0-125 55-51 57-51 123 0 64 53 125 53 53 123 53 72 0 123-51 55-55 55-127 0-69-53-125-53-53-125-53z"/><glyph glyph-name="multiply" unicode="×" d="M252 258L80 432l250 250L78 934l188 188 252-252 250 252 174-174-250-252 252-252-188-188-252 252z"/><glyph glyph-name="Oslash" unicode="Ø" horiz-adv-x="1695" d="M1634 1290l-178-176q146-194 146-430 0-141-55.5-275.5T1386 172Q1177-31 848-31 617-31 424 84L244-96 61 76l179 176Q94 435 94 680q0 158 59 290t156 224q96 91 233 147t306 56q234 0 424-115l180 180zM506 508l506 504q-71 41-164 41-168 0-277-109-108-108-108-268 0-93 43-168zm682 348L686 354q72-41 164-41 165 0 272 107 111 111 111 262 0 101-45 174z"/><glyph glyph-name="Ugrave" unicode="Ù" horiz-adv-x="1476" d="M143 1366h355V557q0-30 1.5-49.5t7.5-51 21-59.5 39-51q31-29 76.5-47t91.5-18q45 0 89.5 16t74.5 43q24 21 40 47.5t23.5 47.5 11.5 54.5 4.5 49 .5 49.5v778h354V582q0-67-3.5-111T1312 366t-46.5-117-85.5-110Q1013-31 729-31q-153 0-269 45.5T276 133q-80 87-106.5 199T143 582v784zm594 109l-315 278 209 150 258-316z"/><glyph glyph-name="Uacute" unicode="Ú" horiz-adv-x="1476" d="M143 1366h355V557q0-30 1.5-49.5t7.5-51 21-59.5 39-51q31-29 76.5-47t91.5-18q45 0 89.5 16t74.5 43q24 21 40 47.5t23.5 47.5 11.5 54.5 4.5 49 .5 49.5v778h354V582q0-67-3.5-111T1312 366t-46.5-117-85.5-110Q1013-31 729-31q-153 0-269 45.5T276 133q-80 87-106.5 199T143 582v784zm703 537l207-150-316-278-151 112z"/><glyph glyph-name="Ucircumflex" unicode="Û" horiz-adv-x="1476" d="M143 1366h355V557q0-30 1.5-49.5t7.5-51 21-59.5 39-51q31-29 76.5-47t91.5-18q45 0 89.5 16t74.5 43q24 21 40 47.5t23.5 47.5 11.5 54.5 4.5 49 .5 49.5v778h354V582q0-67-3.5-111T1312 366t-46.5-117-85.5-110Q1013-31 729-31q-153 0-269 45.5T276 133q-80 87-106.5 199T143 582v784zm330 109l-139 157 401 301 406-301-146-157-260 200z"/><glyph glyph-name="Udieresis" unicode="Ü" horiz-adv-x="1476" d="M143 1366h355V557q0-30 1.5-49.5t7.5-51 21-59.5 39-51q31-29 76.5-47t91.5-18q45 0 89.5 16t74.5 43q24 21 40 47.5t23.5 47.5 11.5 54.5 4.5 49 .5 49.5v778h354V582q0-67-3.5-111T1312 366t-46.5-117-85.5-110Q1013-31 729-31q-153 0-269 45.5T276 133q-80 87-106.5 199T143 582v784zm826 115q-73 0-125 55-51 57-51 123 0 64 53 125 53 53 123 53 72 0 123-51 55-55 55-127 0-69-53-125-53-53-125-53zm-465 0q-73 0-125 55-51 57-51 123 0 64 53 125 53 53 123 53 72 0 123-51 55-55 55-127 0-69-53-125-53-53-125-53z"/><glyph glyph-name="Yacute" unicode="Ý" horiz-adv-x="1310" d="M469 0v655l-494 711h424l258-373 248 373h430L825 655V0H469zm295 1903l207-150-316-278-151 112z"/><glyph glyph-name="Thorn" unicode="Þ" horiz-adv-x="1226" d="M721 268H498V0H143v1366h355v-184h211q218 0 346-123 73-70 100-151.5t27-180.5q0-101-24.5-185.5T1061 387Q940 268 721 268zM498 895V555h118q103 0 150 43 45 39 45 125 0 82-41 123-47 49-152 49H498z"/><glyph glyph-name="germandbls" unicode="ß" horiz-adv-x="1208" d="M440 0H113v1085q0 205 116 316 116 112 338 112 226 0 351-120 106-106 106-283 0-31-5.5-62.5t-20-73-48.5-80-84-65.5q91-29 156-96 58-60 84.5-129t26.5-160q0-237-152-366-83-70-190-91.5T537-27v275q53 0 102.5 18.5T721 317q55 55 55 142 0 92-57 153-72 77-182 72v260h22q71 0 117 41 37 35 37 111 0 61-35 100t-100 39q-60 0-97-37-41-41-41-127V0z"/><glyph glyph-name="agrave" unicode="à" horiz-adv-x="1261" d="M821 827v88h328V0H821v100Q725-31 537-31q-191 0-330 146Q76 255 76 451q0 225 141 366 60 60 146.5 94.5T547 946q166 0 274-119zM621 668q-81 0-144-60-65-62-65-149 0-90 63-150 28-26 68-43.5t80-17.5q84 0 147 63 61 61 61 148 0 88-63 149-64 60-147 60zm96 397l-316 278 209 150 258-315z"/><glyph glyph-name="aacute" unicode="á" horiz-adv-x="1261" d="M821 827v88h328V0H821v100Q725-31 537-31q-191 0-330 146Q76 255 76 451q0 225 141 366 60 60 146.5 94.5T547 946q166 0 274-119zM621 668q-81 0-144-60-65-62-65-149 0-90 63-150 28-26 68-43.5t80-17.5q84 0 147 63 61 61 61 148 0 88-63 149-64 60-147 60zm133 825l207-150-316-278-151 113z"/><glyph glyph-name="acircumflex" unicode="â" horiz-adv-x="1261" d="M821 827v88h328V0H821v100Q725-31 537-31q-191 0-330 146Q76 255 76 451q0 225 141 366 60 60 146.5 94.5T547 946q166 0 274-119zM621 668q-81 0-144-60-65-62-65-149 0-90 63-150 28-26 68-43.5t80-17.5q84 0 147 63 61 61 61 148 0 88-63 149-64 60-147 60zm-220 397l-139 158 402 301 405-301-145-158-260 201z"/><glyph glyph-name="atilde" unicode="ã" horiz-adv-x="1261" d="M821 827v88h328V0H821v100Q725-31 537-31q-191 0-330 146Q76 255 76 451q0 225 141 366 60 60 146.5 94.5T547 946q166 0 274-119zM621 668q-81 0-144-60-65-62-65-149 0-90 63-150 28-26 68-43.5t80-17.5q84 0 147 63 61 61 61 148 0 88-63 149-64 60-147 60zm251 698l158-94q-37-92-90-142-59-59-147-59-52 0-119 31l-62 31q-47 24-73 24-25 0-46.5-21.5T461 1071l-160 94q30 91 82 140 60 57 143 57 53 0 123-29l60-26q7-3 22-10t20.5-9 15.5-6 16.5-5 13.5-1q49 0 75 90z"/><glyph glyph-name="adieresis" unicode="ä" horiz-adv-x="1261" d="M821 827v88h328V0H821v100Q725-31 537-31q-191 0-330 146Q76 255 76 451q0 225 141 366 60 60 146.5 94.5T547 946q166 0 274-119zM621 668q-81 0-144-60-65-62-65-149 0-90 63-150 28-26 68-43.5t80-17.5q84 0 147 63 61 61 61 148 0 88-63 149-64 60-147 60zm276 403q-73 0-125 55-51 57-51 123 0 64 53 125 53 53 123 53 72 0 123-51 55-55 55-127 0-69-53-125-53-53-125-53zm-465 0q-73 0-125 55-51 57-51 123 0 64 53 125 53 53 123 53 72 0 123-51 55-55 55-127 0-69-53-125-53-53-125-53z"/><glyph glyph-name="aring" unicode="å" horiz-adv-x="1261" d="M821 827v88h328V0H821v100Q725-31 537-31q-191 0-330 146Q76 255 76 451q0 225 141 366 60 60 146.5 94.5T547 946q166 0 274-119zM621 668q-81 0-144-60-65-62-65-149 0-90 63-150 28-26 68-43.5t80-17.5q84 0 147 63 61 61 61 148 0 88-63 149-64 60-147 60zm325 614q0-82-53-135-76-76-227-76-152 0-228 76-53 53-53 135 0 84 53 137 76 76 228 76 151 0 227-76 53-53 53-137zm-280 84q-57 0-88-31-21-21-21-51t21-51q31-31 88-31t88 31q20 20 20 51t-20 51q-31 31-88 31z"/><glyph glyph-name="ae" unicode="æ" horiz-adv-x="1757" d="M1681 406H995q0-96 62-158 51-51 147-51 68 0 103 26 29 19 47 60h313q-45-144-166-232-115-82-301-82-144 0-244 54-84 45-125 124-66-83-163-129-106-45-213-45-94 0-172.5 28.5T154 80q-78 78-78 188 0 119 80 199 104 104 303 104 127 0 233-47v23q0 69-43 112-54 54-176 54-120 0-254-51v243q150 43 273 43 114 0 190-35 96-44 149-127 58 75 140 117 94 45 213 45 114 0 209-35.5t155-95.5q133-133 133-385v-26zm-677 186h376q-13 62-55 98-57 51-137 51-70 0-121-45-45-42-63-104zM541 389q-79 0-117-29-33-24-33-69 0-44 39-70 42-31 109-31 54 0 106 25 55 28 55 76 0 21-14 42t-35 32q-46 24-110 24z"/><glyph glyph-name="ccedilla" unicode="ç" horiz-adv-x="878" d="M805 295V20Q701-31 578-31q-214 0-361 140-66 64-103.5 153.5T76 451q0 101 39 193.5T223 805q146 139 369 139 111 0 213-51V618q-83 60-170 60-96 0-160-64-63-63-63-157 0-91 57-154 66-70 168-70 96 0 168 62zM508-94l217-90-254-299-172 82z"/><glyph glyph-name="egrave" unicode="è" horiz-adv-x="1159" d="M1083 432v-35H401q0-40 15-82.5t43-70.5q45-45 135-45 63 0 106 24 40 24 58 62h313q-31-112-110-189Q830-31 588-31q-239 0-379 140Q74 244 74 455q0 220 137 354 137 133 375 133 218 0 352-125 145-138 145-385zM412 586h370q-13 58-53 98-49 49-135 49-84 0-133-49-41-45-49-98zm213 479l-316 278 209 150 258-315z"/><glyph glyph-name="eacute" unicode="é" horiz-adv-x="1159" d="M1083 432v-35H401q0-40 15-82.5t43-70.5q45-45 135-45 63 0 106 24 40 24 58 62h313q-31-112-110-189Q830-31 588-31q-239 0-379 140Q74 244 74 455q0 220 137 354 137 133 375 133 218 0 352-125 145-138 145-385zM412 586h370q-13 58-53 98-49 49-135 49-84 0-133-49-41-45-49-98zm290 907l207-150-315-278-152 113z"/><glyph glyph-name="ecircumflex" unicode="ê" horiz-adv-x="1159" d="M1083 432v-35H401q0-40 15-82.5t43-70.5q45-45 135-45 63 0 106 24 40 24 58 62h313q-31-112-110-189Q830-31 588-31q-239 0-379 140Q74 244 74 455q0 220 137 354 137 133 375 133 218 0 352-125 145-138 145-385zM412 586h370q-13 58-53 98-49 49-135 49-84 0-133-49-41-45-49-98zm-90 479l-140 158 402 301 405-301-145-158-260 201z"/><glyph glyph-name="edieresis" unicode="ë" horiz-adv-x="1159" d="M1083 432v-35H401q0-40 15-82.5t43-70.5q45-45 135-45 63 0 106 24 40 24 58 62h313q-31-112-110-189Q830-31 588-31q-239 0-379 140Q74 244 74 455q0 220 137 354 137 133 375 133 218 0 352-125 145-138 145-385zM412 586h370q-13 58-53 98-49 49-135 49-84 0-133-49-41-45-49-98zm405 485q-73 0-125 55-51 57-51 123 0 64 53 125 53 53 123 53 72 0 123-51 55-55 55-127 0-69-53-125-53-53-125-53zm-465 0q-73 0-125 55-51 57-51 123 0 64 53 125 53 53 123 53 72 0 123-51 55-55 55-127 0-69-53-125-53-53-125-53z"/><glyph glyph-name="igrave" unicode="ì" horiz-adv-x="546" d="M109 915h327V0H109v915zm167 150l-315 278 209 150 258-315z"/><glyph glyph-name="iacute" unicode="í" horiz-adv-x="546" d="M109 915h327V0H109v915zm280 578l207-150-315-278-152 113z"/><glyph glyph-name="icircumflex" unicode="î" horiz-adv-x="546" d="M109 915h327V0H109v915zm-97 150l-139 158 401 301 406-301-145-158-261 201z"/><glyph glyph-name="idieresis" unicode="ï" horiz-adv-x="546" d="M109 915h327V0H109v915zm395 156q-73 0-125 55-51 57-51 123 0 64 53 125 53 53 123 53 72 0 123-51 55-55 55-127 0-69-53-125-53-53-125-53zm-465 0q-73 0-125 55-51 57-51 123 0 64 53 125 53 53 123 53 72 0 123-51 55-55 55-127 0-69-53-125-53-53-125-53z"/><glyph glyph-name="eth" unicode="ð" horiz-adv-x="1208" d="M160 1260l61 227q279 0 471-96l322 149 84-156-238-108q150-110 217-272 70-166 70-400 0-331-164-495Q847-31 598-31 482-31 385.5 1.5T205 119Q61 263 61 473q0 203 138 330 67 62 163 97.5T557 936q160 0 283-98-13 116-82 204-53 65-135 103L217 948l-82 156 291 131q-111 25-266 25zm444-598q-35 0-73-13.5T467 610q-31-28-48.5-71T401 455q0-42 17.5-85t48.5-71q54-51 137-51t137 51q31 28 48.5 71t17.5 85q0 41-17.5 84T741 610q-26 25-64 38.5T604 662z"/><glyph glyph-name="ntilde" unicode="ñ" horiz-adv-x="1198" d="M113 0v915h327V801q102 135 291 135 172 0 270-98 54-54 70-111.5t16-144.5V0H760v463q0 42-1 63t-10.5 57.5T719 641q-37 39-105 39-74 0-120-43-24-23-39-63t-15-82V0H113zm694 1366l158-94q-14-36-40-77t-51-65q-59-59-147-59-52 0-119 31l-61 31q-47 24-74 24-25 0-46.5-21.5T395 1071l-159 94q30 92 81 140 60 57 144 57 53 0 123-29l59-26q7-3 22-10t20.5-9 15.5-6 16.5-5 13.5-1q50 0 76 90z"/><glyph glyph-name="ograve" unicode="ò" horiz-adv-x="1251" d="M627 668q-39 0-79.5-16.5T479 608q-63-60-63-149 0-83 63-146 61-61 148-61 84 0 145 61 64 61 64 146 0 38-17 78.5T772 608q-28 27-67.5 43.5T627 668zm549-209q0-199-142-338Q879-31 625-31T217 121Q76 259 76 459q0 199 141 336 155 151 408 151 250 0 409-151 142-138 142-336zm-531 606l-315 278 209 150 258-315z"/><glyph glyph-name="oacute" unicode="ó" horiz-adv-x="1251" d="M627 668q-39 0-79.5-16.5T479 608q-63-60-63-149 0-83 63-146 61-61 148-61 84 0 145 61 64 61 64 146 0 38-17 78.5T772 608q-28 27-67.5 43.5T627 668zm549-209q0-199-142-338Q879-31 625-31T217 121Q76 259 76 459q0 199 141 336 155 151 408 151 250 0 409-151 142-138 142-336zM723 1493l207-150-316-278-151 113z"/><glyph glyph-name="ocircumflex" unicode="ô" horiz-adv-x="1251" d="M627 668q-39 0-79.5-16.5T479 608q-63-60-63-149 0-83 63-146 61-61 148-61 84 0 145 61 64 61 64 146 0 38-17 78.5T772 608q-28 27-67.5 43.5T627 668zm549-209q0-199-142-338Q879-31 625-31T217 121Q76 259 76 459q0 199 141 336 155 151 408 151 250 0 409-151 142-138 142-336zm-807 606l-140 158 402 301 405-301-145-158-260 201z"/><glyph glyph-name="otilde" unicode="õ" horiz-adv-x="1251" d="M627 668q-39 0-79.5-16.5T479 608q-63-60-63-149 0-83 63-146 61-61 148-61 84 0 145 61 64 61 64 146 0 38-17 78.5T772 608q-28 27-67.5 43.5T627 668zm549-209q0-199-142-338Q879-31 625-31T217 121Q76 259 76 459q0 199 141 336 155 151 408 151 250 0 409-151 142-138 142-336zm-355 907l158-94q-37-92-90-142-59-59-148-59-51 0-118 31l-62 31q-47 24-74 24-25 0-46-21.5t-31-64.5l-160 94q30 91 82 140 60 57 143 57 53 0 123-29l59-26q7-3 22-10t20.5-9 15.5-6 16.5-5 13.5-1q50 0 76 90z"/><glyph glyph-name="odieresis" unicode="ö" horiz-adv-x="1251" d="M627 668q-39 0-79.5-16.5T479 608q-63-60-63-149 0-83 63-146 61-61 148-61 84 0 145 61 64 61 64 146 0 38-17 78.5T772 608q-28 27-67.5 43.5T627 668zm549-209q0-199-142-338Q879-31 625-31T217 121Q76 259 76 459q0 199 141 336 155 151 408 151 250 0 409-151 142-138 142-336zm-312 612q-73 0-125 55-51 57-51 123 0 64 53 125 53 53 123 53 72 0 123-51 55-55 55-127 0-69-53-125-53-53-125-53zm-465 0q-73 0-125 55-51 57-51 123 0 64 53 125 53 53 123 53 72 0 123-51 56-56 56-127 0-68-54-125-53-53-125-53z"/><glyph glyph-name="divide" unicode="÷" d="M358 1044q0 64 43 107 45 45 111 45 63 0 106-43 46-46 46-109 0-62-46-108-46-43-106-43-69 0-111 45-43 43-43 106zM68 573v246h888V573H68zm290-225q0 64 43 107 45 45 111 45 63 0 106-43 46-46 46-109 0-62-46-108-46-43-106-43-69 0-111 45-43 43-43 106z"/><glyph glyph-name="oslash" unicode="ø" horiz-adv-x="1228" d="M434 369l275 274q-45 25-91 25-86 0-149-60-61-58-61-145 0-44 26-94zm371 180L532 276q38-24 86-24 87 0 148 61t61 146q0 52-22 90zm371 360l-138-135q129-125 129-315 0-200-141-338Q940 36 839 2.5T616-31q-174 0-307 74L162-104 53-2l140 139Q68 271 68 459q0 201 141 336 155 151 407 151 172 0 306-76l145 144z"/><glyph glyph-name="ugrave" unicode="ù" horiz-adv-x="1208" d="M113 915h327V403q0-89 49-133 39-34 115-34 77 0 117 38 47 47 47 129v512h328V344q0-74-16.5-131.5T1008 98Q932 20 832.5-5.5T612-31q-60 0-108.5 4.5T397-9.5t-108.5 40T199 100q-86 91-86 244v571zm493 150l-315 278 209 150 258-315z"/><glyph glyph-name="uacute" unicode="ú" horiz-adv-x="1208" d="M113 915h327V403q0-89 49-133 39-34 115-34 77 0 117 38 47 47 47 129v512h328V344q0-74-16.5-131.5T1008 98Q932 20 832.5-5.5T612-31q-60 0-108.5 4.5T397-9.5t-108.5 40T199 100q-86 91-86 244v571zm602 578l207-150-316-278-151 113z"/><glyph glyph-name="ucircumflex" unicode="û" horiz-adv-x="1208" d="M113 915h327V403q0-89 49-133 39-34 115-34 77 0 117 38 47 47 47 129v512h328V344q0-74-16.5-131.5T1008 98Q932 20 832.5-5.5T612-31q-60 0-108.5 4.5T397-9.5t-108.5 40T199 100q-86 91-86 244v571zm229 150l-139 158 401 301 406-301-146-158-260 201z"/><glyph glyph-name="udieresis" unicode="ü" horiz-adv-x="1208" d="M113 915h327V403q0-89 49-133 39-34 115-34 77 0 117 38 47 47 47 129v512h328V344q0-74-16.5-131.5T1008 98Q932 20 832.5-5.5T612-31q-60 0-108.5 4.5T397-9.5t-108.5 40T199 100q-86 91-86 244v571zm725 156q-73 0-125 55-51 57-51 123 0 64 53 125 53 53 123 53 72 0 123-51 55-55 55-127 0-69-53-125-53-53-125-53zm-465 0q-73 0-125 55-51 57-51 123 0 64 53 125 53 53 123 53 72 0 123-51 55-55 55-127 0-69-53-125-53-53-125-53z"/><glyph glyph-name="yacute" unicode="ý" horiz-adv-x="1236" d="M135-469l307 594L0 915h381l244-469 237 469h375L502-469H135zm596 1962l207-150-315-278-152 113z"/><glyph glyph-name="thorn" unicode="þ" horiz-adv-x="1261" d="M440 88v-557H113v1962h327V815q104 131 281 131 193 0 326-133 139-139 139-354 0-218-148-363Q908-31 725-31 555-31 440 88zm201 580q-85 0-147-62-64-64-64-151 0-38 18.5-78.5T494 309q61-61 147-61 87 0 145 61 28 28 46 67t18 79q0 87-64 151-59 62-145 62z"/><glyph glyph-name="ydieresis" unicode="ÿ" horiz-adv-x="1236" d="M135-469l307 594L0 915h381l244-469 237 469h375L502-469H135zm719 1540q-73 0-125 55-51 57-51 123 0 64 53 125 53 53 123 53 72 0 123-51 55-55 55-127 0-69-53-125-53-53-125-53zm-465 0q-73 0-125 55-51 57-51 123 0 64 53 125 53 53 123 53 72 0 123-51 55-55 55-127 0-69-53-125-53-53-125-53z"/><glyph glyph-name="Amacron" unicode="Ā" horiz-adv-x="1454" d="M1061 0l-84 229H481L389 0H14l525 1366h387L1440 0h-379zM580 500h303L729 942zM342 1534v201h770v-201H342z"/><glyph glyph-name="amacron" unicode="ā" horiz-adv-x="1261" d="M821 827v88h328V0H821v100Q725-31 537-31q-191 0-330 146Q76 255 76 451q0 225 141 366 60 60 146.5 94.5T547 946q166 0 274-119zM621 668q-81 0-144-60-65-62-65-149 0-90 63-150 28-26 68-43.5t80-17.5q84 0 147 63 61 61 61 148 0 88-63 149-64 60-147 60zm-381 436v201h811v-201H240z"/><glyph glyph-name="Abreve" unicode="Ă" horiz-adv-x="1454" d="M1061 0l-84 229H481L389 0H14l525 1366h387L1440 0h-379zM580 500h303L729 942zm290 1296h211q-2-135-90-223-92-92-266-92t-266 92q-88 88-90 223h211q6-53 41-84 40-37 104-37t104 37q35 31 41 84z"/><glyph glyph-name="abreve" unicode="ă" horiz-adv-x="1261" d="M821 827v88h328V0H821v100Q725-31 537-31q-191 0-330 146Q76 255 76 451q0 225 141 366 60 60 146.5 94.5T547 946q166 0 274-119zM621 668q-81 0-144-60-65-62-65-149 0-90 63-150 28-26 68-43.5t80-17.5q84 0 147 63 61 61 61 148 0 88-63 149-64 60-147 60zm170 718h210q-2-135-90-223-92-92-266-92t-266 92q-88 88-90 223h211q6-52 41-83 40-37 104-37 65 0 105 37 35 31 41 83z"/><glyph glyph-name="Aogonek" unicode="Ą" horiz-adv-x="1454" d="M483 238L389 0H14l525 1366h387L1440 0h-217q-47-28-76-61-43-46-43-95 0-28 20-45 18-18 54-18 53 0 100 37l-45-176q-67-37-135-37-96 0-150 57-43 43-43 113 0 68 43 125 39 55 113 100l-88 238H483zm99 270h295L729 942z"/><glyph glyph-name="aogonek" unicode="ą" horiz-adv-x="1261" d="M819 827v88h328V0h-82q-53-34-80-61-39-35-39-78 0-33 23-56 22-22 59-22 46 0 100 37l-43-174q-53-35-135-35-98 0-147 55-41 45-41 105 0 66 39 125Q845-41 915 0h-96v109Q714-31 537-31q-88 0-175 36.5T205 115Q76 247 76 453q0 118 39 210.5T215 817q60 60 145.5 94.5T535 946q171 0 284-119zM621 668q-86 0-146-60-63-61-63-149 0-89 61-150t148-61q84 0 147 63 61 61 61 148 0 86-63 149-60 60-145 60z"/><glyph glyph-name="Cacute" unicode="Ć" horiz-adv-x="1206" d="M1124 457V37Q1019-1 951-16T817-31q-167 0-301 56.5T289 174q-99 99-153 231T82 672q0 143 56 275t151 229 229 155 287 58q145 0 319-70V895q-122 149-309 149-145 0-246-90-118-110-118-280 0-73 28.5-144.5T561 408q46-43 113.5-69T815 313q178 0 309 144zM907 1903l207-150-315-278-152 112z"/><glyph glyph-name="cacute" unicode="ć" horiz-adv-x="878" d="M805 295V20Q701-31 578-31q-214 0-361 140-66 64-103.5 153.5T76 451q0 101 39 193.5T223 805q146 139 369 139 111 0 213-51V618q-83 60-170 60-96 0-160-64-63-63-63-157 0-91 57-154 66-70 168-70 96 0 168 62zM682 1493l207-150-316-278-151 113z"/><glyph glyph-name="Ccircumflex" unicode="Ĉ" horiz-adv-x="1206" d="M1124 457V37Q1019-1 951-16T817-31q-167 0-301 56.5T289 174q-99 99-153 231T82 672q0 143 56 275t151 229 229 155 287 58q145 0 319-70V895q-122 149-309 149-145 0-246-90-118-110-118-280 0-73 28.5-144.5T561 408q46-43 113.5-69T815 313q178 0 309 144zM555 1475l-139 157 401 301 406-301-146-157-260 200z"/><glyph glyph-name="ccircumflex" unicode="ĉ" horiz-adv-x="878" d="M805 295V20Q701-31 578-31q-214 0-361 140-66 64-103.5 153.5T76 451q0 101 39 193.5T223 805q146 139 369 139 111 0 213-51V618q-83 60-170 60-96 0-160-64-63-63-63-157 0-91 57-154 66-70 168-70 96 0 168 62zm-496 770l-139 158 401 301 406-301-146-158-260 201z"/><glyph glyph-name="Cdotaccent" unicode="Ċ" horiz-adv-x="1206" d="M1124 457V37Q1019-1 951-16T817-31q-167 0-301 56.5T289 174q-99 99-153 231T82 672q0 143 56 275t151 229 229 155 287 58q145 0 319-70V895q-122 149-309 149-145 0-246-90-118-110-118-280 0-73 28.5-144.5T561 408q46-43 113.5-69T815 313q178 0 309 144zM766 1481q-75 0-131 53-55 55-55 129 0 82 55 137 53 53 131 53t131-53q55-55 55-133 0-81-55-133-56-53-131-53z"/><glyph glyph-name="cdotaccent" unicode="ċ" horiz-adv-x="878" d="M805 295V20Q701-31 578-31q-214 0-361 140-66 64-103.5 153.5T76 451q0 101 39 193.5T223 805q146 139 369 139 111 0 213-51V618q-83 60-170 60-96 0-160-64-63-63-63-157 0-91 57-154 66-70 168-70 96 0 168 62zm-273 776q-75 0-131 53-55 55-55 129 0 83 55 138 53 53 131 53 79 0 132-53 55-55 55-134 0-81-55-133-56-53-132-53z"/><glyph glyph-name="Ccaron" unicode="Č" horiz-adv-x="1206" d="M1124 457V37Q1019-1 951-16T817-31q-167 0-301 56.5T289 174q-99 99-153 231T82 672q0 143 56 275t151 229 229 155 287 58q145 0 319-70V895q-122 149-309 149-145 0-246-90-118-110-118-280 0-73 28.5-144.5T561 408q46-43 113.5-69T815 313q178 0 309 144zM797 1475l-402 301 140 157 262-200 260 200 145-157z"/><glyph glyph-name="ccaron" unicode="č" horiz-adv-x="878" d="M805 295V20Q701-31 578-31q-214 0-361 140-66 64-103.5 153.5T76 451q0 101 39 193.5T223 805q146 139 369 139 111 0 213-51V618q-83 60-170 60-96 0-160-64-63-63-63-157 0-91 57-154 66-70 168-70 96 0 168 62zm-234 770l-401 301 139 158 262-201 260 201 146-158z"/><glyph glyph-name="Dcaron" unicode="Ď" horiz-adv-x="1423" d="M639 0H143v1366h465q348 0 543-188 190-183 190-498 0-295-178-473-90-90-225-148.5T639 0zM498 1065V301h71q199 0 299 98 105 100 105 281 0 95-28 173.5T866 979q-56 52-126.5 69T584 1065h-86zm135 410l-402 301 140 157 262-200 260 200 145-157z"/><glyph glyph-name="dcaron" unicode="ď" horiz-adv-x="1581" d="M1149 1493V0H821v100Q720-31 545-31 353-31 223 96q-70 68-108.5 162.5T76 461q0 111 41 204.5T225 823q129 123 324 123 161 0 272-119v666h328zM621 248q79 0 141 55 32 29 50.5 71.5T831 459q0 37-17.5 78.5T770 606q-59 62-149 62-86 0-146-60-63-63-63-155 0-81 63-144 61-61 146-61zm604 756l110 430 307-54-212-413z"/><glyph glyph-name="Dcroat" unicode="Đ" horiz-adv-x="1509" d="M725 0H229v606H41v246h188v514h465q348 0 543-188 190-183 190-498 0-295-178-473-90-90-225-148.5T725 0zM584 1065V852h241V606H584V301h71q199 0 299 98 105 100 105 281 0 95-28 173.5T952 979q-56 52-126.5 69T670 1065h-86z"/><glyph glyph-name="dcroat" unicode="đ" horiz-adv-x="1257" d="M1147 1493v-195h168v-221h-168V0H819v100Q720-31 545-31 352-31 221 96q-68 67-106.5 163T76 461q0 100 38 197t109 165q65 61 150.5 92T549 946q163 0 270-119v250H483v221h336v195h328zM618 248q85 0 144 55 30 27 48.5 71t18.5 85q0 36-17.5 79T770 606q-59 62-152 62-85 0-145-60-29-29-45-71.5T412 453q0-35 16.5-74.5T473 309q58-61 145-61z"/><glyph glyph-name="Emacron" unicode="Ē" horiz-adv-x="1001" d="M920 1366v-301H498V838h399V537H498V301h422V0H143v1366h777zm-773 168v201h771v-201H147z"/><glyph glyph-name="emacron" unicode="ē" horiz-adv-x="1159" d="M1083 432v-35H401q0-40 15-82.5t43-70.5q45-45 135-45 63 0 106 24 40 24 58 62h313q-31-112-110-189Q830-31 588-31q-239 0-379 140Q74 244 74 455q0 220 137 354 137 133 375 133 218 0 352-125 145-138 145-385zM412 586h370q-13 58-53 98-49 49-135 49-84 0-133-49-41-45-49-98zm-232 518v201h811v-201H180z"/><glyph glyph-name="Edotaccent" unicode="Ė" horiz-adv-x="1001" d="M920 1366v-301H498V838h399V537H498V301h422V0H143v1366h777zm-388 115q-75 0-131 53-55 55-55 129 0 82 55 137 53 53 131 53 79 0 132-53 55-55 55-133 0-81-55-133-56-53-132-53z"/><glyph glyph-name="edotaccent" unicode="ė" horiz-adv-x="1159" d="M1083 432v-35H401q0-40 15-82.5t43-70.5q45-45 135-45 63 0 106 24 40 24 58 62h313q-31-112-110-189Q830-31 588-31q-239 0-379 140Q74 244 74 455q0 220 137 354 137 133 375 133 218 0 352-125 145-138 145-385zM412 586h370q-13 58-53 98-49 49-135 49-84 0-133-49-41-45-49-98zm174 485q-75 0-131 53-56 56-56 129 0 82 56 138 53 53 131 53t131-53q55-55 55-134 0-81-55-133-56-53-131-53z"/><glyph glyph-name="Eogonek" unicode="Ę" horiz-adv-x="1001" d="M920 1366v-301H498V838h399V537H498V301h422V0h-82q-47-28-76-61-43-46-43-95 0-28 20-45 18-18 54-18 53 0 100 37l-45-176q-67-37-135-37-96 0-150 57-43 43-43 113 0 68 43 125Q602-45 676 0H143v1366h777z"/><glyph glyph-name="eogonek" unicode="ę" horiz-adv-x="1159" d="M1083 432v-35H401q0-43 16.5-86t43.5-69q49-45 139-45 58 0 107 30 35 22 51 56h313q-28-114-110-193-45-43-121-82-10-7-33-20.5T768-37t-29-24q-39-35-39-78 0-33 23-56 22-22 59-22 47 0 101 37l-43-174q-52-35-135-35-99 0-148 55-41 48-41 105 0 60 35 116 31 51 76 82-16-2-52-2-231 0-374 148Q74 251 74 455q0 221 137 354t375 133q218 0 352-125 145-138 145-385zM412 586h370q-13 58-53 98-49 49-135 49-87 0-133-49-41-41-49-98z"/><glyph glyph-name="Ecaron" unicode="Ě" horiz-adv-x="1001" d="M920 1366v-301H498V838h399V537H498V301h422V0H143v1366h777zm-390 109l-401 301 139 157 262-200 261 200 145-157z"/><glyph glyph-name="ecaron" unicode="ě" horiz-adv-x="1159" d="M1083 432v-35H401q0-40 15-82.5t43-70.5q45-45 135-45 63 0 106 24 40 24 58 62h313q-31-112-110-189Q830-31 588-31q-239 0-379 140Q74 244 74 455q0 220 137 354 137 133 375 133 218 0 352-125 145-138 145-385zM412 586h370q-13 58-53 98-49 49-135 49-84 0-133-49-41-45-49-98zm172 479l-402 301 140 158 262-201 260 201 145-158z"/><glyph glyph-name="Gcircumflex" unicode="Ĝ" horiz-adv-x="1585" d="M799 498v276h704q0-210-50-356.5T1284 160Q1099-12 803-12q-326 0-524 202-86 86-141.5 211.5T82 684q0 156 55.5 288T287 1196q201 201 530 201 217 0 369-92 77-48 141.5-123.5T1430 1024l-338-139q-32 82-99 137-82 68-190 68-139 0-234-95-57-57-87.5-143T451 682q0-178 108-295 98-104 250-104 122 0 197 63 69 56 84 152H799zm-244 977l-139 157 401 301 406-301-146-157-260 200z"/><glyph glyph-name="gcircumflex" unicode="ĝ" horiz-adv-x="1255" d="M815 915h328V57q0-123-24-211t-101-168Q873-469 614-469q-269 0-428 162-85 88-100 190h365q30-94 153-94 93 0 146 51 65 60 65 170v92Q747 29 680 5.5T541-18q-213 0-338 129-61 62-94 150T76 444q0 105 36.5 199.5T211 803q65 68 152 103.5T543 942q165 0 272-121v94zM621 670q-84 0-146-62-63-66-63-147 0-87 63-150 59-59 148-59 86 0 147 61 29 29 45 70t16 78q0 36-18 78t-47 71q-60 60-145 60zm-222 395l-139 158 402 301 405-301-145-158-260 201z"/><glyph glyph-name="Gbreve" unicode="Ğ" horiz-adv-x="1585" d="M799 498v276h704q0-210-50-356.5T1284 160Q1099-12 803-12q-326 0-524 202-86 86-141.5 211.5T82 684q0 156 55.5 288T287 1196q201 201 530 201 217 0 369-92 77-48 141.5-123.5T1430 1024l-338-139q-32 82-99 137-82 68-190 68-139 0-234-95-57-57-87.5-143T451 682q0-178 108-295 98-104 250-104 122 0 197 63 69 56 84 152H799zm155 1298h211q-2-135-90-223-92-92-266-92t-266 92q-88 88-90 223h211q6-53 41-84 40-37 104-37t104 37q35 31 41 84z"/><glyph glyph-name="gbreve" unicode="ğ" horiz-adv-x="1255" d="M815 915h328V57q0-123-24-211t-101-168Q873-469 614-469q-269 0-428 162-85 88-100 190h365q30-94 153-94 93 0 146 51 65 60 65 170v92Q747 29 680 5.5T541-18q-213 0-338 129-61 62-94 150T76 444q0 105 36.5 199.5T211 803q65 68 152 103.5T543 942q165 0 272-121v94zM621 670q-84 0-146-62-63-66-63-147 0-87 63-150 59-59 148-59 86 0 147 61 29 29 45 70t16 78q0 36-18 78t-47 71q-60 60-145 60zm139 716h211q-2-135-90-223-92-92-267-92-174 0-266 92-88 88-90 223h211q6-52 41-83 40-37 104-37 65 0 105 37 35 31 41 83z"/><glyph glyph-name="Gdotaccent" unicode="Ġ" horiz-adv-x="1585" d="M799 498v276h704q0-210-50-356.5T1284 160Q1099-12 803-12q-326 0-524 202-86 86-141.5 211.5T82 684q0 156 55.5 288T287 1196q201 201 530 201 217 0 369-92 77-48 141.5-123.5T1430 1024l-338-139q-32 82-99 137-82 68-190 68-139 0-234-95-57-57-87.5-143T451 682q0-178 108-295 98-104 250-104 122 0 197 63 69 56 84 152H799zm16 983q-75 0-131 53-55 55-55 129 0 82 55 137 53 53 131 53t131-53q55-55 55-133 0-81-55-133-56-53-131-53z"/><glyph glyph-name="gdotaccent" unicode="ġ" horiz-adv-x="1255" d="M815 915h328V57q0-123-24-211t-101-168Q873-469 614-469q-269 0-428 162-85 88-100 190h365q30-94 153-94 93 0 146 51 65 60 65 170v92Q747 29 680 5.5T541-18q-213 0-338 129-61 62-94 150T76 444q0 105 36.5 199.5T211 803q65 68 152 103.5T543 942q165 0 272-121v94zM621 670q-84 0-146-62-63-66-63-147 0-87 63-150 59-59 148-59 86 0 147 61 29 29 45 70t16 78q0 36-18 78t-47 71q-60 60-145 60zm-7 401q-75 0-131 53-55 55-55 129 0 83 55 138 53 53 131 53t131-53q56-56 56-134 0-80-56-133t-131-53z"/><glyph glyph-name="Gcommaaccent" unicode="Ģ" horiz-adv-x="1585" d="M799 498v276h704q0-210-50-356.5T1284 160Q1099-12 803-12q-326 0-524 202-86 86-141.5 211.5T82 684q0 156 55.5 288T287 1196q201 201 530 201 217 0 369-92 77-48 141.5-123.5T1430 1024l-338-139q-32 82-99 137-82 68-190 68-139 0-234-95-57-57-87.5-143T451 682q0-178 108-295 98-104 250-104 122 0 197 63 69 56 84 152H799zM553-508l106 406 308-33-209-397z"/><glyph glyph-name="gcommaaccent" unicode="ģ" horiz-adv-x="1255" d="M815 915h328V57q0-123-24-211t-101-168Q873-469 614-469q-269 0-428 162-85 88-100 190h365q30-94 153-94 93 0 146 51 65 60 65 170v92Q747 29 680 5.5T541-18q-213 0-338 129-61 62-94 150T76 444q0 105 36.5 199.5T211 803q65 68 152 103.5T543 942q165 0 272-121v94zM621 670q-84 0-146-62-63-66-63-147 0-87 63-150 59-59 148-59 86 0 147 61 29 29 45 70t16 78q0 36-18 78t-47 71q-60 60-145 60zm219 760l-107-386-307 33 209 377z"/><glyph glyph-name="Hcircumflex" unicode="Ĥ" horiz-adv-x="1509" d="M498 1366V856h512v510h356V0h-356v553H498V0H143v1366h355zm-9 109l-139 157 402 301 405-301-145-157-260 200z"/><glyph glyph-name="hcircumflex" unicode="ĥ" horiz-adv-x="1198" d="M113 0v1493h327V801q45 56 103 90 77 45 188 45 172 0 270-98 55-55 70.5-113.5T1087 582V0H760v463q0 133-41 178-35 39-105 39-74 0-118-39-56-52-56-149V0H113zM23 1516l-140 157 402 301 405-301-145-157-260 200z"/><glyph glyph-name="Hbar" unicode="Ħ" horiz-adv-x="1509" d="M498 1366v-109h512v109h356v-109h115v-239h-115V0h-356v553H498V0H143v1018H29v239h114v109h355zm512-348H498V856h512v162z"/><glyph glyph-name="hbar" unicode="ħ" horiz-adv-x="1273" d="M188 0v1077H20v221h168v195h328v-195h336v-221H516V801q46 57 102 90 77 45 189 45 172 0 270-98 55-55 70.5-113.5T1163 582V0H836v463q0 133-41 178-35 39-105 39-75 0-119-39-55-51-55-149V0H188z"/><glyph glyph-name="Imacron" unicode="Ī" horiz-adv-x="641" d="M143 1366h355V0H143v1366zm-206 168v201h770v-201H-63z"/><glyph glyph-name="imacron" unicode="ī" horiz-adv-x="546" d="M109 915h327V0H109v915zm-238 189v201h811v-201h-811z"/><glyph glyph-name="Iogonek" unicode="Į" horiz-adv-x="641" d="M143 1366h355V0q-47-28-76-61-43-46-43-95 0-28 20-45 18-18 54-18 53 0 100 37l-45-176q-67-37-135-37-96 0-150 57-43 43-43 113 0 68 43 125Q262-45 336 0H143v1366z"/><glyph glyph-name="iogonek" unicode="į" horiz-adv-x="546" d="M109 915h327V0q-45-26-80-61-39-39-39-78 0-33 23-56 22-22 57-22 49 0 103 37l-45-174q-61-35-133-35-96 0-148 55-43 49-43 105 0 61 41 125Q214-41 285 0H109v915zm167 189q-75 0-131 53-53 50-53 129 0 32 14.5 67.5T145 1415q53 53 125 53 78 0 127-49 60-56 60-133 0-73-56-129-53-53-125-53z"/><glyph glyph-name="Idotaccent" unicode="İ" horiz-adv-x="641" d="M143 1366h355V0H143v1366zm179 115q-76 0-132 53-55 55-55 129 0 82 55 137 53 53 132 53 78 0 131-53 55-55 55-133 0-81-55-133-56-53-131-53z"/><glyph glyph-name="dotlessi" unicode="ı" horiz-adv-x="546" d="M109 915h327V0H109v915z"/><glyph glyph-name="Jcircumflex" unicode="Ĵ" horiz-adv-x="958" d="M461 1366h354V426q0-110-22-182.5T698 98Q569-31 365-31q-119 0-215 62Q70 85 14 170l232 238q3-30 17-62.5t32-46.5q32-25 67-25t62 23q37 35 37 137v932zm-111 109l-139 157 401 301 406-301-146-157-260 200z"/><glyph glyph-name="jcircumflex" unicode="ĵ" horiz-adv-x="546" d="M109 915h327V-469H109V915zm-97 150l-139 158 401 301 406-301-145-158-261 201z"/><glyph glyph-name="Kcommaaccent" unicode="Ķ" horiz-adv-x="1433" d="M498 1366V803l434 563h438L827 719 1419 0H961L498 592V0H143v1366h355zM471-508l107 406 307-33-209-397z"/><glyph glyph-name="kcommaaccent" unicode="ķ" horiz-adv-x="1230" d="M113 1493h327V586l310 329h444L762 494 1229 0H774L440 375V0H113v1493zM389-487l107 385 307-33-209-377z"/><glyph glyph-name="Lacute" unicode="Ĺ" horiz-adv-x="962" d="M143 1366h355V301h426V0H143v1366zm344 537l207-150-315-278-152 112z"/><glyph glyph-name="lacute" unicode="ĺ" horiz-adv-x="550" d="M113 1493h327V0H113v1493zm272 512l207-150-316-278-151 113z"/><glyph glyph-name="Lcommaaccent" unicode="Ļ" horiz-adv-x="962" d="M143 1366h355V301h426V0H143v1366zM307-508l107 406 307-33-209-397z"/><glyph glyph-name="lcommaaccent" unicode="ļ" horiz-adv-x="550" d="M113 1493h327V0H113v1493zM72-487l106 385 307-33-209-377z"/><glyph glyph-name="Lcaron" unicode="Ľ" horiz-adv-x="962" d="M143 1366h355V301h426V0H143v1366zm447-403l110 430 308-54-213-413z"/><glyph glyph-name="lcaron" unicode="ľ" horiz-adv-x="864" d="M113 1493h327V0H113v1493zm395-489l110 430 308-54-213-413z"/><glyph glyph-name="Ldot" unicode="Ŀ" horiz-adv-x="962" d="M143 1366h355V301h426V0H143v1366zm658-825q-75 0-131 53-56 56-56 129 0 81 56 137 53 53 131 53t131-53q55-55 55-133 0-81-55-133-56-53-131-53z"/><glyph glyph-name="ldot" unicode="ŀ" horiz-adv-x="923" d="M113 1493h327V0H113v1493zm624-932q-75 0-131 53-55 55-55 129 0 83 55 138 53 53 131 53t131-53q56-56 56-133 0-81-56-134t-131-53z"/><glyph glyph-name="Lslash" unicode="Ł" horiz-adv-x="1015" d="M197 782v584h354V911l209 133V762L551 629V301h426V0H197v500L20 387v283z"/><glyph glyph-name="lslash" unicode="ł" horiz-adv-x="716" d="M205 920v573h327v-436l164 110V926L532 815V0H205v678L41 567v242z"/><glyph glyph-name="Nacute" unicode="Ń" horiz-adv-x="1648" d="M498 0H143v1366h355l653-836v836h354V0h-354L498 836V0zm434 1903l207-150-316-278-151 112z"/><glyph glyph-name="nacute" unicode="ń" horiz-adv-x="1198" d="M113 0v915h327V801q102 135 291 135 172 0 270-98 54-54 70-111.5t16-144.5V0H760v463q0 42-1 63t-10.5 57.5T719 641q-37 39-105 39-74 0-120-43-24-23-39-63t-15-82V0H113zm630 1493l207-150-315-278-152 113z"/><glyph glyph-name="Ncommaaccent" unicode="Ņ" horiz-adv-x="1648" d="M498 0H143v1366h355l653-836v836h354V0h-354L498 836V0zm75-508l107 406 307-33-209-397z"/><glyph glyph-name="ncommaaccent" unicode="ņ" horiz-adv-x="1198" d="M113 0v915h327V801q102 135 291 135 172 0 270-98 54-54 70-111.5t16-144.5V0H760v463q0 42-1 63t-10.5 57.5T719 641q-37 39-105 39-74 0-120-43-24-23-39-63t-15-82V0H113zm256-487l106 385 307-33-209-377z"/><glyph glyph-name="Ncaron" unicode="Ň" horiz-adv-x="1648" d="M498 0H143v1366h355l653-836v836h354V0h-354L498 836V0zm323 1475l-401 301 139 157 262-200 260 200 146-157z"/><glyph glyph-name="ncaron" unicode="ň" horiz-adv-x="1198" d="M113 0v915h327V801q102 135 291 135 172 0 270-98 54-54 70-111.5t16-144.5V0H760v463q0 42-1 63t-10.5 57.5T719 641q-37 39-105 39-74 0-120-43-24-23-39-63t-15-82V0H113zm510 1065l-402 301 139 158 263-201 260 201 145-158z"/><glyph glyph-name="Omacron" unicode="Ō" horiz-adv-x="1671" d="M1589 682q0-140-54.5-274.5T1374 172q-103-99-243.5-151T836-31 541 21.5 297 172Q191 273 136.5 407.5T82 682q0 141 54.5 276.5T297 1194q103 98 244 150.5t295 52.5 294.5-52 243.5-151q106-100 160.5-235.5T1589 682zm-753 371q-77 0-150-27.5T559 944Q451 839 451 676q0-150 108-254 114-109 277-109 167 0 274 107 50 50 80.5 118.5T1221 682q0 76-30.5 145T1110 944q-56 53-128.5 81T836 1053zm-383 481v201h770v-201H453z"/><glyph glyph-name="omacron" unicode="ō" horiz-adv-x="1251" d="M627 668q-39 0-79.5-16.5T479 608q-63-60-63-149 0-83 63-146 61-61 148-61 84 0 145 61 64 61 64 146 0 38-17 78.5T772 608q-28 27-67.5 43.5T627 668zm549-209q0-199-142-338Q879-31 625-31T217 121Q76 259 76 459q0 199 141 336 155 151 408 151 250 0 409-151 142-138 142-336zm-949 645v201h811v-201H227z"/><glyph glyph-name="Obreve" unicode="Ŏ" horiz-adv-x="1671" d="M1589 682q0-140-54.5-274.5T1374 172q-103-99-243.5-151T836-31 541 21.5 297 172Q191 273 136.5 407.5T82 682q0 141 54.5 276.5T297 1194q103 98 244 150.5t295 52.5 294.5-52 243.5-151q106-100 160.5-235.5T1589 682zm-753 371q-77 0-150-27.5T559 944Q451 839 451 676q0-150 108-254 114-109 277-109 167 0 274 107 50 50 80.5 118.5T1221 682q0 76-30.5 145T1110 944q-56 53-128.5 81T836 1053zm145 743h211q-2-135-90-223-92-92-266-92-175 0-267 92-88 88-90 223h211q6-53 41-84 40-37 105-37 64 0 104 37 35 31 41 84z"/><glyph glyph-name="obreve" unicode="ŏ" horiz-adv-x="1251" d="M627 668q-39 0-79.5-16.5T479 608q-63-60-63-149 0-83 63-146 61-61 148-61 84 0 145 61 64 61 64 146 0 38-17 78.5T772 608q-28 27-67.5 43.5T627 668zm549-209q0-199-142-338Q879-31 625-31T217 121Q76 259 76 459q0 199 141 336 155 151 408 151 250 0 409-151 142-138 142-336zm-398 927h211q-2-135-90-223-92-92-266-92t-266 92q-89 89-91 223h211q6-52 41-83 40-37 105-37 64 0 104 37 35 31 41 83z"/><glyph glyph-name="Ohungarumlaut" unicode="Ő" horiz-adv-x="1671" d="M1589 682q0-140-54.5-274.5T1374 172q-103-99-243.5-151T836-31 541 21.5 297 172Q191 273 136.5 407.5T82 682q0 141 54.5 276.5T297 1194q103 98 244 150.5t295 52.5 294.5-52 243.5-151q106-100 160.5-235.5T1589 682zm-753 371q-77 0-150-27.5T559 944Q451 839 451 676q0-150 108-254 114-109 277-109 167 0 274 107 50 50 80.5 118.5T1221 682q0 76-30.5 145T1110 944q-56 53-128.5 81T836 1053zm-62 850l170-150-280-278-111 112zm354 0l172-150-280-278-113 112z"/><glyph glyph-name="ohungarumlaut" unicode="ő" horiz-adv-x="1251" d="M627 668q-39 0-79.5-16.5T479 608q-63-60-63-149 0-83 63-146 61-61 148-61 84 0 145 61 64 61 64 146 0 38-17 78.5T772 608q-28 27-67.5 43.5T627 668zm549-209q0-199-142-338Q879-31 625-31T217 121Q76 259 76 459q0 199 141 336 155 151 408 151 250 0 409-151 142-138 142-336zM569 1493l170-150-280-278-111 113zm355 0l172-150-281-278-113 113z"/><glyph glyph-name="OE" unicode="Œ" horiz-adv-x="2072" d="M1991 1366v-303h-412V838h385V537h-385V301h412V0h-768v152q-78-88-174-132-109-51-252-51-157 0-277.5 47T295 168Q82 383 82 686q0 134 53 264.5T291 1186q207 211 518 211 131 0 233-47 100-46 181-127v143h768zM829 1053q-153 0-264-107-49-48-80.5-119T453 682q0-69 27.5-137.5T561 424q53-53 124-82t144-29q72 0 145 29t126 82q106 106 106 266 0 144-108 252-111 111-269 111z"/><glyph glyph-name="oe" unicode="œ" horiz-adv-x="1892" d="M1487 287h313q-33-161-180-248-122-70-293-70-136 0-227 47-77 43-127 113Q897 46 813 8q-87-39-211-39-247 0-393 144Q74 245 74 451q0 215 141 356 45 44 95.5 73.5t103 42.5 95.5 18 93 5q124 0 211-35 90-36 160-106 46 53 125 92 102 47 217 47 239 0 368-133 40-41 66.5-87t39.5-101.5 18-92.5 10-102l2-27h-689q3-40 21-86.5t41-68.5q45-45 139-45 121 0 156 86zm-348 301h377q-16 61-62 104-48 45-127 45-71 0-123-41-47-39-65-108zm-529 76q-75 0-139-60-59-59-59-143 0-95 59-154 55-55 135-55 78 0 133 49 32 29 51 72.5t19 85.5q0 88-66 151-56 54-133 54z"/><glyph glyph-name="Racute" unicode="Ŕ" horiz-adv-x="1284" d="M143 1366h553q218 0 334-121 57-58 87-140t30-167q0-179-109-285-75-73-188-94L1278 0H838L498 524V0H143v1366zm355-274V754h67q114 0 172 55 45 45 45 115t-47 114q-54 54-170 54h-67zm204 811l207-150-315-278-152 112z"/><glyph glyph-name="racute" unicode="ŕ" horiz-adv-x="837" d="M113 0v915h327V766q46 85 129 127 67 37 170 37 3 0 10-.5t22.5-1.5 33.5-2V616q-66 33-141 33-96 0-150-49-74-67-74-209V0H113zm446 1493l207-150-315-278-152 113z"/><glyph glyph-name="Rcommaaccent" unicode="Ŗ" horiz-adv-x="1284" d="M143 1366h553q218 0 334-121 57-58 87-140t30-167q0-179-109-285-75-73-188-94L1278 0H838L498 524V0H143v1366zm355-274V754h67q114 0 172 55 45 45 45 115t-47 114q-54 54-170 54h-67zM430-508l107 406 307-33-209-397z"/><glyph glyph-name="rcommaaccent" unicode="ŗ" horiz-adv-x="837" d="M113 0v915h327V766q46 85 129 127 67 37 170 37 3 0 10-.5t22.5-1.5 33.5-2V616q-66 33-141 33-96 0-150-49-74-67-74-209V0H113zm112-487l107 385 307-33-209-377z"/><glyph glyph-name="Rcaron" unicode="Ř" horiz-adv-x="1284" d="M143 1366h553q218 0 334-121 57-58 87-140t30-167q0-179-109-285-75-73-188-94L1278 0H838L498 524V0H143v1366zm355-274V754h67q114 0 172 55 45 45 45 115t-47 114q-54 54-170 54h-67zm114 383l-401 301 139 157 262-200 260 200 146-157z"/><glyph glyph-name="rcaron" unicode="ř" horiz-adv-x="837" d="M113 0v915h327V766q46 85 129 127 67 37 170 37 3 0 10-.5t22.5-1.5 33.5-2V616q-66 33-141 33-96 0-150-49-74-67-74-209V0H113zm327 1065L39 1366l139 158 262-201 260 201 146-158z"/><glyph glyph-name="Sacute" unicode="Ś" horiz-adv-x="1169" d="M82 123l151 287q64-60 146-100t168-40q94 0 137 47 35 35 35 86 0 48-39 82-6 5-12 9.5t-14.5 9-14.5 8-18 8-18.5 6.5-22 7-22 7.5T532 549t-28 8l-92 29q-137 43-197 110-78 85-78 242 0 205 125 330 129 129 350 129 100 0 212-29.5t210-81.5l-141-276q-116 92-234 92-73 0-116-41-35-35-35-74 0-38 18-61 29-35 119-62l109-33q55-17 88.5-30t79-41 79.5-64q50-53 69.5-110.5T1090 453q0-215-129-344Q880 28 781-1.5T557-31q-146 0-268 45Q189 49 82 123zm631 1780l207-150-316-278-151 112z"/><glyph glyph-name="sacute" unicode="ś" horiz-adv-x="909" d="M55 76l117 227q61-45 131-67 67-23 127-23 56 0 84 25 16 16 16 43t-16 41q-17 15-86 32l-86 21q-108 24-160 80-59 62-59 157 0 65 23.5 124T209 836q52 53 138.5 81.5T537 946q156 0 292-59L719 678q-101 45-172 45-46 0-76-18-29-16-29-46 0-35 39-51 17-6 51.5-13t57.5-13l59-17q34-9 75-30.5t60-40.5q33-32 51.5-81.5T854 311q0-139-92-227Q647-31 424-31 231-31 55 76zm514 1417l207-150-315-278-152 113z"/><glyph glyph-name="Scircumflex" unicode="Ŝ" horiz-adv-x="1169" d="M82 123l151 287q64-60 146-100t168-40q94 0 137 47 35 35 35 86 0 48-39 82-6 5-12 9.5t-14.5 9-14.5 8-18 8-18.5 6.5-22 7-22 7.5T532 549t-28 8l-92 29q-137 43-197 110-78 85-78 242 0 205 125 330 129 129 350 129 100 0 212-29.5t210-81.5l-141-276q-116 92-234 92-73 0-116-41-35-35-35-74 0-38 18-61 29-35 119-62l109-33q55-17 88.5-30t79-41 79.5-64q50-53 69.5-110.5T1090 453q0-215-129-344Q880 28 781-1.5T557-31q-146 0-268 45Q189 49 82 123zm268 1352l-139 157 401 301 406-301-146-157-260 200z"/><glyph glyph-name="scircumflex" unicode="ŝ" horiz-adv-x="909" d="M55 76l117 227q61-45 131-67 67-23 127-23 56 0 84 25 16 16 16 43t-16 41q-17 15-86 32l-86 21q-108 24-160 80-59 62-59 157 0 65 23.5 124T209 836q52 53 138.5 81.5T537 946q156 0 292-59L719 678q-101 45-172 45-46 0-76-18-29-16-29-46 0-35 39-51 17-6 51.5-13t57.5-13l59-17q34-9 75-30.5t60-40.5q33-32 51.5-81.5T854 311q0-139-92-227Q647-31 424-31 231-31 55 76zm213 989l-139 158 401 301 406-301-145-158-261 201z"/><glyph glyph-name="Scedilla" unicode="Ş" horiz-adv-x="1169" d="M82 123l151 287q64-60 146-100t168-40q94 0 137 47 35 35 35 86 0 48-39 82-6 5-12 9.5t-14.5 9-14.5 8-18 8-18.5 6.5-22 7-22 7.5T532 549t-28 8l-92 29q-137 43-197 110-78 85-78 242 0 205 125 330 129 129 350 129 100 0 212-29.5t210-81.5l-141-276q-116 92-234 92-73 0-116-41-35-35-35-74 0-38 18-61 29-35 119-62l109-33q55-17 88.5-30t79-41 79.5-64q50-53 69.5-110.5T1090 453q0-215-129-344Q880 28 781-1.5T557-31q-146 0-268 45Q189 49 82 123zM537-94l229-90-238-299-188 82z"/><glyph glyph-name="scedilla" unicode="ş" horiz-adv-x="909" d="M55 76l117 227q61-45 131-67 67-23 127-23 56 0 84 25 16 16 16 43t-16 41q-17 15-86 32l-86 21q-108 24-160 80-59 62-59 157 0 65 23.5 124T209 836q52 53 138.5 81.5T537 946q156 0 292-59L719 678q-101 45-172 45-46 0-76-18-29-16-29-46 0-35 39-51 17-6 51.5-13t57.5-13l59-17q34-9 75-30.5t60-40.5q33-32 51.5-81.5T854 311q0-139-92-227Q647-31 424-31 231-31 55 76zM426-94l217-90-254-299-172 82z"/><glyph glyph-name="Scaron" unicode="Š" horiz-adv-x="1169" d="M82 123l151 287q64-60 146-100t168-40q94 0 137 47 35 35 35 86 0 48-39 82-6 5-12 9.5t-14.5 9-14.5 8-18 8-18.5 6.5-22 7-22 7.5T532 549t-28 8l-92 29q-137 43-197 110-78 85-78 242 0 205 125 330 129 129 350 129 100 0 212-29.5t210-81.5l-141-276q-116 92-234 92-73 0-116-41-35-35-35-74 0-38 18-61 29-35 119-62l109-33q55-17 88.5-30t79-41 79.5-64q50-53 69.5-110.5T1090 453q0-215-129-344Q880 28 781-1.5T557-31q-146 0-268 45Q189 49 82 123zm530 1352l-401 301 139 157 262-200 260 200 146-157z"/><glyph glyph-name="scaron" unicode="š" horiz-adv-x="909" d="M55 76l117 227q61-45 131-67 67-23 127-23 56 0 84 25 16 16 16 43t-16 41q-17 15-86 32l-86 21q-108 24-160 80-59 62-59 157 0 65 23.5 124T209 836q52 53 138.5 81.5T537 946q156 0 292-59L719 678q-101 45-172 45-46 0-76-18-29-16-29-46 0-35 39-51 17-6 51.5-13t57.5-13l59-17q34-9 75-30.5t60-40.5q33-32 51.5-81.5T854 311q0-139-92-227Q647-31 424-31 231-31 55 76zm475 989l-401 301 139 158 262-201 261 201 145-158z"/><glyph glyph-name="Tcedilla" unicode="Ţ" horiz-adv-x="964" d="M950 1065H659V0H305v1065H14v301h936v-301zM434-94l230-90-238-299-188 82z"/><glyph glyph-name="tcedilla" unicode="ţ" horiz-adv-x="671" d="M662 647H475V0H147v647H43v268h104v302h328V915h187V647zM262-94l217-90-254-299-172 82z"/><glyph glyph-name="Tcaron" unicode="Ť" horiz-adv-x="964" d="M659 1065h291v301H14v-301h291V0h354v1065zm-178 410L80 1776l139 157 262-200 260 200 146-157z"/><glyph glyph-name="tcaron" unicode="ť" horiz-adv-x="905" d="M662 647H475V0H147v647H43v268h104v302h328V915h187V647zm-113 357l110 430 308-54-213-413z"/><glyph glyph-name="Utilde" unicode="Ũ" horiz-adv-x="1476" d="M143 1366h355V557q0-30 1.5-49.5t7.5-51 21-59.5 39-51q31-29 76.5-47t91.5-18q45 0 89.5 16t74.5 43q24 21 40 47.5t23.5 47.5 11.5 54.5 4.5 49 .5 49.5v778h354V582q0-67-3.5-111T1312 366t-46.5-117-85.5-110Q1013-31 729-31q-153 0-269 45.5T276 133q-80 87-106.5 199T143 582v784zm801 410l158-95q-36-90-90-141-59-59-148-59-54 0-119 30l-61 31q-49 25-74 25t-46.5-21.5T532 1481l-159 94q29 89 82 139 62 58 143 58 53 0 123-29l59-27q68-30 88-30 50 0 76 90z"/><glyph glyph-name="utilde" unicode="ũ" horiz-adv-x="1208" d="M113 915h327V403q0-89 49-133 39-34 115-34 77 0 117 38 47 47 47 129v512h328V344q0-74-16.5-131.5T1008 98Q932 20 832.5-5.5T612-31q-60 0-108.5 4.5T397-9.5t-108.5 40T199 100q-86 91-86 244v571zm700 451l158-94q-37-92-90-142-59-59-148-59-52 0-119 31l-61 31q-47 24-74 24-25 0-46.5-21.5T401 1071l-159 94q30 91 82 140 60 57 143 57 53 0 123-29l59-26q7-3 22-10t20.5-9 15.5-6 16.5-5 13.5-1q50 0 76 90z"/><glyph glyph-name="Umacron" unicode="Ū" horiz-adv-x="1476" d="M143 1366h355V557q0-30 1.5-49.5t7.5-51 21-59.5 39-51q31-29 76.5-47t91.5-18q45 0 89.5 16t74.5 43q24 21 40 47.5t23.5 47.5 11.5 54.5 4.5 49 .5 49.5v778h354V582q0-67-3.5-111T1312 366t-46.5-117-85.5-110Q1013-31 729-31q-153 0-269 45.5T276 133q-80 87-106.5 199T143 582v784zm209 168v201h770v-201H352z"/><glyph glyph-name="umacron" unicode="ū" horiz-adv-x="1208" d="M113 915h327V403q0-89 49-133 39-34 115-34 77 0 117 38 47 47 47 129v512h328V344q0-74-16.5-131.5T1008 98Q932 20 832.5-5.5T612-31q-60 0-108.5 4.5T397-9.5t-108.5 40T199 100q-86 91-86 244v571zm88 189v201h811v-201H201z"/><glyph glyph-name="Ubreve" unicode="Ŭ" horiz-adv-x="1476" d="M143 1366h355V557q0-30 1.5-49.5t7.5-51 21-59.5 39-51q31-29 76.5-47t91.5-18q45 0 89.5 16t74.5 43q24 21 40 47.5t23.5 47.5 11.5 54.5 4.5 49 .5 49.5v778h354V582q0-67-3.5-111T1312 366t-46.5-117-85.5-110Q1013-31 729-31q-153 0-269 45.5T276 133q-80 87-106.5 199T143 582v784zm740 430h211q-2-135-90-223-92-92-267-92-174 0-266 92-88 88-90 223h211q6-53 41-84 40-37 104-37 65 0 105 37 35 31 41 84z"/><glyph glyph-name="ubreve" unicode="ŭ" horiz-adv-x="1208" d="M113 915h327V403q0-89 49-133 39-34 115-34 77 0 117 38 47 47 47 129v512h328V344q0-74-16.5-131.5T1008 98Q932 20 832.5-5.5T612-31q-60 0-108.5 4.5T397-9.5t-108.5 40T199 100q-86 91-86 244v571zm637 471h211q-2-134-91-223-92-92-266-92t-266 92q-88 88-90 223h211q6-52 41-83 40-37 104-37 65 0 105 37 35 31 41 83z"/><glyph glyph-name="Uring" unicode="Ů" horiz-adv-x="1476" d="M143 1366h355V557q0-30 1.5-49.5t7.5-51 21-59.5 39-51q31-29 76.5-47t91.5-18q45 0 89.5 16t74.5 43q24 21 40 47.5t23.5 47.5 11.5 54.5 4.5 49 .5 49.5v778h354V582q0-67-3.5-111T1312 366t-46.5-117-85.5-110Q1013-31 729-31q-153 0-269 45.5T276 133q-80 87-106.5 199T143 582v784zm875 326q0-83-53-136-13-13-32.5-26.5t-74.5-31-121-17.5q-152 0-227 75-53 53-53 136 0 84 53 137 76 76 227 76 152 0 228-76 53-53 53-137zm-281 84q-57 0-88-31-20-20-20-51 0-32 20-52 30-30 88-30t88 30q21 21 21 52 0 30-21 51-31 31-88 31z"/><glyph glyph-name="uring" unicode="ů" horiz-adv-x="1208" d="M113 915h327V403q0-89 49-133 39-34 115-34 77 0 117 38 47 47 47 129v512h328V344q0-74-16.5-131.5T1008 98Q932 20 832.5-5.5T612-31q-60 0-108.5 4.5T397-9.5t-108.5 40T199 100q-86 91-86 244v571zm774 367q0-82-53-135-76-76-228-76-151 0-227 76-53 53-53 135 0 84 53 137 76 76 227 76 152 0 228-76 53-53 53-137zm-281 84q-57 0-88-31-20-20-20-51t20-51q31-31 88-31t88 31q21 21 21 51t-21 51q-31 31-88 31z"/><glyph glyph-name="Uhungarumlaut" unicode="Ű" horiz-adv-x="1476" d="M143 1366h355V557q0-30 1.5-49.5t7.5-51 21-59.5 39-51q31-29 76.5-47t91.5-18q45 0 89.5 16t74.5 43q24 21 40 47.5t23.5 47.5 11.5 54.5 4.5 49 .5 49.5v778h354V582q0-67-3.5-111T1312 366t-46.5-117-85.5-110Q1013-31 729-31q-153 0-269 45.5T276 133q-80 87-106.5 199T143 582v784zm531 537l170-150-281-278-110 112zm354 0l172-150-280-278-113 112z"/><glyph glyph-name="uhungarumlaut" unicode="ű" horiz-adv-x="1208" d="M113 915h327V403q0-89 49-133 39-34 115-34 77 0 117 38 47 47 47 129v512h328V344q0-74-16.5-131.5T1008 98Q932 20 832.5-5.5T612-31q-60 0-108.5 4.5T397-9.5t-108.5 40T199 100q-86 91-86 244v571zm356 578l170-150-281-278-110 113zm354 0l172-150-280-278-113 113z"/><glyph glyph-name="Uogonek" unicode="Ų" horiz-adv-x="1476" d="M143 1366h355V557q0-30 1.5-49.5t7.5-51 21-59.5 39-51q29-29 76-47t94-18q97 0 162 59 37 33 56 82t21.5 81 2.5 85v778h354V539q0-62-2-97.5t-19-98-50-112.5q-65-94-203-178-14-9-53-30.5T940.5-16 893-51q-57-46-57-105 0-28 20-45 18-18 53-18 54 0 101 37l-45-176q-67-37-136-37-95 0-149 57-43 43-43 113 0 68 43 125 21 28 70 71-163 0-283.5 44T276 133q-80 87-106.5 199T143 582v784z"/><glyph glyph-name="uogonek" unicode="ų" horiz-adv-x="1208" d="M113 915h327V403q0-89 49-133 39-34 115-34 77 0 117 38 47 47 47 129v512h328V373q0-88-16-149.5T1008 104q-46-48-134-89.5T752-53q-52-39-52-86 0-33 23-56 22-22 59-22 47 0 101 37l-43-174q-52-35-135-35-99 0-148 55-41 48-41 105 0 60 35 116 31 51 76 82-18-2-56-2-108 0-209 33T199 100q-86 93-86 244v571z"/><glyph glyph-name="Ydieresis" unicode="Ÿ" horiz-adv-x="1310" d="M469 0v655l-494 711h424l258-373 248 373h430L825 655V0H469zm418 1481q-73 0-125 55-51 57-51 123 0 64 53 125 53 53 123 53 72 0 123-51 55-55 55-127 0-69-53-125-53-53-125-53zm-465 0q-73 0-125 55-51 57-51 123 0 64 53 125 53 53 123 53 72 0 123-51 55-55 55-127 0-69-53-125-53-53-125-53z"/><glyph glyph-name="Zacute" unicode="Ź" horiz-adv-x="1292" d="M1266 1366L623 301h573V0H27l647 1065H137v301h1129zm-502 537l207-150-316-278-151 112z"/><glyph glyph-name="zacute" unicode="ź" horiz-adv-x="1058" d="M1018 915L590 268h383V0H41l432 647H104v268h914zm-367 578l207-150-315-278-152 113z"/><glyph glyph-name="Zdotaccent" unicode="Ż" horiz-adv-x="1292" d="M1266 1366L623 301h573V0H27l647 1065H137v301h1129zm-580 115q-75 0-131 53-55 55-55 129 0 82 55 137 53 53 131 53t131-53q55-55 55-133 0-81-55-133-56-53-131-53z"/><glyph glyph-name="zdotaccent" unicode="ż" horiz-adv-x="1058" d="M1018 915L590 268h383V0H41l432 647H104v268h914zm-465 156q-75 0-131 53-55 55-55 129 0 83 55 138 53 53 131 53t131-53q55-55 55-134 0-81-55-133-56-53-131-53z"/><glyph glyph-name="Zcaron" unicode="Ž" horiz-adv-x="1292" d="M1266 1366L623 301h573V0H27l647 1065H137v301h1129zm-582 109l-401 301 139 157 262-200 260 200 146-157z"/><glyph glyph-name="zcaron" unicode="ž" horiz-adv-x="1058" d="M1018 915L590 268h383V0H41l432 647H104v268h914zm-467 150l-401 301 139 158 262-201 260 201 145-158z"/><glyph glyph-name="uni018F" unicode="Ə" horiz-adv-x="1572" d="M481 909l-366 72q80 193 256 305 175 111 405 111 167 0 299.5-55.5T1294 1198q91-93 144-223.5t53-282.5q0-323-195-522-61-63-131-105.5t-141.5-62-129-26.5T770-31q-65 0-121 7T528.5 1t-127 55.5T285 150Q82 358 82 725v37h1051q-19 117-101 199-103 100-268 100-92 0-172-45-71-39-111-107zm641-377H451q13-103 86-170 84-79 235-79 145 0 238 73 88 71 112 176z"/><glyph glyph-name="florin" unicode="ƒ" horiz-adv-x="1228" d="M393 231l88 488H326l32 196h160l43 228q33 174 119 262 108 111 299 111 118 0 219-52l-53-284q-56 45-127 45-60 0-94-37-31-35-50-139l-24-134h199l-37-196H813l-94-526q-57-319-178-443-133-135-389-135-99 0-177 18L29-68q52-18 116-18 98 0 146 45 34 30 57.5 94.5T393 231z"/><glyph glyph-name="uni01CF" unicode="Ǐ" horiz-adv-x="641" d="M143 1366h355V0H143v1366zm176 109l-401 301 139 157 262-200 261 200 145-157z"/><glyph glyph-name="uni01D0" unicode="ǐ" horiz-adv-x="546" d="M109 915h327V0H109v915zm161 150l-401 301L8 1524l262-201 260 201 146-158z"/><glyph glyph-name="uni01DD" unicode="ǝ" horiz-adv-x="1159" d="M74 473v55h682q-3 41-21.5 79T688 668q-54 45-139 45-58 0-109-29-39-22-63-66L98 676q57 125 174 194 118 72 287 72 254 0 397-147 127-131 127-336 0-108-36.5-201T946 102Q809-31 571-31 353-31 219 94 74 232 74 473zm671-127H375q5-69 53-117 51-51 137-51 84 0 131 51 43 43 49 117z"/><glyph glyph-name="Gcaron" unicode="Ǧ" horiz-adv-x="1585" d="M799 498v276h704q0-210-50-356.5T1284 160Q1099-12 803-12q-326 0-524 202-86 86-141.5 211.5T82 684q0 156 55.5 288T287 1196q201 201 530 201 217 0 369-92 77-48 141.5-123.5T1430 1024l-338-139q-32 82-99 137-82 68-190 68-139 0-234-95-57-57-87.5-143T451 682q0-178 108-295 98-104 250-104 122 0 197 63 69 56 84 152H799zm28 977l-401 301 139 157 262-200 260 200 146-157z"/><glyph glyph-name="gcaron" unicode="ǧ" horiz-adv-x="1255" d="M815 915h328V57q0-123-24-211t-101-168Q873-469 614-469q-269 0-428 162-85 88-100 190h365q30-94 153-94 93 0 146 51 65 60 65 170v92Q747 29 680 5.5T541-18q-213 0-338 129-61 62-94 150T76 444q0 105 36.5 199.5T211 803q65 68 152 103.5T543 942q165 0 272-121v94zM621 670q-84 0-146-62-63-66-63-147 0-87 63-150 59-59 148-59 86 0 147 61 29 29 45 70t16 78q0 36-18 78t-47 71q-60 60-145 60zm12 395l-402 301 140 158 262-201 260 201 145-158z"/><glyph glyph-name="AEacute" unicode="Ǽ" horiz-adv-x="1892" d="M1055 0l-88 240H473L387 0H14l527 1366h835l109-301h-449l84-227h449l112-301h-450l90-236h446L1878 0h-823zM571 510h299L725 913zm484 1393l207-150-316-278-151 112z"/><glyph glyph-name="aeacute" unicode="ǽ" horiz-adv-x="1757" d="M1681 406H995q0-96 62-158 51-51 147-51 68 0 103 26 29 19 47 60h313q-45-144-166-232-115-82-301-82-144 0-244 54-84 45-125 124-66-83-163-129-106-45-213-45-94 0-172.5 28.5T154 80q-78 78-78 188 0 119 80 199 104 104 303 104 127 0 233-47v23q0 69-43 112-54 54-176 54-120 0-254-51v243q150 43 273 43 114 0 190-35 96-44 149-127 58 75 140 117 94 45 213 45 114 0 209-35.5t155-95.5q133-133 133-385v-26zm-677 186h376q-13 62-55 98-57 51-137 51-70 0-121-45-45-42-63-104zM541 389q-79 0-117-29-33-24-33-69 0-44 39-70 42-31 109-31 54 0 106 25 55 28 55 76 0 21-14 42t-35 32q-46 24-110 24zm446 1104l207-150-315-278-152 113z"/><glyph glyph-name="Scommaaccent" unicode="Ș" horiz-adv-x="1169" d="M82 123l151 287q64-60 146-100t168-40q94 0 137 47 35 35 35 86 0 48-39 82-6 5-12 9.5t-14.5 9-14.5 8-18 8-18.5 6.5-22 7-22 7.5T532 549t-28 8l-92 29q-137 43-197 110-78 85-78 242 0 205 125 330 129 129 350 129 100 0 212-29.5t210-81.5l-141-276q-116 92-234 92-73 0-116-41-35-35-35-74 0-38 18-61 29-35 119-62l109-33q55-17 88.5-30t79-41 79.5-64q50-53 69.5-110.5T1090 453q0-215-129-344Q880 28 781-1.5T557-31q-146 0-268 45Q189 49 82 123zm266-631l107 406 307-33-209-397z"/><glyph glyph-name="scommaaccent" unicode="ș" horiz-adv-x="909" d="M55 76l117 227q61-45 131-67 67-23 127-23 56 0 84 25 16 16 16 43t-16 41q-17 15-86 32l-86 21q-108 24-160 80-59 62-59 157 0 65 23.5 124T209 836q52 53 138.5 81.5T537 946q156 0 292-59L719 678q-101 45-172 45-46 0-76-18-29-16-29-46 0-35 39-51 17-6 51.5-13t57.5-13l59-17q34-9 75-30.5t60-40.5q33-32 51.5-81.5T854 311q0-139-92-227Q647-31 424-31 231-31 55 76zm170-563l107 385 307-33-209-377z"/><glyph glyph-name="Tcommaaccent" unicode="Ț" horiz-adv-x="964" d="M950 1065H659V0H305v1065H14v301h936v-301zM225-508l107 406 307-33-209-397z"/><glyph glyph-name="tcommaaccent" unicode="ț" horiz-adv-x="671" d="M662 647H475V0H147v647H43v268h104v302h328V915h187V647zM53-487l107 385 307-33-209-377z"/><glyph glyph-name="uni0228" unicode="Ȩ" horiz-adv-x="1001" d="M920 1366v-301H498V838h399V537H498V301h422V0H143v1366h777zM485-94l230-90-238-299-188 82z"/><glyph glyph-name="uni0229" unicode="ȩ" horiz-adv-x="1159" d="M1083 432v-35H401q0-40 15-82.5t43-70.5q45-45 135-45 63 0 106 24 40 24 58 62h313q-31-112-110-189Q830-31 588-31q-239 0-379 140Q74 244 74 455q0 220 137 354 137 133 375 133 218 0 352-125 145-138 145-385zM412 586h370q-13 58-53 98-49 49-135 49-84 0-133-49-41-45-49-98zM569-94l217-90-254-299-172 82z"/><glyph glyph-name="uni0237" unicode="ȷ" horiz-adv-x="546" d="M109 915h327V-469H109V915z"/><glyph glyph-name="uni0259" unicode="ə" horiz-adv-x="1159" d="M74 473v55h682q-3 41-21.5 79T688 668q-54 45-139 45-58 0-109-29-39-22-63-66L98 676q57 125 174 194 118 72 287 72 254 0 397-147 127-131 127-336 0-108-36.5-201T946 102Q809-31 571-31 353-31 219 94 74 232 74 473zm671-127H375q5-69 53-117 51-51 137-51 84 0 131 51 43 43 49 117z"/><glyph glyph-name="afii57929" unicode="ʼ" d="M303 1004l111 430 307-54-213-413z"/><glyph glyph-name="circumflex" unicode="ˆ" d="M248 1065l-139 158 401 301 405-301-145-158-260 201z"/><glyph glyph-name="caron" unicode="ˇ" d="M510 1065l-401 301 139 158 262-201 260 201 145-158z"/><glyph glyph-name="uni02C9" unicode="ˉ" d="M106 1104v201h812v-201H106z"/><glyph glyph-name="breve" unicode="˘" d="M657 1386h211q-2-135-90-223-92-92-266-92t-266 92q-88 88-90 223h211q6-52 41-83 40-37 104-37t104 37q35 31 41 83z"/><glyph glyph-name="dotaccent" unicode="˙" d="M512 1071q-75 0-131 53-55 55-55 129 0 83 55 138 53 53 131 53t131-53q55-55 55-134 0-81-55-133-56-53-131-53z"/><glyph glyph-name="ring" unicode="˚" d="M793 1282q0-81-54-135-76-76-227-76t-227 76q-54 54-54 135 0 83 54 137 76 76 227 76t227-76q54-54 54-137zm-281 84q-57 0-88-31-21-21-21-51t21-51q31-31 88-31t88 31q21 21 21 51t-21 51q-31 31-88 31z"/><glyph glyph-name="ogonek" unicode="˛" d="M739-182l-45-176q-64-37-135-37-95 0-149 57-43 49-43 107 0 66 41 125Q456-38 522 0h152q-53-34-80-61-39-39-39-80 0-33 23-56 22-22 59-22 48 0 102 37z"/><glyph glyph-name="tilde" unicode="˜" d="M719 1366l158-94q-14-36-40-77t-51-65q-59-59-147-59-52 0-119 31l-61 31q-47 24-74 24-25 0-46.5-21.5T307 1071l-160 94q30 91 82 140 60 57 144 57 53 0 123-29l59-26q7-3 22-10t20.5-9 15.5-6 16.5-5 13.5-1q50 0 76 90z"/><glyph glyph-name="hungarumlaut" unicode="˝" d="M449 1493l169-150-280-278-111 113zm354 0l172-150-281-278-112 113z"/><glyph glyph-name="acutecomb" unicode="́" horiz-adv-x="4" d="M-459 1493l207-150-315-278-152 113z"/><glyph glyph-name="uni0394" unicode="Δ" horiz-adv-x="1366" d="M1331 0H33l502 1366h288zM680 1040L414 242h532z"/><glyph glyph-name="uni0394" unicode="∆" horiz-adv-x="1366" d="M1331 0H33l502 1366h288zM680 1040L414 242h532z"/><glyph glyph-name="uni03A9" unicode="Ω" horiz-adv-x="1366" d="M756 0v213q125 53 200 188 72 138 72 320 0 236-133 356-92 82-213 82t-213-82Q336 957 336 721q0-182 72-320 75-135 200-188V0H57v240h277q-75 41-139 108Q57 496 57 750q0 135 48 257.5T238 1219q78 80 192.5 130t251.5 50 251.5-50 192.5-130q85-89 133-211.5t48-257.5q0-254-138-402-64-67-139-108h277V0H756z"/><glyph glyph-name="uni03A9" unicode="Ω" horiz-adv-x="1366" d="M756 0v213q125 53 200 188 72 138 72 320 0 236-133 356-92 82-213 82t-213-82Q336 957 336 721q0-182 72-320 75-135 200-188V0H57v240h277q-75 41-139 108Q57 496 57 750q0 135 48 257.5T238 1219q78 80 192.5 130t251.5 50 251.5-50 192.5-130q85-89 133-211.5t48-257.5q0-254-138-402-64-67-139-108h277V0H756z"/><glyph glyph-name="pi" unicode="π" horiz-adv-x="1398" d="M561 0H233v657H78v258h1243V657h-156V0H838v657H561V0z"/><glyph glyph-name="afii10023" unicode="Ё" horiz-adv-x="1001" d="M920 1366v-301H498V838h399V537H498V301h422V0H143v1366h777zm-338 266q0 68 48 116t115 48 115.5-48 48.5-116-48.5-116-115.5-48-115 48-48 116zm-426 0q0 68 48 116t115 48 115.5-48 48.5-116-48.5-116-115.5-48-115 48-48 116z"/><glyph glyph-name="afii10051" unicode="Ђ" horiz-adv-x="1503" d="M328 0v1065H20v301h1100v-301H684V795q137 47 260 47 173 0 283-62 190-106 190-364 0-134-48-220.5T1251 63q-58-37-145.5-56T932-12q-43 0-117 12v270q43-12 90-12 60 0 99 29 45 33 45 119 0 84-68 120-41 21-113 21-90 0-184-47V0H328z"/><glyph glyph-name="afii10052" unicode="Ѓ" horiz-adv-x="1009" d="M942 1366v-301H498V0H143v1366h799zm-301 537l207-150-316-278-151 112z"/><glyph glyph-name="afii10053" unicode="Є" horiz-adv-x="1265" d="M1163 426V72q-89-49-153-68-109-35-238-35-146 0-265.5 42.5T287 156q-99 100-152 238T82 684q0 158 50 291.5T272 1202q186 193 490 193 197 0 401-101V924q-58 64-137 108-96 51-217 51-151 0-240-71-81-67-104-178h508V559H455q23-124 112-199 90-75 242-75 124 0 217 45 80 39 137 96z"/><glyph glyph-name="afii10054" unicode="Ѕ" horiz-adv-x="1169" d="M82 123l151 287q64-60 146-100t168-40q94 0 137 47 35 35 35 86 0 48-39 82-6 5-12 9.5t-14.5 9-14.5 8-18 8-18.5 6.5-22 7-22 7.5T532 549t-28 8l-92 29q-137 43-197 110-78 85-78 242 0 205 125 330 129 129 350 129 100 0 212-29.5t210-81.5l-141-276q-116 92-234 92-73 0-116-41-35-35-35-74 0-38 18-61 29-35 119-62l109-33q55-17 88.5-30t79-41 79.5-64q50-53 69.5-110.5T1090 453q0-215-129-344Q880 28 781-1.5T557-31q-146 0-268 45Q189 49 82 123z"/><glyph glyph-name="afii10055" unicode="І" horiz-adv-x="641" d="M143 1366h355V0H143v1366z"/><glyph glyph-name="afii10056" unicode="Ї" horiz-adv-x="729" d="M186 1366h355V0H186v1366zm361 471q55 0 94-33 59-50 59-133t-59-133q-39-33-94-33t-94 33q-60 51-60 133t60 133q39 33 94 33zm-365 0q55 0 94-33 60-51 60-133t-60-133q-39-33-94-33t-94 33q-59 50-59 133t59 133q39 33 94 33z"/><glyph glyph-name="afii10057" unicode="Ј" horiz-adv-x="958" d="M461 1366h354V426q0-110-22-182.5T698 98Q569-31 365-31q-119 0-215 62Q70 85 14 170l232 238q3-30 17-62.5t32-46.5q32-25 67-25t62 23q37 35 37 137v932z"/><glyph glyph-name="afii10058" unicode="Љ" horiz-adv-x="2088" d="M1470 0H963v1067H629V569q0-327-144-471Q366-18 166-18 85-18 4 0v328q47-15 82-15 74 0 119 41 71 62 71 258v754h1043V834h172q278 0 407-127 109-109 109-289 0-183-104-287Q1772 0 1470 0zm-151 274h137q113 0 154 41 37 37 37 103 0 65-39 100-43 41-152 41h-137V274z"/><glyph glyph-name="afii10059" unicode="Њ" horiz-adv-x="2109" d="M1339 856h172q279 0 408-127 109-107 109-297 0-194-105-301Q1794 0 1491 0H983v553H498V0H143v1366h355V856h485v510h356V856zm0-582h138q112 0 153 41 37 37 37 121 0 70-39 105-43 41-151 41h-138V274z"/><glyph glyph-name="afii10060" unicode="Ћ" horiz-adv-x="1576" d="M328 0v1065H20v301h1100v-301H684V825q135 27 293 27 295 0 414-115 29-28 49.5-63t30-63 14.5-68.5 5.5-59 .5-55.5V0h-356v344q0 35-1.5 55.5t-11 51T1094 502q-51 55-203 55-90 0-207-18V0H328z"/><glyph glyph-name="afii10061" unicode="Ќ" horiz-adv-x="1421" d="M498 1366V803l434 563h438L827 719 1419 0H961L498 592V0H143v1366h355zm307 537l207-150-316-278-151 112z"/><glyph glyph-name="afii10062" unicode="Ў" horiz-adv-x="1275" d="M0 1366h397l260-608 228 608h379L649 0H274l191 383zm846 467l237-90q-50-135-168-199-95-53-262-53-159 0-258 53-118 64-168 199l238 90q20-65 65-96 44-33 125-33 78 0 125 33 46 32 66 96z"/><glyph glyph-name="afii10145" unicode="Џ" horiz-adv-x="1470" d="M143 0v1366h357V299h471v1067h356V0H895v-340H575V0H143z"/><glyph glyph-name="afii10017" unicode="А" horiz-adv-x="1454" d="M1061 0l-84 229H481L389 0H14l525 1366h387L1440 0h-379zM580 500h303L729 942z"/><glyph glyph-name="afii10018" unicode="Б" horiz-adv-x="1257" d="M143 0v1366h889v-301H500V829h139q145 0 253-29.5T1071 696q105-113 105-282 0-178-113-291-75-73-182.5-98T627 0H143zm357 276h123q111 0 157 48 35 40 35 96 0 66-41 102-43 37-151 37H500V276z"/><glyph glyph-name="afii10019" unicode="В" horiz-adv-x="1265" d="M713 0H143v1366h529q202 0 299-106 84-91 84-256 0-91-39-168-41-76-111-107 114-13 187-82 92-89 92-250 0-167-101-268-58-59-153-94T713 0zM498 1094V827h65q94 0 135 43 33 33 33 91 0 54-33 92-41 41-135 41h-65zm0-531V276h80q170 0 219 56 28 32 28 88 0 64-34 98-20 20-59 30.5T660 561t-89 2h-73z"/><glyph glyph-name="afii10020" unicode="Г" horiz-adv-x="1009" d="M942 1366v-301H498V0H143v1366h799z"/><glyph glyph-name="afii10021" unicode="Д" horiz-adv-x="1521" d="M285 1366h1032V274h164v-581h-320V0H330v-307H10v581q90 14 156 82 71 74 95 179t24 270v561zm344-274V770q0-171-33-287-36-123-119-209h484v818H629z"/><glyph glyph-name="afii10022" unicode="Е" horiz-adv-x="1001" d="M920 1366v-301H498V838h399V537H498V301h422V0H143v1366h777z"/><glyph glyph-name="afii10024" unicode="Ж" horiz-adv-x="1986" d="M817 0v600L449 0H2l498 696-457 670h410l364-594v594h352V772l365 594h410l-457-670L1985 0h-447l-369 600V0H817z"/><glyph glyph-name="afii10025" unicode="З" horiz-adv-x="1222" d="M268 989l-137 260q78 54 188 97 138 51 289 51 240 0 367-123 102-97 102-258 0-113-59-197-49-70-127-108v-6q87-26 151-87 99-94 99-229 0-100-45.5-185.5T971 63Q836-31 586-31q-185 0-330 60Q133 80 31 172l180 258q62-70 143-115 86-45 185-45 94 0 149 35 64 39 64 113 0 62-62 102-52 33-168 33H389v274h88q155 0 213 58 35 35 35 86 0 57-53 96-49 35-131 35-86 0-160-37-53-25-113-76z"/><glyph glyph-name="afii10026" unicode="И" horiz-adv-x="1517" d="M143 1366h357V506l512 860h362V0h-356v860L506 0H143v1366z"/><glyph glyph-name="afii10027" unicode="Й" horiz-adv-x="1517" d="M143 1366h357V506l512 860h362V0h-356v860L506 0H143v1366zm797 467l238-90q-50-135-168-199-95-53-262-53-160 0-259 53-117 64-167 199l237 90q20-64 66-96 44-33 125-33 77 0 124 33 46 32 66 96z"/><glyph glyph-name="afii10028" unicode="К" horiz-adv-x="1421" d="M498 1366V803l434 563h438L827 719 1419 0H961L498 592V0H143v1366h355z"/><glyph glyph-name="afii10029" unicode="Л" horiz-adv-x="1472" d="M276 1366h1053V0H973v1067H629V569q0-327-144-471Q366-18 166-18 85-18 4 0v328q47-15 82-15 74 0 119 41 71 62 71 258v754z"/><glyph glyph-name="afii10030" unicode="М" horiz-adv-x="1873" d="M434 0H82l231 1366h351l276-729 293 729h354L1792 0h-354l-101 786L1008 0H866L551 786z"/><glyph glyph-name="afii10031" unicode="Н" horiz-adv-x="1509" d="M498 1366V856h512v510h356V0h-356v553H498V0H143v1366h355z"/><glyph glyph-name="afii10032" unicode="О" horiz-adv-x="1671" d="M1589 682q0-140-54.5-274.5T1374 172q-103-99-243.5-151T836-31 541 21.5 297 172Q191 273 136.5 407.5T82 682q0 141 54.5 276.5T297 1194q103 98 244 150.5t295 52.5 294.5-52 243.5-151q106-100 160.5-235.5T1589 682zm-753 371q-77 0-150-27.5T559 944Q451 839 451 676q0-150 108-254 114-109 277-109 167 0 274 107 50 50 80.5 118.5T1221 682q0 76-30.5 145T1110 944q-56 53-128.5 81T836 1053z"/><glyph glyph-name="afii10033" unicode="П" horiz-adv-x="1486" d="M1343 0H987v1063H498V0H143v1366h1200V0z"/><glyph glyph-name="afii10034" unicode="Р" horiz-adv-x="1226" d="M721 453H498V0H143v1366h566q218 0 346-123 73-70 100-151.5t27-180.5q0-101-24.5-185.5T1061 571t-156.5-94T721 453zm-223 626V739h118q103 0 150 43 45 39 45 125 0 82-41 123-47 49-152 49H498z"/><glyph glyph-name="afii10035" unicode="С" horiz-adv-x="1206" d="M1124 457V37Q1019-1 951-16T817-31q-167 0-301 56.5T289 174q-99 99-153 231T82 672q0 143 56 275t151 229 229 155 287 58q147 0 319-70V895q-122 149-309 149-145 0-246-90-118-110-118-280 0-73 28.5-144.5T561 408q46-43 113.5-69T815 313q178 0 309 144z"/><glyph glyph-name="afii10036" unicode="Т" horiz-adv-x="964" d="M950 1065H659V0H305v1065H14v301h936v-301z"/><glyph glyph-name="afii10037" unicode="У" horiz-adv-x="1275" d="M0 1366h397l260-608 228 608h379L649 0H274l191 383z"/><glyph glyph-name="afii10038" unicode="Ф" horiz-adv-x="1781" d="M713 0v190q-326 0-486 156Q82 491 82 731q0 257 147 397 81 79 208.5 117.5T713 1284v199h356v-199q148 0 274.5-38.5T1552 1128q148-141 148-397 0-239-146-385-160-156-485-156V0H713zm329 1010V465h19q136 0 203 65 38 37 58.5 94t20.5 117q0 134-79 205-71 64-205 64h-17zm-303 0h-16q-134 0-205-64-80-72-80-205 0-59 21-116.5t59-94.5q67-65 203-65h18v545z"/><glyph glyph-name="afii10039" unicode="Х" horiz-adv-x="1456" d="M0 0l535 729-439 637h439l202-354 211 354h436L940 729 1456 0h-430L735 444 428 0H0z"/><glyph glyph-name="afii10040" unicode="Ц" horiz-adv-x="1529" d="M143 0v1366h357V299h471v1067h356V299h172v-606h-319V0H143z"/><glyph glyph-name="afii10041" unicode="Ч" horiz-adv-x="1351" d="M852 0v537q-141-21-285-21-264 0-372 102Q86 720 86 942v424h356V995q0-100 41-141 43-43 168-43 109 0 201 14v541h356V0H852z"/><glyph glyph-name="afii10042" unicode="Ш" horiz-adv-x="2043" d="M143 0v1366h357V299h344v1067h356V299h344v1067h357V0H143z"/><glyph glyph-name="afii10043" unicode="Щ" horiz-adv-x="2123" d="M1774 0H143v1366h357V299h344v1067h356V299h344v1067h357V299h192v-606h-319V0z"/><glyph glyph-name="afii10044" unicode="Ъ" horiz-adv-x="1427" d="M301 0v1067H20v299h637V834h172q279 0 408-127 109-109 109-289 0-182-105-287Q1110 0 809 0H301zm356 274h138q112 0 153 41 37 37 37 103 0 65-39 100-43 41-151 41H657V274z"/><glyph glyph-name="afii10045" unicode="Ы" horiz-adv-x="1800" d="M1300 0v1366h357V0h-357zM143 0v1366h357V834h172q52 0 95-3.5t102-15 113-39 97-69.5q109-107 109-289t-103-287q-42-42-96-70T873.5 20.5 762.5 4 651 0H143zm357 274h137q113 0 154 41 36 36 36 103 0 65-39 100-43 41-151 41H500V274z"/><glyph glyph-name="afii10046" unicode="Ь" horiz-adv-x="1269" d="M143 0v1366h357V834h172q278 0 407-127 109-109 109-289 0-182-105-287Q952 0 651 0H143zm357 274h137q113 0 154 41 36 36 36 103 0 65-39 100-43 41-151 41H500V274z"/><glyph glyph-name="afii10047" unicode="Э" horiz-adv-x="1265" d="M102 72v354q56-56 138-96 93-45 217-45 150 0 241 75 91 76 115 199H293v275h508q-22 110-105 178-89 71-239 71-121 0-217-51-81-45-138-108v370q204 101 402 101 303 0 489-193 88-92 139.5-223.5T1184 688q0-154-53.5-292.5T979 156Q880 54 760 11.5T492-31Q365-31 256 4q-67 20-154 68z"/><glyph glyph-name="afii10048" unicode="Ю" horiz-adv-x="2224" d="M498 838h176q43 237 223 391 195 168 487 168 330 0 539-201 103-97 161-231t58-281q0-145-58.5-280.5T1923 170Q1714-31 1384-31q-153 0-271.5 43T893 145Q703 317 674 563H498V0H143v1366h355V838zm899 215q-160 0-273-113-49-49-78.5-116.5T1016 682q0-156 112-262 110-107 267-107 76 0 145 30t119 79q51 51 82 123.5t31 142.5q0 68-29.5 136.5T1659 946q-110 107-262 107z"/><glyph glyph-name="afii10049" unicode="Я" horiz-adv-x="1265" d="M29 0l381 514q-117 19-203 107-107 110-107 286 0 99 30.5 183t82.5 139q128 137 383 137h526V0H766v465h-35L438 0H29zm737 739v328H666q-103 0-154-47-47-41-47-117 0-74 43-117 50-47 158-47h100z"/><glyph glyph-name="afii10065" unicode="а" horiz-adv-x="1261" d="M821 827v88h328V0H821v100Q725-31 537-31q-191 0-330 146Q76 255 76 451q0 225 141 366 60 60 146.5 94.5T547 946q166 0 274-119zM621 668q-81 0-144-60-65-62-65-149 0-90 63-150 28-26 68-43.5t80-17.5q84 0 147 63 61 61 61 148 0 88-63 149-64 60-147 60z"/><glyph glyph-name="afii10066" unicode="б" horiz-adv-x="1253" d="M362 817h15q106 125 309 125 225 0 363-129 129-121 129-332 0-220-142-362Q886-31 627-31q-255 0-396 146Q76 274 76 596q0 411 196 616 67 68 152.5 106.5T645 1384l60 13q108 20 139 51 26 30 26 68h285q-14-107-84-199-41-54-82.5-81T883 1186q-33-12-238-70-140-37-201-100-73-79-82-199zm265-145q-81 0-142-54-69-62-69-155 0-95 69-158 58-53 142-53 85 0 141 53 32 31 51 77.5t19 88.5q0 86-70 147-61 54-141 54z"/><glyph glyph-name="afii10067" unicode="в" horiz-adv-x="1083" d="M113 915h561q164 0 233-65 64-61 64-160 0-79-39-137-34-48-101-76v-4q81-16 132-63 65-60 65-158 0-111-65-176-35-35-95-55.5T739 0H113v915zm327-364h123q59 0 84 20 25 22 25 66 0 37-23 57-26 23-88 23H440V551zm0-352h146q52 0 80 26 26 26 26 66 0 43-24 67-7 7-14.5 11.5t-12 6.5-14.5 3.5-12.5 1.5H440V199z"/><glyph glyph-name="afii10068" unicode="г" horiz-adv-x="784" d="M113 0v915h643V647H440V0H113z"/><glyph glyph-name="afii10069" unicode="д" horiz-adv-x="1220" d="M215 915h842V229h133v-495H903V0H295v-266H8v495q74 5 125 56 82 80 82 262v368zm522-686v457H518V530q0-105-26-174-29-81-86-127h331z"/><glyph glyph-name="afii10070" unicode="е" horiz-adv-x="1159" d="M1083 432v-35H401q0-40 15-82.5t43-70.5q45-45 135-45 63 0 106 24 40 24 58 62h313q-31-112-110-189Q830-31 588-31q-239 0-379 140Q74 244 74 455q0 220 137 354 137 133 375 133 218 0 352-125 145-138 145-385zM412 586h370q-13 58-53 98-49 49-135 49-84 0-133-49-41-45-49-98z"/><glyph glyph-name="afii10072" unicode="ж" horiz-adv-x="1675" d="M676 0v397L403 0H2l373 477L57 915h373l246-383v383h323V532l246 383h373l-318-438L1673 0h-401L999 397V0H676z"/><glyph glyph-name="afii10073" unicode="з" horiz-adv-x="950" d="M178 633L70 846q69 38 151 63 119 37 234 37 225 0 327-102 66-66 66-162 0-85-45-137-39-46-92-68v-4q76-12 127-63 55-55 55-142 0-55-22.5-108T809 70Q705-31 457-31 328-31 219 4 122 35 37 88l121 227q55-43 114-69 71-29 144-29 61 0 98 16 19 9 31 27t12 35q0 35-37 51-32 14-106 14H301v213h92q60 0 103 15t43 53q0 36-39 53-34 17-94 17-59 0-125-25-58-21-103-53z"/><glyph glyph-name="afii10074" unicode="и" horiz-adv-x="1200" d="M113 915h327V444l363 471h284V0H760v483L401 0H113v915z"/><glyph glyph-name="afii10075" unicode="й" horiz-adv-x="1200" d="M113 915h327V444l363 471h284V0H760v483L401 0H113v915zm645 469l219-77q-34-124-139-189-91-57-238-57t-238 57q-105 65-139 189l219 77q15-54 47-86 39-41 111-41t111 41q32 32 47 86z"/><glyph glyph-name="afii10076" unicode="к" horiz-adv-x="1165" d="M113 0v915h327V541l277 374h411L750 485 1163 0H739L440 406V0H113z"/><glyph glyph-name="afii10077" unicode="л" horiz-adv-x="1179" d="M1067 915V0H739v647H506V385q0-209-96-309-86-88-258-88Q88-12 20 0v238q88-11 130 34 40 43 40 148v495h877z"/><glyph glyph-name="afii10078" unicode="м" horiz-adv-x="1392" d="M41 0l145 915h285l225-495 226 495h284L1352 0h-308l-73 477L756 0H637L422 477 348 0H41z"/><glyph glyph-name="afii10079" unicode="н" horiz-adv-x="1185" d="M113 0v915h327V606h305v309h328V0H745v348H440V0H113z"/><glyph glyph-name="afii10080" unicode="о" horiz-adv-x="1251" d="M627 668q-39 0-79.5-16.5T479 608q-63-60-63-149 0-83 63-146 61-61 148-61 84 0 145 61 64 61 64 146 0 38-17 78.5T772 608q-28 27-67.5 43.5T627 668zm549-209q0-199-142-338Q879-31 625-31T217 121Q76 259 76 459q0 199 141 336 155 151 408 151 250 0 409-151 142-138 142-336z"/><glyph glyph-name="afii10081" unicode="п" horiz-adv-x="1173" d="M113 0v915h948V0H733v657H440V0H113z"/><glyph glyph-name="afii10082" unicode="р" horiz-adv-x="1261" d="M440 88v-557H113V915h327V815q104 131 281 131 193 0 326-133 139-139 139-354 0-218-148-363Q908-31 725-31 555-31 440 88zm201 580q-85 0-147-62-64-64-64-151 0-38 18.5-78.5T494 309q61-61 147-61 87 0 145 61 28 28 46 67t18 79q0 87-64 151-59 62-145 62z"/><glyph glyph-name="afii10083" unicode="с" horiz-adv-x="878" d="M805 295V20Q701-31 578-31q-214 0-361 140-66 64-103.5 153.5T76 451q0 101 39 193.5T223 805q146 139 369 139 111 0 213-51V618q-83 60-170 60-96 0-160-64-63-63-63-157 0-91 57-154 66-70 168-70 96 0 168 62z"/><glyph glyph-name="afii10084" unicode="т" horiz-adv-x="843" d="M258 0v647H20v268h803V647H586V0H258z"/><glyph glyph-name="afii10085" unicode="у" horiz-adv-x="1236" d="M135-469l307 594L0 915h381l244-469 237 469h375L502-469H135z"/><glyph glyph-name="afii10086" unicode="ф" horiz-adv-x="1523" d="M926-469H598v455h-6q-250 0-389 139Q76 249 76 457q0 218 135 342 142 131 381 131h6v436h328V930h6q239 0 381-131 135-124 135-342 0-208-127-332Q1182-14 932-14h-6v-455zM903 694V221h4q96 0 154 53 72 65 72 185 0 112-70 180-57 55-154 55h-6zm-282 0h-7q-96 0-153-55-70-68-70-180 0-120 72-185 58-53 153-53h5v473z"/><glyph glyph-name="afii10087" unicode="х" horiz-adv-x="1335" d="M0 0l457 498L86 915h426l158-188 161 188h424L877 498 1335 0H901L668 272 434 0H0z"/><glyph glyph-name="afii10088" unicode="ц" horiz-adv-x="1220" d="M113 0v915h327V258h281v657h328V258h151v-524H913V0H113z"/><glyph glyph-name="afii10089" unicode="ч" horiz-adv-x="1101" d="M662 0v299q-95-23-201-23-204 0-293 91-82 82-82 260v288h315V649q0-75 35-104 29-25 111-25 64 0 115 15v380h327V0H662z"/><glyph glyph-name="afii10090" unicode="ш" horiz-adv-x="1699" d="M113 0v915h327V258h246v657h328V258h246v657h327V0H113z"/><glyph glyph-name="afii10091" unicode="щ" horiz-adv-x="1781" d="M1477 0H113v915h327V258h248v657h328V258h248v657h327V258h172v-524h-286V0z"/><glyph glyph-name="afii10092" unicode="ъ" horiz-adv-x="1193" d="M584 610h229q164 0 248-82 82-79 82-219 0-61-20-120t-58-99q-43-43-111-66.5T813 0H256v647H20v268h564V610zm0-397h123q24 0 50 8.5t38 20.5q20 20 20 65 0 47-22 66-28 24-91 24H584V213z"/><glyph glyph-name="afii10093" unicode="ы" horiz-adv-x="1519" d="M1079 0v915h328V0h-328zM440 610h224q158 0 245-82 82-80 82-219 0-141-78-219-43-43-110.5-66.5T664 0H113v915h327V610zm0-397h123q24 0 50 8.5t38 20.5q23 23 23 65 0 45-25 66-31 24-90 24H440V213z"/><glyph glyph-name="afii10094" unicode="ь" horiz-adv-x="1050" d="M440 610h230q162 0 248-82 81-78 81-219 0-62-19.5-121.5T922 90q-43-43-113-66.5T670 0H113v915h327V610zm0-397h123q22 0 48 7.5t38 21.5q23 23 23 65 0 44-25 66-31 24-88 24H440V213z"/><glyph glyph-name="afii10095" unicode="э" horiz-adv-x="974" d="M94 31v274q100-88 246-88 101 0 158 35 59 36 77 104H223v213h352q-28 69-86 101-58 30-143 30-80 0-145-28-51-20-107-72v270q133 74 307 74 230 0 363-129 135-130 135-352 0-128-40.5-221T758 94Q626-31 389-31 240-31 94 31z"/><glyph glyph-name="afii10096" unicode="ю" horiz-adv-x="1667" d="M1042 668q-87 0-147-60-64-64-64-149 0-84 64-148 56-59 147-59 87 0 146 59 61 61 61 152 0 82-57 145-56 60-150 60zm-602-62h97q48 146 174 240 135 100 329 100 127 0 232.5-41T1450 795q63-63 102-150t39-182-36-185-105-157q-65-65-170-108.5T1030-31q-250 0-387 140-41 43-72 106t-43 133h-88V0H113v915h327V606z"/><glyph glyph-name="afii10097" unicode="я" horiz-adv-x="1069" d="M57 0l254 319q-93 18-159 80-72 72-72 197 0 138 82 223 51 54 127.5 75T473 915h483V0H629v291h-27L401 0H57zm572 492v210h-99q-72 0-102-28-29-29-29-78 0-51 31-78 33-26 96-26h103z"/><glyph glyph-name="afii10071" unicode="ё" horiz-adv-x="1159" d="M1083 432v-35H401q0-40 15-82.5t43-70.5q45-45 135-45 63 0 106 24 40 24 58 62h313q-31-112-110-189Q830-31 588-31q-239 0-379 140Q74 244 74 455q0 220 137 354 137 133 375 133 218 0 352-125 145-138 145-385zM412 586h370q-13 58-53 98-49 49-135 49-84 0-133-49-41-45-49-98zm-222 671q0 72 50 122.5t122 50.5 122.5-50.5T535 1257t-50.5-122-122.5-50-122 50-50 122zm435 0q0 72 50 122.5t122 50.5 122-50.5 50-122.5-50-122-122-50-122 50-50 122z"/><glyph glyph-name="afii10099" unicode="ђ" horiz-adv-x="1198" d="M113 0v995H-55v222h168v276h327v-276h336V995H440V719q45 56 103 90 77 45 188 45 172 0 270-98 55-55 70.5-113.5T1087 500v-623q0-179-83-262-86-86-256-86-73 0-181 22v254q40-11 86.5-4.5T725-168q8 8 14.5 18t10.5 22 6 21.5 3 24 1 21.5v442q0 133-41 178-35 39-105 39-74 0-118-39-56-52-56-149V0H113z"/><glyph glyph-name="afii10100" unicode="ѓ" horiz-adv-x="784" d="M113 0v915h643V647H440V0H113zm436 1493l207-150-316-278-151 113z"/><glyph glyph-name="afii10101" unicode="є" horiz-adv-x="974" d="M881 305V31Q735-31 586-31 349-31 217 92q-65 60-103 154.5T76 459q0 217 135 352 137 133 362 133 169 0 308-74V600q-47 47-107 72-66 28-145 28-82 0-144-30-58-32-86-101h353V356H399q17-67 78-104 57-35 158-35 146 0 246 88z"/><glyph glyph-name="afii10102" unicode="ѕ" horiz-adv-x="909" d="M55 76l117 227q61-45 131-67 67-23 127-23 56 0 84 25 16 16 16 43t-16 41q-17 15-86 32l-86 21q-108 24-160 80-59 62-59 157 0 65 23.5 124T209 836q52 53 138.5 81.5T537 946q156 0 292-59L719 678q-101 45-172 45-46 0-76-18-29-16-29-46 0-35 39-51 17-6 51.5-13t57.5-13l59-17q34-9 75-30.5t60-40.5q33-32 51.5-81.5T854 311q0-139-92-227Q647-31 424-31 231-31 55 76z"/><glyph glyph-name="afii10103" unicode="і" horiz-adv-x="550" d="M113 915h327V0H113v915zm-21 381q0 77 54 131t130 54 130.5-54.5T461 1296t-54-130-131-54q-76 0-130 54t-54 130z"/><glyph glyph-name="afii10104" unicode="ї" horiz-adv-x="716" d="M197 915h323V0H197v915zm344 564q55 0 94-33 59-50 59-133t-59-133q-39-33-94-33-56 0-95 33-59 50-59 133t59 133q39 33 95 33zm-365 0q55 0 94-33 60-51 60-133t-60-133q-39-33-94-33t-94 33q-59 50-59 133t59 133q39 33 94 33z"/><glyph glyph-name="afii10105" unicode="ј" horiz-adv-x="550" d="M113 915h327V-469H113V915zm-21 381q0 77 54 131t130 54 130.5-54.5T461 1296t-54-130-131-54q-76 0-130 54t-54 130z"/><glyph glyph-name="afii10106" unicode="љ" horiz-adv-x="1669" d="M1057 610h231q159 0 246-82 84-80 84-219t-80-219q-30-30-71.5-50.5t-81-28T1325 2t-37-2H739v647H506V385q0-210-96-309-84-88-250-88Q84-12 20 0v238q84-12 127 34t43 148v495h867V610zm0-397h125q22 0 48 8.5t38 20.5q22 22 22 65 0 46-24 66-31 24-88 24h-121V213z"/><glyph glyph-name="afii10107" unicode="њ" horiz-adv-x="1675" d="M1065 610h229q162 0 248-82 82-79 82-219 0-62-20-121.5T1546 90q-43-43-113-66.5T1294 0H737v397H440V0H113v915h327V610h297v305h328V610zm0-397h123q22 0 48 7.5t38 21.5q22 22 22 65 0 45-24 66-31 24-88 24h-119V213z"/><glyph glyph-name="afii10108" unicode="ћ" horiz-adv-x="1198" d="M113 0v995H-55v222h168v276h327v-276h336V995H440V719q45 56 103 90 77 45 188 45 172 0 270-98 55-55 70.5-113.5T1087 500V0H760v381q0 133-41 178-35 39-105 39-74 0-118-39-56-52-56-149V0H113z"/><glyph glyph-name="afii10109" unicode="ќ" horiz-adv-x="1165" d="M113 0v915h327V541l277 374h411L750 485 1163 0H739L440 406V0H113zm579 1493l207-150-315-278-152 113z"/><glyph glyph-name="afii10110" unicode="ў" horiz-adv-x="1236" d="M135-469l307 594L0 915h381l244-469 237 469h375L502-469H135zm658 1853l219-77q-34-123-140-189-91-57-237-57-147 0-238 57-105 65-139 189l219 77q15-54 47-86 39-41 111-41 71 0 110 41 34 34 48 86z"/><glyph glyph-name="afii10193" unicode="џ" horiz-adv-x="1159" d="M113 0v915h327V258h279v657h328V0H723v-287H436V0H113z"/><glyph glyph-name="afii10146" unicode="Ѣ" horiz-adv-x="1419" d="M293 0v1014H20v235h273v234h356v-234h391v-235H649V834h172q279 0 408-127 108-108 108-289 0-183-104-287Q1102 0 801 0H293zm356 274h137q113 0 154 41 37 37 37 103 0 65-39 100-43 41-152 41H649V274z"/><glyph glyph-name="afii10194" unicode="ѣ" horiz-adv-x="1193" d="M575 735V618h234q165 0 250-83 84-79 84-222 0-141-80-221-41-41-107-66.5T809 0H248v735H20v193h228v438h327V928h345V735H575zm0-520h125q24 0 49.5 9t38.5 22q23 23 23 65 0 41-25 66-28 26-90 26H575V215z"/><glyph glyph-name="afii10147" unicode="Ѳ" horiz-adv-x="1671" d="M487 829h693q-38 101-113 162-94 78-233 78-129 0-226-74-90-65-121-166zm709-258H471q30-107 109-180 107-94 254-94 135 0 241 86 92 74 121 188zm393 111q0-140-54.5-274.5T1374 172q-103-99-243.5-151T836-31 541 21.5 297 172Q191 273 136.5 407.5T82 682q0 141 54.5 276.5T297 1194q103 98 244 150.5t295 52.5 294.5-52 243.5-151q106-100 160.5-235.5T1589 682z"/><glyph glyph-name="afii10195" unicode="ѳ" horiz-adv-x="1267" d="M436 545h393q-18 57-61 96-51 45-135 45-92 0-141-49-42-39-56-92zm400-144H432q17-68 70-110 55-45 133-45 80 0 135 49 52 52 66 106zm356 64q0-94-36-183t-107-159Q977 52 870 10.5T633-31q-128 0-234 41.5T219 123q-71 70-107 159T76 465q0 101 39 189t104 151q160 153 414 153 130 0 237-41t179-112q65-63 104-151t39-189z"/><glyph glyph-name="afii10148" unicode="Ѵ" horiz-adv-x="1431" d="M0 1366h387l328-831 332 831h385L850 0H573z"/><glyph glyph-name="afii10196" unicode="ѵ" horiz-adv-x="1173" d="M0 915h367l219-469 223 469h365L696 0H473z"/><glyph glyph-name="afii10050" unicode="Ґ" horiz-adv-x="1003" d="M143 0v1366h519v272h301v-573H498V0H143z"/><glyph glyph-name="afii10098" unicode="ґ" horiz-adv-x="888" d="M113 915h432v287h293V647H440V0H113v915z"/><glyph glyph-name="uni0492" unicode="Ғ" horiz-adv-x="1105" d="M1024 1366v-301H580V795h335V524H580V0H225v524H20v271h205v571h799z"/><glyph glyph-name="uni0493" unicode="ғ" horiz-adv-x="890" d="M180 0v305H20v203h160v407h662V647H508V508h207V305H508V0H180z"/><glyph glyph-name="uni0494" unicode="Ҕ" horiz-adv-x="1298" d="M975 1366v-301H498V795q137 47 260 47 172 0 282-62 191-107 191-364 0-134-48-220.5T1065 63q-58-37-146-56T745-12q-42 0-116 12v270q43-12 90-12 59 0 98 29 45 33 45 119 0 84-67 120-41 21-113 21-90 0-184-47V0H143v1366h832z"/><glyph glyph-name="uni0495" unicode="ҕ" horiz-adv-x="1028" d="M113 0v915h661V647H440V483h33q128 0 225.5-23.5T868 367Q979 261 979 63q0-221-117-346-125-136-383-143v238q77 3 125 51 55 55 55 178 0 122-53 168-44 39-145 39h-21V0H113z"/><glyph glyph-name="uni0496" unicode="Җ" horiz-adv-x="1994" d="M817 0v600L449 0H2l498 696-457 670h410l364-594v594h352V772l365 594h410l-457-670 305-397h182v-606h-319V0h-109l-377 600V0H817z"/><glyph glyph-name="uni0497" unicode="җ" horiz-adv-x="1660" d="M635 0v397L375 0H-23l357 477L29 915h372l234-383v383h323V532l246 383h373l-317-438 182-219h190v-524h-286V0h-107L958 397V0H635z"/><glyph glyph-name="uni0498" unicode="Ҙ" horiz-adv-x="1222" d="M268 991l-137 260q78 54 188 97 138 51 289 51 240 0 367-123 102-97 102-258 0-112-59-199-44-63-127-114 87-26 151-87 99-90 99-233 0-80-31-155.5T1024 100q-51-49-125-84T743-29v-311H424v322Q221 1 31 168l180 258q66-72 143-115 83-45 185-45 94 0 149 35 64 42 64 113 0 66-62 106-52 33-168 33H389v274h88q155 0 213 58 35 35 35 88 0 57-53 96-49 35-131 35-86 0-160-37-53-25-113-76z"/><glyph glyph-name="uni0499" unicode="ҙ" horiz-adv-x="950" d="M178 635L70 848q69 38 151 63 119 37 234 37 225 0 327-102 66-66 66-162 0-87-45-139-36-41-92-72 81-14 127-63 55-55 55-146 0-55-22.5-108T809 66q-84-80-213-89v-264H309v264Q162-1 37 84l121 227q55-43 114-69 71-29 144-29 68 0 100 18 19 10 30 27t11 33q0 37-37 55-35 14-106 14H301v213h92q60 0 103 15t43 55q0 37-39 53-34 17-94 17-59 0-125-25-58-21-103-53z"/><glyph glyph-name="uni049A" unicode="Қ" horiz-adv-x="1413" d="M498 1366V803l434 563h438L827 719l363-420h192v-606h-319V0h-90L498 592V0H143v1366h355z"/><glyph glyph-name="uni049B" unicode="қ" horiz-adv-x="1183" d="M113 0v915h327V541l277 374h411L758 492l209-234h188v-524H868V0H756L440 406V0H113z"/><glyph glyph-name="uni049C" unicode="Ҝ" horiz-adv-x="1650" d="M143 1366h355V823h102v289h227V823l383 543h414l-491-647L1649 0h-430L827 612V326H600v286H498V0H143v1366z"/><glyph glyph-name="uni049D" unicode="ҝ" horiz-adv-x="1333" d="M113 0v915h327V561h74v199h199V541l229 374h365L991 475 1313 0H948L713 406V158H514v219h-74V0H113z"/><glyph glyph-name="uni04A0" unicode="Ҡ" horiz-adv-x="1628" d="M705 1366V803l434 563h438l-543-647L1626 0h-459L705 592V0H350v1065H20v301h685z"/><glyph glyph-name="uni04A1" unicode="ҡ" horiz-adv-x="1310" d="M258 0v657H10v258h576V541l278 374h410L895 485 1309 0H887L586 406V0H258z"/><glyph glyph-name="uni04A2" unicode="Ң" horiz-adv-x="1568" d="M498 1366V856h512v510h356V299h172v-606h-319V0h-209v553H498V0H143v1366h355z"/><glyph glyph-name="uni04A3" unicode="ң" horiz-adv-x="1245" d="M113 0v915h327V606h305v309h328V258h152v-524H938V0H745v348H440V0H113z"/><glyph glyph-name="uni04A4" unicode="Ҥ" horiz-adv-x="1787" d="M498 1366V856h512v510h729v-301h-375V0h-354v553H498V0H143v1366h355z"/><glyph glyph-name="uni04A5" unicode="ҥ" horiz-adv-x="1386" d="M113 0v915h327V606h305v309h613V647h-285V0H745v348H440V0H113z"/><glyph glyph-name="uni04AA" unicode="Ҫ" horiz-adv-x="1208" d="M1126 451V31q-64-31-141-43v-328H666v317Q431-3 272 156 82 342 82 659q0 310 209 523 95 97 229 155t287 58q147 0 319-70V901q-122 150-307 150-145 0-246-90-61-55-90.5-132T453 674q0-76 30-151.5T565 401q50-45 119.5-69.5T819 307q176 0 307 144z"/><glyph glyph-name="uni04AB" unicode="ҫ" horiz-adv-x="878" d="M805 295V20Q751-8 688-16v-271H401V-2Q283 18 199 102 76 225 76 434q0 228 147 371 146 139 369 139 111 0 213-51V618q-83 60-170 60-96 0-160-64-63-63-63-157 0-91 57-154 66-70 168-70 96 0 168 62z"/><glyph glyph-name="uni04AE" unicode="Ү" horiz-adv-x="1310" d="M469 0v655l-494 711h424l258-373 248 373h430L825 655V0H469z"/><glyph glyph-name="uni04AF" unicode="ү" horiz-adv-x="1058" d="M0 915h336l203-499 186 499h334L694 88v-557H367V84z"/><glyph glyph-name="uni04B0" unicode="Ұ" horiz-adv-x="1310" d="M469 0v338H100v262h369v55l-494 711h424l258-373 248 373h430L825 655v-55h369V338H825V0H469z"/><glyph glyph-name="uni04B1" unicode="ұ" horiz-adv-x="1058" d="M0 915h336l203-499 186 499h334L694 104V43h277v-203H694v-309H367v309H90V43h277v61z"/><glyph glyph-name="uni04B2" unicode="Ҳ" horiz-adv-x="1464" d="M0 0l535 729-439 637h439l202-354 211 354h436L940 729l305-430h199v-606h-320V0h-98L735 444 428 0H0z"/><glyph glyph-name="uni04B3" unicode="ҳ" horiz-adv-x="1333" d="M0 0l457 498L86 915h426l158-188 161 188h424L877 498l223-240h205v-524h-287V0H901L668 272 432 0H0z"/><glyph glyph-name="uni04B6" unicode="Ҷ" horiz-adv-x="1411" d="M1061 0H852v537q-141-21-285-21-264 0-372 102Q86 720 86 942v424h356V995q0-100 41-141 43-43 168-43 109 0 201 14v541h356V299h172v-606h-319V0z"/><glyph glyph-name="uni04B7" unicode="ҷ" horiz-adv-x="1163" d="M856 0H664v299q-101-23-197-23-206 0-297 91-51 51-67.5 116T86 627v288h315V649q0-75 35-104 29-25 107-25 67 0 121 15v380h327V258h152v-524H856V0z"/><glyph glyph-name="uni04B8" unicode="Ҹ" horiz-adv-x="1454" d="M954 0v545q-66-17-127-17V258H598v262q-69-2-137.5 6t-150 41.5T178 657q-31 35-51 74t-28 82.5-10.5 75T86 967v397h356v-338q0-121 45-166 38-41 111-45v297h229V815q68-3 127 12v539h357V0H954z"/><glyph glyph-name="uni04B9" unicode="ҹ" horiz-adv-x="1212" d="M772 0v326q-64-14-84-17V137H500v150h-11q-106 0-185 18.5T170 377q-84 82-84 225v313h307V637q0-69 31-100 23-23 70-23h6v246h188V514q44 0 84 16v385h328V0H772z"/><glyph glyph-name="uni04BA" unicode="Һ" horiz-adv-x="1392" d="M500 1366V825q135 27 293 27 294 0 413-115 36-35 58.5-75.5T1295 574t10-74 2-72V0H950v344q0 35-1.5 55.5t-11 51T909 502q-51 55-202 55-90 0-207-18V0H143v1366h357z"/><glyph glyph-name="uni04BB" unicode="һ" horiz-adv-x="1198" d="M113 0v1493h327V801q45 56 103 90 77 45 188 45 172 0 270-98 55-55 70.5-113.5T1087 582V0H760v463q0 133-41 178-35 39-105 39-74 0-118-39-56-52-56-149V0H113z"/><glyph glyph-name="uni04C0" unicode="Ӏ" horiz-adv-x="641" d="M143 1366h355V0H143v1366z"/><glyph glyph-name="uni04C1" unicode="Ӂ" horiz-adv-x="1986" d="M817 0v600L449 0H2l498 696-457 670h410l364-594v594h352V772l365 594h410l-457-670L1985 0h-447l-369 600V0H817zm311 1833l238-90q-50-135-168-199-95-53-262-53-159 0-258 53-118 64-168 199l238 90q20-65 65-96 44-33 125-33 78 0 125 33 45 31 65 96z"/><glyph glyph-name="uni04C2" unicode="ӂ" horiz-adv-x="1675" d="M676 0v397L403 0H2l373 477L57 915h373l246-383v383h323V532l246 383h373l-318-438L1673 0h-401L999 397V0H676zm346 1384l219-77q-34-124-139-189-91-57-238-57-146 0-237 57-106 66-140 189l220 77q15-54 47-86 39-41 110-41 72 0 111 41 32 32 47 86z"/><glyph glyph-name="uni04C3" unicode="Ӄ" horiz-adv-x="1318" d="M498 1366V803l397 563h414L885 825q86-6 173.5-41.5T1202 692q98-101 98-256 0-107-32.5-189.5T1182 113Q1030-36 700 2v272q32-12 74-12 70 0 111 41 39 39 39 109 0 75-58 114-52 35-153 35-110 0-215-45V0H143v1366h355z"/><glyph glyph-name="uni04C4" unicode="ӄ" horiz-adv-x="1052" d="M113 0v915h327V526l244 389h358L713 461q108-17 182-92 109-109 109-303 0-224-117-349-125-136-383-143v238q77 3 125 51 55 55 55 182 0 109-57 164-51 49-164 49h-23V0H113z"/><glyph glyph-name="uni04C7" unicode="Ӈ" horiz-adv-x="1509" d="M498 1366V858h512v508h356V-139q0-51-4-88t-25-86.5-59-83.5q-29-26-64.5-42.5t-79-22.5-71-7.5T989-471q-102 0-170 20v234q30-12 70-12 66 0 94 28 27 27 27 97v655H498V0H143v1366h355z"/><glyph glyph-name="uni04C8" unicode="ӈ" horiz-adv-x="1185" d="M113 0v915h327V606h305v309h328V-145q0-80-16.5-142T985-399q-49-45-109-58.5T737-471q-99 0-180 16v232q29-13 61-13 72 0 101 31 26 28 26 113v440H440V0H113z"/><glyph glyph-name="uni04D0" unicode="Ӑ" horiz-adv-x="1454" d="M1061 0l-84 229H481L389 0H14l525 1366h387L1440 0h-379zM580 500h303L729 942zm335 1333l238-90q-50-135-168-199-95-53-262-53-159 0-258 53-118 64-168 199l238 90q20-65 65-96 44-33 125-33 78 0 125 33 45 31 65 96z"/><glyph glyph-name="uni04D1" unicode="ӑ" horiz-adv-x="1261" d="M821 827v88h328V0H821v100Q725-31 537-31q-191 0-330 146Q76 255 76 451q0 225 141 366 60 60 146.5 94.5T547 946q166 0 274-119zM621 668q-81 0-144-60-65-62-65-149 0-90 63-150 28-26 68-43.5t80-17.5q84 0 147 63 61 61 61 148 0 88-63 149-64 60-147 60zm172 716l219-77q-34-123-140-189-91-57-237-57-147 0-238 57-105 65-139 189l219 77q15-54 47-86 39-41 111-41 71 0 110 41 34 34 48 86z"/><glyph glyph-name="uni04D2" unicode="Ӓ" horiz-adv-x="1454" d="M1061 0l-84 229H481L389 0H14l525 1366h387L1440 0h-379zM580 500h303L729 942zm378 981q-72 0-124 55-52 58-52 123 0 63 54 125 53 53 122 53 72 0 123-51 56-56 56-127 0-68-54-125-53-53-125-53zm-464 0q-73 0-125 55-52 58-52 123 0 63 54 125 53 53 123 53 71 0 122-51 56-56 56-127 0-68-54-125-53-53-124-53z"/><glyph glyph-name="uni04D3" unicode="ӓ" horiz-adv-x="1261" d="M821 827v88h328V0H821v100Q725-31 537-31q-191 0-330 146Q76 255 76 451q0 225 141 366 60 60 146.5 94.5T547 946q166 0 274-119zM621 668q-81 0-144-60-65-62-65-149 0-90 63-150 28-26 68-43.5t80-17.5q84 0 147 63 61 61 61 148 0 88-63 149-64 60-147 60zm245 403q-73 0-125 55-51 57-51 123 0 64 53 125 53 53 123 53 72 0 123-51 55-55 55-127 0-69-53-125-53-53-125-53zm-465 0q-73 0-125 55-51 57-51 123 0 63 54 125 53 53 122 53 72 0 123-51 56-56 56-127 0-68-54-125-53-53-125-53z"/><glyph glyph-name="uni04D4" unicode="Ӕ" horiz-adv-x="1892" d="M1055 0l-88 240H473L387 0H14l527 1366h835l109-301h-449l84-227h449l112-301h-450l90-236h446L1878 0h-823zM571 510h299L725 913z"/><glyph glyph-name="uni04D5" unicode="ӕ" horiz-adv-x="1757" d="M1681 406H995q0-96 62-158 51-51 147-51 68 0 103 26 29 19 47 60h313q-45-144-166-232-115-82-301-82-144 0-244 54-84 45-125 124-66-83-163-129-106-45-213-45-94 0-172.5 28.5T154 80q-78 78-78 188 0 119 80 199 104 104 303 104 127 0 233-47v23q0 69-43 112-54 54-176 54-120 0-254-51v243q150 43 273 43 114 0 190-35 96-44 149-127 58 75 140 117 94 45 213 45 114 0 209-35.5t155-95.5q133-133 133-385v-26zm-677 186h376q-13 62-55 98-57 51-137 51-70 0-121-45-45-42-63-104zM541 389q-79 0-117-29-33-24-33-69 0-44 39-70 42-31 109-31 54 0 106 25 55 28 55 76 0 21-14 42t-35 32q-46 24-110 24z"/><glyph glyph-name="uni04D6" unicode="Ӗ" horiz-adv-x="1001" d="M920 1366v-301H498V838h399V537H498V301h422V0H143v1366h777zm-228 467l238-90q-50-135-168-199-95-53-262-53-159 0-258 53-118 64-168 199l237 90q20-64 66-96 44-33 125-33 78 0 125 33 45 31 65 96z"/><glyph glyph-name="uni04D7" unicode="ӗ" horiz-adv-x="1159" d="M1083 432v-35H401q0-40 15-82.5t43-70.5q45-45 135-45 63 0 106 24 40 24 58 62h313q-31-112-110-189Q830-31 588-31q-239 0-379 140Q74 244 74 455q0 220 137 354 137 133 375 133 218 0 352-125 145-138 145-385zM412 586h370q-13 58-53 98-49 49-135 49-84 0-133-49-41-45-49-98zm360 798l219-77q-34-124-139-189-91-57-238-57-146 0-237 57-105 65-139 189l219 77q15-54 47-86 39-41 110-41 72 0 111 41 32 32 47 86z"/><glyph glyph-name="uni04D8" unicode="Ә" horiz-adv-x="1572" d="M481 909l-366 72q80 193 256 305 175 111 405 111 167 0 299.5-55.5T1294 1198q91-93 144-223.5t53-282.5q0-323-195-522-61-63-131-105.5t-141.5-62-129-26.5T770-31q-65 0-121 7T528.5 1t-127 55.5T285 150Q82 358 82 725v37h1051q-19 117-101 199-103 100-268 100-92 0-172-45-71-39-111-107zm641-377H451q13-103 86-170 84-79 235-79 145 0 238 73 88 71 112 176z"/><glyph glyph-name="afii10846" unicode="ә" horiz-adv-x="1159" d="M74 473v55h682q-3 41-21.5 79T688 668q-54 45-139 45-58 0-109-29-39-22-63-66L98 676q57 125 174 194 118 72 287 72 254 0 397-147 127-131 127-336 0-108-36.5-201T946 102Q809-31 571-31 353-31 219 94 74 232 74 473zm671-127H375q5-69 53-117 51-51 137-51 84 0 131 51 43 43 49 117z"/><glyph glyph-name="uni04DA" unicode="Ӛ" horiz-adv-x="1572" d="M481 909l-366 72q80 193 256 305 175 111 405 111 167 0 299.5-55.5T1294 1198q91-93 144-223.5t53-282.5q0-323-195-522-61-63-131-105.5t-141.5-62-129-26.5T770-31q-65 0-121 7T528.5 1t-127 55.5T285 150Q82 358 82 725v37h1051q-19 117-101 199-103 100-268 100-92 0-172-45-71-39-111-107zm641-377H451q13-103 86-170 84-79 235-79 145 0 238 73 88 71 112 176zm-112 949q-73 0-125 55-51 57-51 123 0 64 53 125 53 53 123 53 72 0 123-51 55-55 55-127 0-69-53-125-53-53-125-53zm-465 0q-73 0-125 55-51 57-51 123 0 64 53 125 53 53 123 53 72 0 123-51 55-55 55-127 0-69-53-125-53-53-125-53z"/><glyph glyph-name="uni04DB" unicode="ӛ" horiz-adv-x="1159" d="M74 473v55h682q-3 41-21.5 79T688 668q-54 45-139 45-58 0-109-29-39-22-63-66L98 676q57 125 174 194 118 72 287 72 254 0 397-147 127-131 127-336 0-108-36.5-201T946 102Q809-31 571-31 353-31 219 94 74 232 74 473zm671-127H375q5-69 53-117 51-51 137-51 84 0 131 51 43 43 49 117zm74 725q-73 0-125 55-51 57-51 123 0 64 53 125 53 53 123 53 72 0 123-51 55-55 55-127 0-69-53-125-53-53-125-53zm-465 0q-73 0-125 55-51 57-51 123 0 64 53 125 53 53 123 53 72 0 123-51 55-55 55-127 0-69-53-125-53-53-125-53z"/><glyph glyph-name="uni04DC" unicode="Ӝ" horiz-adv-x="1986" d="M817 0v600L449 0H2l498 696-457 670h410l364-594v594h352V772l365 594h410l-457-670L1985 0h-447l-369 600V0H817zm408 1481q-73 0-125 55-51 57-51 123 0 64 53 125 53 53 123 53 72 0 123-51 55-55 55-127 0-69-53-125-53-53-125-53zm-465 0q-73 0-125 55-51 57-51 123 0 64 53 125 53 53 123 53 72 0 123-51 55-55 55-127 0-69-53-125-53-53-125-53z"/><glyph glyph-name="uni04DD" unicode="ӝ" horiz-adv-x="1675" d="M676 0v397L403 0H2l373 477L57 915h373l246-383v383h323V532l246 383h373l-318-438L1673 0h-401L999 397V0H676zm397 1071q-73 0-125 55-51 57-51 123 0 64 53 125 53 53 123 53 72 0 123-51 55-55 55-127 0-69-53-125-53-53-125-53zm-465 0q-73 0-125 55-51 57-51 123 0 64 53 125 53 53 123 53 72 0 123-51 55-55 55-127 0-69-53-125-53-53-125-53z"/><glyph glyph-name="uni04DE" unicode="Ӟ" horiz-adv-x="1222" d="M268 989l-137 260q78 54 188 97 138 51 289 51 240 0 367-123 102-97 102-258 0-113-59-197-49-70-127-108v-6q87-26 151-87 99-94 99-229 0-100-45.5-185.5T971 63Q836-31 586-31q-185 0-330 60Q133 80 31 172l180 258q62-70 143-115 86-45 185-45 94 0 149 35 64 39 64 113 0 62-62 102-52 33-168 33H389v274h88q155 0 213 58 35 35 35 86 0 57-53 96-49 35-131 35-86 0-160-37-53-25-113-76zm574 492q-73 0-125 55-51 57-51 123 0 64 53 125 53 53 123 53 72 0 123-51 55-55 55-127 0-69-53-125-53-53-125-53zm-465 0q-73 0-125 55-51 57-51 123 0 64 53 125 53 53 123 53 72 0 123-51 55-55 55-127 0-69-53-125-53-53-125-53z"/><glyph glyph-name="uni04DF" unicode="ӟ" horiz-adv-x="950" d="M178 633L70 846q69 38 151 63 119 37 234 37 225 0 327-102 66-66 66-162 0-85-45-137-39-46-92-68v-4q76-12 127-63 55-55 55-142 0-55-22.5-108T809 70Q705-31 457-31 328-31 219 4 122 35 37 88l121 227q55-43 114-69 71-29 144-29 61 0 98 16 19 9 31 27t12 35q0 35-37 51-32 14-106 14H301v213h92q60 0 103 15t43 53q0 36-39 53-34 17-94 17-59 0-125-25-58-21-103-53zm533 438q-73 0-125 55-51 57-51 123 0 64 53 125 53 53 123 53 72 0 123-51 55-55 55-127 0-69-53-125-53-53-125-53zm-465 0q-73 0-125 55-51 57-51 123 0 64 53 125 53 53 123 53 72 0 123-51 55-55 55-127 0-69-53-125-53-53-125-53z"/><glyph glyph-name="uni04E2" unicode="Ӣ" horiz-adv-x="1517" d="M143 1366h357V506l512 860h362V0h-356v860L506 0H143v1366zm230 168v201h770v-201H373z"/><glyph glyph-name="uni04E3" unicode="ӣ" horiz-adv-x="1200" d="M113 915h327V444l363 471h284V0H760v483L401 0H113v915zm75 189v201h811v-201H188z"/><glyph glyph-name="uni04E4" unicode="Ӥ" horiz-adv-x="1517" d="M143 1366h357V506l512 860h362V0h-356v860L506 0H143v1366zm846 115q-73 0-125 55-51 57-51 123 0 64 53 125 53 53 123 53 72 0 123-51 55-55 55-127 0-69-53-125-53-53-125-53zm-465 0q-73 0-125 55-51 57-51 123 0 64 53 125 53 53 123 53 72 0 123-51 55-55 55-127 0-69-53-125-53-53-125-53z"/><glyph glyph-name="uni04E5" unicode="ӥ" horiz-adv-x="1200" d="M113 915h327V444l363 471h284V0H760v483L401 0H113v915zm721 156q-73 0-125 55-52 58-52 123 0 63 54 125 53 53 123 53 71 0 122-51 56-56 56-127 0-68-54-125-53-53-124-53zm-465 0q-73 0-125 55-51 57-51 123 0 64 53 125 53 53 123 53 72 0 123-51 55-55 55-127 0-69-53-125-53-53-125-53z"/><glyph glyph-name="uni04E6" unicode="Ӧ" horiz-adv-x="1671" d="M1589 682q0-140-54.5-274.5T1374 172q-103-99-243.5-151T836-31 541 21.5 297 172Q191 273 136.5 407.5T82 682q0 141 54.5 276.5T297 1194q103 98 244 150.5t295 52.5 294.5-52 243.5-151q106-100 160.5-235.5T1589 682zm-753 371q-77 0-150-27.5T559 944Q451 839 451 676q0-150 108-254 114-109 277-109 167 0 274 107 50 50 80.5 118.5T1221 682q0 76-30.5 145T1110 944q-56 53-128.5 81T836 1053zm233 428q-73 0-125 55-51 57-51 123 0 64 53 125 53 53 123 53 72 0 123-51 55-55 55-127 0-69-53-125-53-53-125-53zm-465 0q-73 0-125 55-51 57-51 123 0 64 53 125 53 53 123 53 72 0 123-51 55-55 55-127 0-69-53-125-53-53-125-53z"/><glyph glyph-name="uni04E7" unicode="ӧ" horiz-adv-x="1251" d="M627 668q-39 0-79.5-16.5T479 608q-63-60-63-149 0-83 63-146 61-61 148-61 84 0 145 61 64 61 64 146 0 38-17 78.5T772 608q-28 27-67.5 43.5T627 668zm549-209q0-199-142-338Q879-31 625-31T217 121Q76 259 76 459q0 199 141 336 155 151 408 151 250 0 409-151 142-138 142-336zm-312 612q-73 0-125 55-51 57-51 123 0 64 53 125 53 53 123 53 72 0 123-51 55-55 55-127 0-69-53-125-53-53-125-53zm-465 0q-73 0-125 55-51 57-51 123 0 64 53 125 53 53 123 53 72 0 123-51 56-56 56-127 0-68-54-125-53-53-125-53z"/><glyph glyph-name="uni04E8" unicode="Ө" horiz-adv-x="1671" d="M487 829h693q-38 101-113 162-94 78-233 78-129 0-226-74-90-65-121-166zm709-258H471q30-107 109-180 107-94 254-94 135 0 241 86 92 74 121 188zm393 111q0-140-54.5-274.5T1374 172q-103-99-243.5-151T836-31 541 21.5 297 172Q191 273 136.5 407.5T82 682q0 141 54.5 276.5T297 1194q103 98 244 150.5t295 52.5 294.5-52 243.5-151q106-100 160.5-235.5T1589 682z"/><glyph glyph-name="uni04E9" unicode="ө" horiz-adv-x="1267" d="M436 545h393q-18 57-61 96-51 45-135 45-92 0-141-49-42-39-56-92zm400-144H432q17-68 70-110 55-45 133-45 80 0 135 49 52 52 66 106zm356 64q0-94-36-183t-107-159Q977 52 870 10.5T633-31q-128 0-234 41.5T219 123q-71 70-107 159T76 465q0 101 39 189t104 151q160 153 414 153 130 0 237-41t179-112q65-63 104-151t39-189z"/><glyph glyph-name="uni04EA" unicode="Ӫ" horiz-adv-x="1671" d="M487 829h693q-38 101-113 162-94 78-233 78-129 0-226-74-90-65-121-166zm709-258H471q30-107 109-180 107-94 254-94 135 0 241 86 92 74 121 188zm393 111q0-140-54.5-274.5T1374 172q-103-99-243.5-151T836-31 541 21.5 297 172Q191 273 136.5 407.5T82 682q0 141 54.5 276.5T297 1194q103 98 244 150.5t295 52.5 294.5-52 243.5-151q106-100 160.5-235.5T1589 682zm-520 799q-73 0-125 55-51 57-51 123 0 64 53 125 53 53 123 53 72 0 123-51 55-55 55-127 0-69-53-125-53-53-125-53zm-465 0q-73 0-125 55-51 57-51 123 0 64 53 125 53 53 123 53 72 0 123-51 55-55 55-127 0-69-53-125-53-53-125-53z"/><glyph glyph-name="uni04EB" unicode="ӫ" horiz-adv-x="1267" d="M436 545h393q-18 57-61 96-51 45-135 45-92 0-141-49-42-39-56-92zm400-144H432q17-68 70-110 55-45 133-45 80 0 135 49 52 52 66 106zm356 64q0-94-36-183t-107-159Q977 52 870 10.5T633-31q-128 0-234 41.5T219 123q-71 70-107 159T76 465q0 101 39 189t104 151q160 153 414 153 130 0 237-41t179-112q65-63 104-151t39-189zm-328 606q-73 0-125 55-51 57-51 123 0 64 53 125 53 53 123 53 72 0 123-51 55-55 55-127 0-69-53-125-53-53-125-53zm-465 0q-73 0-125 55-51 57-51 123 0 64 53 125 53 53 123 53 72 0 123-51 56-56 56-127 0-68-54-125-53-53-125-53z"/><glyph glyph-name="uni04EE" unicode="Ӯ" horiz-adv-x="1275" d="M0 1366h397l260-608 228 608h379L649 0H274l191 383zm252 168v201h770v-201H252z"/><glyph glyph-name="uni04EF" unicode="ӯ" horiz-adv-x="1236" d="M135-469l307 594L0 915h381l244-469 237 469h375L502-469H135zm82 1573v201h811v-201H217z"/><glyph glyph-name="uni04F0" unicode="Ӱ" horiz-adv-x="1275" d="M0 1366h397l260-608 228 608h379L649 0H274l191 383zm868 115q-73 0-125 55-51 57-51 123 0 64 53 125 53 53 123 53 72 0 123-51 56-56 56-127 0-68-54-125-53-53-125-53zm-465 0q-72 0-124 55-52 58-52 123 0 63 54 125 53 53 122 53 72 0 123-51 56-56 56-127 0-68-54-125-53-53-125-53z"/><glyph glyph-name="uni04F1" unicode="ӱ" horiz-adv-x="1236" d="M135-469l307 594L0 915h381l244-469 237 469h375L502-469H135zm719 1540q-73 0-125 55-51 57-51 123 0 64 53 125 53 53 123 53 72 0 123-51 55-55 55-127 0-69-53-125-53-53-125-53zm-465 0q-73 0-125 55-51 57-51 123 0 64 53 125 53 53 123 53 72 0 123-51 55-55 55-127 0-69-53-125-53-53-125-53z"/><glyph glyph-name="uni04F2" unicode="Ӳ" horiz-adv-x="1275" d="M0 1366h397l260-608 228 608h379L649 0H274l191 383zm573 537l170-150-280-278-111 112zm355 0l172-150-281-278-112 112z"/><glyph glyph-name="uni04F3" unicode="ӳ" horiz-adv-x="1236" d="M135-469l307 594L0 915h381l244-469 237 469h375L502-469H135zm416 1962l170-150-281-278-110 113zm354 0l172-150-280-278-113 113z"/><glyph glyph-name="uni04F4" unicode="Ӵ" horiz-adv-x="1351" d="M852 0v537q-141-21-285-21-264 0-372 102Q86 720 86 942v424h356V995q0-100 41-141 43-43 168-43 109 0 201 14v541h356V0H852zm14 1481q-73 0-125 55-51 57-51 123 0 64 53 125 53 53 123 53 72 0 123-51 55-55 55-127 0-69-53-125-53-53-125-53zm-465 0q-73 0-125 55-51 57-51 123 0 63 54 125 53 53 122 53 72 0 123-51 56-56 56-127 0-68-54-125-53-53-125-53z"/><glyph glyph-name="uni04F5" unicode="ӵ" horiz-adv-x="1101" d="M662 0v299q-95-23-201-23-204 0-293 91-82 82-82 260v288h315V649q0-75 35-104 29-25 111-25 64 0 115 15v380h327V0H662zm122 1071q-73 0-125 55-51 57-51 123 0 63 54 125 53 53 122 53 72 0 123-51 56-56 56-127 0-68-54-125-53-53-125-53zm-465 0q-72 0-124 55-52 58-52 123 0 63 54 125 53 53 122 53 72 0 123-51 56-56 56-127 0-68-54-125-53-53-125-53z"/><glyph glyph-name="uni04F8" unicode="Ӹ" horiz-adv-x="1800" d="M1300 0v1366h357V0h-357zM143 0v1366h357V834h172q52 0 95-3.5t102-15 113-39 97-69.5q109-107 109-289t-103-287q-42-42-96-70T873.5 20.5 762.5 4 651 0H143zm357 274h137q113 0 154 41 36 36 36 103 0 65-39 100-43 41-151 41H500V274zm630 1207q-72 0-124 55-52 58-52 123 0 63 54 125 53 53 122 53 72 0 123-51 56-56 56-127 0-68-54-125-53-53-125-53zm-464 0q-73 0-125 55-52 58-52 123 0 63 54 125 53 53 123 53 71 0 122-51 56-56 56-127 0-69-53-125-53-53-125-53z"/><glyph glyph-name="uni04F9" unicode="ӹ" horiz-adv-x="1519" d="M1079 0v915h328V0h-328zM440 610h224q158 0 245-82 82-80 82-219 0-141-78-219-43-43-110.5-66.5T664 0H113v915h327V610zm0-397h123q24 0 50 8.5t38 20.5q23 23 23 65 0 45-25 66-31 24-90 24H440V213zm555 858q-73 0-125 55-51 57-51 123 0 64 53 125 53 53 123 53 72 0 123-51 56-56 56-127 0-68-54-125-53-53-125-53zm-465 0q-72 0-124 55-52 58-52 123 0 63 54 125 53 53 122 53 72 0 123-51 56-56 56-127 0-68-54-125-53-53-125-53z"/><glyph glyph-name="uni1E9E" unicode="ẞ" horiz-adv-x="1280" d="M498 961V0H143v864q0 245 133 389 135 144 363 144 187 0 307-82 158-108 178-303L934 772q112-37 180-110 85-91 82-218-1-108-36.5-187.5T1047 104Q972 34 862 6T606-27v277q88 5 146 41 86 55 86 151 0 92-78 140-60 37-154 41v141l162 215q0 69-39 111-34 34-94 34t-96-39q-41-44-41-124z"/><glyph glyph-name="uni2010" unicode="‐" horiz-adv-x="722" d="M102 414v272h519V414H102z"/><glyph glyph-name="uni2011" unicode="‑" horiz-adv-x="722" d="M102 414v272h519V414H102z"/><glyph glyph-name="figuredash" unicode="‒" horiz-adv-x="1175" d="M143 563v271h889V563H143z"/><glyph glyph-name="endash" unicode="–" horiz-adv-x="1175" d="M143 408v270h889V408H143z"/><glyph glyph-name="emdash" unicode="—" horiz-adv-x="1857" d="M143 408v270h1571V408H143z"/><glyph glyph-name="afii00208" unicode="―" horiz-adv-x="1857" d="M143 408v270h1571V408H143z"/><glyph glyph-name="quoteleft" unicode="‘" horiz-adv-x="706" d="M639 1366L403 764H96l332 602h211z"/><glyph glyph-name="quoteright" unicode="’" horiz-adv-x="917" d="M68 764l235 602h309L279 764H68z"/><glyph glyph-name="quotesinglbase" unicode="‚" horiz-adv-x="940" d="M68-305l258 647h309L279-305H68z"/><glyph glyph-name="quotedblleft" unicode="“" horiz-adv-x="1171" d="M1104 1366L868 764H559l334 602h211zm-465 0L403 764H96l332 602h211z"/><glyph glyph-name="quotedblright" unicode="”" horiz-adv-x="1382" d="M68 764l235 602h309L279 764H68zm464 0l236 602h307L743 764H532z"/><glyph glyph-name="quotedblbase" unicode="„" horiz-adv-x="1398" d="M532-305l252 647h308L743-305H532zm-464 0l251 647h308L279-305H68z"/><glyph glyph-name="dagger" unicode="†" horiz-adv-x="1228" d="M463 1087v406h301v-406h321V827H764V-385H463V827H143v260h320z"/><glyph glyph-name="daggerdbl" unicode="‡" horiz-adv-x="1228" d="M465 1087v406h301v-406h317V827H766V385h317V125H766v-510H465v510H145v260h320v442H145v260h320z"/><glyph glyph-name="bullet" unicode="•" horiz-adv-x="2048" d="M741 696q0 119 82 201 86 86 201 86 113 0 197-84 86-86 86-203 0-119-93-209-83-77-190-77-110 0-193 77-90 83-90 209z"/><glyph glyph-name="ellipsis" unicode="…" horiz-adv-x="1861" d="M309 387q87 0 150-63t63-150q0-86-63-149-64-64-150-64-85 0-151 66-60 60-60 147 0 88 62 150 63 63 149 63zm621 0q86 0 149-63 64-64 64-150 0-85-64-149T930-39q-86 0-152 66-59 59-59 147 0 89 61 150 63 63 150 63zm620 0q87 0 150-63t63-150q0-86-63-149-64-64-150-64-85 0-151 66-60 60-60 147 0 88 62 150 63 63 149 63z"/><glyph glyph-name="perthousand" unicode="‰" horiz-adv-x="2711" d="M438 711q-181 0-284 108-86 92-86 221 0 66 22 127.5t62 104.5q97 108 286 108 187 0 291-108 86-90 86-225 0-136-88-228-103-108-289-108zM432 0l791 1366h178L608 0H432zm10 1200q-68 0-112-47-41-44-41-106 0-71 53-117 40-37 100-37 63 0 109 43 45 45 45 111 0 68-49 114-42 39-105 39zm951-727q-69 0-113-47-41-44-41-107 0-70 53-116 40-37 101-37 62 0 108 43 45 45 45 110 0 69-49 115-42 39-104 39zm-4-489q-182 0-285 108-86 92-86 221 0 66 22 127.5t62 104.5q97 108 287 108 186 0 290-108 86-90 86-226 0-135-88-227-103-108-288-108zm882 489q-68 0-112-47-41-44-41-107 0-70 53-116 40-37 100-37 63 0 109 43 45 45 45 110 0 69-49 115-42 39-105 39zm-4-489q-182 0-285 108-86 92-86 221 0 66 22 127.5t62 104.5q97 108 287 108 187 0 291-108 86-90 86-226 0-135-88-227-103-108-289-108z"/><glyph glyph-name="guilsinglleft" unicode="‹" horiz-adv-x="636" d="M549 786L322 467l233-315L369 20 57 467l312 444z"/><glyph glyph-name="guilsinglright" unicode="›" horiz-adv-x="636" d="M78 152l233 315L84 786l180 125 311-444L264 20z"/><glyph glyph-name="fraction" unicode="⁄" horiz-adv-x="559" d="M-205 0l791 1366h178L-29 0h-176z"/><glyph glyph-name="Euro" unicode="€" horiz-adv-x="1228" d="M1114 389V47Q959-31 762-31 645-31 529.5 0T330 96q-75 59-130.5 149.5T119 440H-41l74 185h61q-3 47 0 102H-41l74 184h88q52 220 229 351 180 133 453 133 212 0 373-90l-119-299q-122 77-269 77-122 0-200-45-83-45-111-127h549l-74-184H440q-5-44 2-102h469l-73-185H487q32-74 115-118 78-41 195-41 194 0 317 108z"/><glyph glyph-name="uni20B4" unicode="₴" horiz-adv-x="1228" d="M303 1020l-137 260q221 117 491 117 205 0 304-72 110-83 110-219 0-98-59-164h139V727H842L707 600h444V387H553q-27-27-27-63 0-45 37-64 40-22 127-22 164 0 307 75l142-241q-122-59-265.5-87T602-43q-213 0-323 68-127 82-127 223 0 77 49 139H82v213h264l135 127H82v215h569q33 33 33 74 0 43-33 69-41 27-106 27-122 0-242-92z"/><glyph glyph-name="uni20B6" unicode="₶" horiz-adv-x="1228" d="M176 1366h565q225 0 351-117 122-112 122-313 0-60-7-107t-35-107-78-106Q971 502 754 502H530V387h381V174H530V0H176v174H8v213h168v115H8v246h168v618zm354-287V748h119q103 0 150 43 45 41 45 124 0 74-41 115-49 49-152 49H530z"/><glyph glyph-name="uni20B6" unicode="⃏" horiz-adv-x="1228" d="M176 1366h565q225 0 351-117 122-112 122-313 0-60-7-107t-35-107-78-106Q971 502 754 502H530V387h381V174H530V0H176v174H8v213h168v115H8v246h168v618zm354-287V748h119q103 0 150 43 45 41 45 124 0 74-41 115-49 49-152 49H530z"/><glyph glyph-name="uni20B6" unicode="⃎" horiz-adv-x="1228" d="M176 1366h565q225 0 351-117 122-112 122-313 0-60-7-107t-35-107-78-106Q971 502 754 502H530V387h381V174H530V0H176v174H8v213h168v115H8v246h168v618zm354-287V748h119q103 0 150 43 45 41 45 124 0 74-41 115-49 49-152 49H530z"/><glyph glyph-name="uni20B6" unicode="⃍" horiz-adv-x="1228" d="M176 1366h565q225 0 351-117 122-112 122-313 0-60-7-107t-35-107-78-106Q971 502 754 502H530V387h381V174H530V0H176v174H8v213h168v115H8v246h168v618zm354-287V748h119q103 0 150 43 45 41 45 124 0 74-41 115-49 49-152 49H530z"/><glyph glyph-name="uni20B6" unicode="⃌" horiz-adv-x="1228" d="M176 1366h565q225 0 351-117 122-112 122-313 0-60-7-107t-35-107-78-106Q971 502 754 502H530V387h381V174H530V0H176v174H8v213h168v115H8v246h168v618zm354-287V748h119q103 0 150 43 45 41 45 124 0 74-41 115-49 49-152 49H530z"/><glyph glyph-name="uni20B6" unicode="⃋" horiz-adv-x="1228" d="M176 1366h565q225 0 351-117 122-112 122-313 0-60-7-107t-35-107-78-106Q971 502 754 502H530V387h381V174H530V0H176v174H8v213h168v115H8v246h168v618zm354-287V748h119q103 0 150 43 45 41 45 124 0 74-41 115-49 49-152 49H530z"/><glyph glyph-name="uni20B6" unicode="⃊" horiz-adv-x="1228" d="M176 1366h565q225 0 351-117 122-112 122-313 0-60-7-107t-35-107-78-106Q971 502 754 502H530V387h381V174H530V0H176v174H8v213h168v115H8v246h168v618zm354-287V748h119q103 0 150 43 45 41 45 124 0 74-41 115-49 49-152 49H530z"/><glyph glyph-name="uni20B6" unicode="⃉" horiz-adv-x="1228" d="M176 1366h565q225 0 351-117 122-112 122-313 0-60-7-107t-35-107-78-106Q971 502 754 502H530V387h381V174H530V0H176v174H8v213h168v115H8v246h168v618zm354-287V748h119q103 0 150 43 45 41 45 124 0 74-41 115-49 49-152 49H530z"/><glyph glyph-name="uni20B6" unicode="⃈" horiz-adv-x="1228" d="M176 1366h565q225 0 351-117 122-112 122-313 0-60-7-107t-35-107-78-106Q971 502 754 502H530V387h381V174H530V0H176v174H8v213h168v115H8v246h168v618zm354-287V748h119q103 0 150 43 45 41 45 124 0 74-41 115-49 49-152 49H530z"/><glyph glyph-name="uni20B6" unicode="⃇" horiz-adv-x="1228" d="M176 1366h565q225 0 351-117 122-112 122-313 0-60-7-107t-35-107-78-106Q971 502 754 502H530V387h381V174H530V0H176v174H8v213h168v115H8v246h168v618zm354-287V748h119q103 0 150 43 45 41 45 124 0 74-41 115-49 49-152 49H530z"/><glyph glyph-name="uni20B6" unicode="⃆" horiz-adv-x="1228" d="M176 1366h565q225 0 351-117 122-112 122-313 0-60-7-107t-35-107-78-106Q971 502 754 502H530V387h381V174H530V0H176v174H8v213h168v115H8v246h168v618zm354-287V748h119q103 0 150 43 45 41 45 124 0 74-41 115-49 49-152 49H530z"/><glyph glyph-name="uni20B6" unicode="⃅" horiz-adv-x="1228" d="M176 1366h565q225 0 351-117 122-112 122-313 0-60-7-107t-35-107-78-106Q971 502 754 502H530V387h381V174H530V0H176v174H8v213h168v115H8v246h168v618zm354-287V748h119q103 0 150 43 45 41 45 124 0 74-41 115-49 49-152 49H530z"/><glyph glyph-name="uni20B6" unicode="⃄" horiz-adv-x="1228" d="M176 1366h565q225 0 351-117 122-112 122-313 0-60-7-107t-35-107-78-106Q971 502 754 502H530V387h381V174H530V0H176v174H8v213h168v115H8v246h168v618zm354-287V748h119q103 0 150 43 45 41 45 124 0 74-41 115-49 49-152 49H530z"/><glyph glyph-name="uni20B6" unicode="⃃" horiz-adv-x="1228" d="M176 1366h565q225 0 351-117 122-112 122-313 0-60-7-107t-35-107-78-106Q971 502 754 502H530V387h381V174H530V0H176v174H8v213h168v115H8v246h168v618zm354-287V748h119q103 0 150 43 45 41 45 124 0 74-41 115-49 49-152 49H530z"/><glyph glyph-name="uni20B6" unicode="⃂" horiz-adv-x="1228" d="M176 1366h565q225 0 351-117 122-112 122-313 0-60-7-107t-35-107-78-106Q971 502 754 502H530V387h381V174H530V0H176v174H8v213h168v115H8v246h168v618zm354-287V748h119q103 0 150 43 45 41 45 124 0 74-41 115-49 49-152 49H530z"/><glyph glyph-name="uni20B6" unicode="⃁" horiz-adv-x="1228" d="M176 1366h565q225 0 351-117 122-112 122-313 0-60-7-107t-35-107-78-106Q971 502 754 502H530V387h381V174H530V0H176v174H8v213h168v115H8v246h168v618zm354-287V748h119q103 0 150 43 45 41 45 124 0 74-41 115-49 49-152 49H530z"/><glyph glyph-name="uni20B6" unicode="⃀" horiz-adv-x="1228" d="M176 1366h565q225 0 351-117 122-112 122-313 0-60-7-107t-35-107-78-106Q971 502 754 502H530V387h381V174H530V0H176v174H8v213h168v115H8v246h168v618zm354-287V748h119q103 0 150 43 45 41 45 124 0 74-41 115-49 49-152 49H530z"/><glyph glyph-name="uni20B6" unicode="₿" horiz-adv-x="1228" d="M176 1366h565q225 0 351-117 122-112 122-313 0-60-7-107t-35-107-78-106Q971 502 754 502H530V387h381V174H530V0H176v174H8v213h168v115H8v246h168v618zm354-287V748h119q103 0 150 43 45 41 45 124 0 74-41 115-49 49-152 49H530z"/><glyph glyph-name="uni20B6" unicode="₾" horiz-adv-x="1228" d="M176 1366h565q225 0 351-117 122-112 122-313 0-60-7-107t-35-107-78-106Q971 502 754 502H530V387h381V174H530V0H176v174H8v213h168v115H8v246h168v618zm354-287V748h119q103 0 150 43 45 41 45 124 0 74-41 115-49 49-152 49H530z"/><glyph glyph-name="uni20B6" unicode="₽" horiz-adv-x="1228" d="M176 1366h565q225 0 351-117 122-112 122-313 0-60-7-107t-35-107-78-106Q971 502 754 502H530V387h381V174H530V0H176v174H8v213h168v115H8v246h168v618zm354-287V748h119q103 0 150 43 45 41 45 124 0 74-41 115-49 49-152 49H530z"/><glyph glyph-name="uni20B6" unicode="₼" horiz-adv-x="1228" d="M176 1366h565q225 0 351-117 122-112 122-313 0-60-7-107t-35-107-78-106Q971 502 754 502H530V387h381V174H530V0H176v174H8v213h168v115H8v246h168v618zm354-287V748h119q103 0 150 43 45 41 45 124 0 74-41 115-49 49-152 49H530z"/><glyph glyph-name="uni20B6" unicode="₻" horiz-adv-x="1228" d="M176 1366h565q225 0 351-117 122-112 122-313 0-60-7-107t-35-107-78-106Q971 502 754 502H530V387h381V174H530V0H176v174H8v213h168v115H8v246h168v618zm354-287V748h119q103 0 150 43 45 41 45 124 0 74-41 115-49 49-152 49H530z"/><glyph glyph-name="uni20B6" unicode="₺" horiz-adv-x="1228" d="M176 1366h565q225 0 351-117 122-112 122-313 0-60-7-107t-35-107-78-106Q971 502 754 502H530V387h381V174H530V0H176v174H8v213h168v115H8v246h168v618zm354-287V748h119q103 0 150 43 45 41 45 124 0 74-41 115-49 49-152 49H530z"/><glyph glyph-name="uni20B6" unicode="₹" horiz-adv-x="1228" d="M176 1366h565q225 0 351-117 122-112 122-313 0-60-7-107t-35-107-78-106Q971 502 754 502H530V387h381V174H530V0H176v174H8v213h168v115H8v246h168v618zm354-287V748h119q103 0 150 43 45 41 45 124 0 74-41 115-49 49-152 49H530z"/><glyph glyph-name="uni20B6" unicode="₷" horiz-adv-x="1228" d="M176 1366h565q225 0 351-117 122-112 122-313 0-60-7-107t-35-107-78-106Q971 502 754 502H530V387h381V174H530V0H176v174H8v213h168v115H8v246h168v618zm354-287V748h119q103 0 150 43 45 41 45 124 0 74-41 115-49 49-152 49H530z"/><glyph glyph-name="uni20B8" unicode="₸" horiz-adv-x="1228" d="M1083 778H788V0H434v778H145v281h938V778zm0 369H145v219h938v-219z"/><glyph glyph-name="afii61352" unicode="№" horiz-adv-x="2381" d="M498 0H143v1366h355l653-836v836h354V0h-354L498 836V0zm1480 719q-168 0-270 98-92 92-92 223 0 138 92 226 100 100 270 100 167 0 265-96 44-42 70-103.5t26-126.5q0-60-25-120.5T2245 815q-96-96-267-96zm-311-326v195h621V393h-621zm309 787q-58 0-96-35-41-36-41-105 0-63 39-102 37-37 98-37 64 0 101 37 39 39 39 102 0 66-39 105-35 35-101 35z"/><glyph glyph-name="uni2117" unicode="℗" horiz-adv-x="1579" d="M557 1083h303q152 0 227-73 68-68 68-185 0-118-68-186-74-74-225-74h-65V307H557v776zm240-180V745h14q56 0 80 19 29 21 29 61t-31 60q-26 18-78 18h-14zm741-221q0-138-55-271.5T1329 178Q1229 78 1091 23.5T815-31q-136 0-273 54.5T303 178q-99 99-154 232.5T94 682q0 139 55 274t154 232q102 100 239 154.5t273 54.5q138 0 276-54.5t238-154.5q99-97 154-232t55-274zm-723 586q-237 0-405-168-172-172-172-418t172-418Q578 96 815 96q240 0 408 168 172 172 172 418t-172 418q-168 168-408 168z"/><glyph glyph-name="trademark" unicode="™" horiz-adv-x="1591" d="M541 1184H375V588H164v596H0v182h541v-182zm250-596H580l129 778h211l147-399 158 399h211l114-778h-211l-53 422-174-422h-94l-166 422z"/><glyph glyph-name="partialdiff" unicode="∂" horiz-adv-x="1148" d="M178 1161l35 225q175-12 343.5-71.5T844 1143q69-64 117.5-143.5t73-159T1069 694t10-131q0-132-40-248.5T924 117Q790-25 565-25q-216 0-352 131Q70 246 70 453q0 196 137 329 120 117 297 117 144 0 252-82-70 165-217 246-70 39-168 65.5T178 1161zm397-936q81 0 140 56 69 69 69 168 0 51-19.5 95.5T713 616q-56 50-146 50-85 0-143-52-72-66-72-165 0-96 66-162 62-62 157-62z"/><glyph glyph-name="product" unicode="∏" horiz-adv-x="1501" d="M82 1290v246h1337v-246h-168V-266h168v-246H819v246h150v1556H535V-266h145v-246H82v246h170v1556H82z"/><glyph glyph-name="summation" unicode="∑" horiz-adv-x="1366" d="M43 1536h1227v-506h-240l-26 260H358l512-743-512-813h664l16 266h250v-512H43v266l498 793-498 723v266z"/><glyph glyph-name="minus" unicode="−" d="M68 573v246h888V573H68z"/><glyph glyph-name="uni2215" unicode="∕" horiz-adv-x="1376" d="M-61-385L985 1493h268L205-385H-61z"/><glyph glyph-name="uni2219" unicode="∙" horiz-adv-x="507" d="M254 469q-101 0-174 70Q0 616 0 723q0 49 20.5 99T80 909q73 70 174 70 99 0 170-68 84-78 84-188 0-104-74-178-76-76-180-76z"/><glyph glyph-name="radical" unicode="√" horiz-adv-x="1366" d="M768 1694h598v-240H999L662 0H309L193 555H0v238h414l37-172q11-76 18-150 8-66 8-123v-26h23l2 38q3 85 33 271 24 158 53 284z"/><glyph glyph-name="infinity" unicode="∞" horiz-adv-x="1366" d="M999 360q-56 0-98 11t-88 41q-72 45-123 110-62-71-139-116-77-46-182-46-148 0-244 99-90 90-90 231 0 144 94 242 47 47 111 71.5t127 24.5q95 0 180-49 72-41 129-111 69 82 151 121 80 39 168 39 65 0 129-24t109-66q98-90 98-242 0-147-98-245-89-91-234-91zm-45 431q-40 0-84-35-35-27-57-62 24-35 57-61 42-33 84-33 48 0 74 29 29 29 29 67 0 37-27 64-34 31-76 31zm-544 0q-42 0-72-27-29-29-29-72 0-36 27-63 26-29 74-29 42 0 84 33 33 26 57 61-22 35-57 62-44 35-84 35z"/><glyph glyph-name="integral" unicode="∫" d="M649 1153V51q0-194-8-260-13-134-88-209-94-94-274-94-92 0-185 20l49 238q56-20 115-20 54 0 82 26 35 33 35 119V973q0 186 8 250 17 139 84 213 92 100 274 100 81 0 189-20l-49-238q-61 20-115 20-52 0-80-26-37-33-37-119z"/><glyph glyph-name="approxequal" unicode="≈" d="M541 752l-66 24q-116 45-168 45-50 0-88-35-34-34-59-90L14 793l15 30q3 5 16 33.5t18.5 40 18 33.5 25.5 38 28 31q81 78 191 78 57 0 166-39l86-30q94-33 135-33 56 0 92 33 29 26 55 73l150-88-13-26q-48-106-102-160-86-88-195-88-62 0-159 33zm0-416l-66 24q-119 46-168 46-50 0-88-35-34-34-59-90L14 377l15 31q3 5 16 33.5t18.5 40 18 33.5 25.5 38 28 31q81 78 191 78 57 0 166-39l86-31q94-33 135-33 56 0 92 33 28 25 55 74l150-88-13-27q-48-106-102-160-86-88-195-88-62 0-159 33z"/><glyph glyph-name="notequal" unicode="≠" d="M70 965h467l112 221h209L748 965h208V727H639l-70-137h387V350H463L362 156H154l96 194H70v240h288l70 137H70v238z"/><glyph glyph-name="lessequal" unicode="≤" d="M68 946l888 424v-248L348 834l608-289V297L68 723v223zm0-706h888V0H68v240z"/><glyph glyph-name="greaterequal" unicode="≥" d="M956 723L68 297v248l608 289-608 288v248l888-424V723zm0-723H68v240h888V0z"/><glyph glyph-name="dotmath" unicode="⋅" horiz-adv-x="507" d="M254 469q-101 0-174 70Q0 616 0 723q0 49 20.5 99T80 909q73 70 174 70 99 0 170-68 84-78 84-188 0-104-74-178-76-76-180-76z"/><glyph glyph-name="lozenge" unicode="◊" horiz-adv-x="1677" d="M152 684l530 735 532-735L682-53zm751 0L682 987 463 684l219-303z"/><glyph glyph-name="openbullet" unicode="◦" d="M516 743q-134 0-227 93-92 92-92 221 0 127 92 217 96 92 221 92 64 0 123-24.5t102-65.5q92-89 92-219 0-129-92-221-93-93-219-93zm-151 312q0-61 41.5-102.5T512 911t105.5 41.5T659 1055t-41.5 102-105.5 41-105.5-41-41.5-102z"/><glyph glyph-name="uniF400" unicode="" horiz-adv-x="4" d="M-459 1493l207-150-315-278-152 113z"/><glyph glyph-name="uniF401" unicode="" horiz-adv-x="4" d="M-541 1903l207-150-315-278-152 112z"/><glyph glyph-name="uniF406" unicode="" d="M657 1796h211q-2-135-90-223-92-92-266-92t-266 92q-88 88-90 223h211q6-53 41-84 40-37 104-37t104 37q35 31 41 84z"/><glyph glyph-name="uniF407" unicode="" d="M578-94l229-90-238-299-188 82z"/><glyph glyph-name="uniF408" unicode="" d="M248 1475l-139 157 401 301 405-301-145-157-260 200z"/><glyph glyph-name="uniF409" unicode="" d="M307-508l107 406 307-33-209-397z"/><glyph glyph-name="uniF40A" unicode="" d="M303 963l111 430 307-54-213-413z"/><glyph glyph-name="uniF40B" unicode="" d="M512 1481q-75 0-131 53-55 55-55 129 0 82 55 137 53 53 131 53t131-53q55-55 55-133 0-81-55-133-56-53-131-53z"/><glyph glyph-name="uniF40C" unicode="" d="M793 1692q0-82-54-136-75-75-227-75t-227 75q-54 54-54 136 0 83 54 137 76 76 227 76t227-76q54-54 54-137zm-281 84q-57 0-88-31-21-21-21-51 0-31 21-52 30-30 88-30t88 30q21 21 21 52 0 30-21 51-31 31-88 31z"/><glyph glyph-name="uniF40D" unicode="" d="M719 1776l158-95q-14-36-40-76.5t-51-64.5q-59-59-147-59-54 0-119 30l-61 31q-49 25-74 25t-46.5-21.5T307 1481l-160 94q29 89 82 139 62 58 144 58 53 0 123-29l59-27q68-30 88-30 50 0 76 90z"/><glyph glyph-name="uniF40E" unicode="" d="M739-182l-45-176q-64-37-135-37-95 0-149 57-43 49-43 107 0 66 41 125Q456-38 522 0h152q-53-34-80-61-39-39-39-80 0-33 23-56 22-22 59-22 48 0 102 37z"/><glyph glyph-name="uniF4C6" unicode="" horiz-adv-x="1351" d="M852 1366h356V-139q0-51-4-88t-25-86.5-59-83.5q-28-25-61.5-41T987-460.5t-65.5-8.5-65.5-2q-51 0-74.5.5t-55 5T662-451v234q30-12 69-12 66 0 94 28 27 27 27 97v641q-141-21-285-21-264 0-372 102Q86 720 86 942v424h356V995q0-100 41-141 43-43 168-43 109 0 201 14v541z"/><glyph glyph-name="uniF4C7" unicode="" horiz-adv-x="1101" d="M662 915h327V-145q0-175-86-254-49-45-111.5-58.5T649-471q-95 0-176 16v232q26-13 64-13 69 0 98 31 27 29 27 113v391q-95-23-197-23-206 0-297 91-82 82-82 260v288h315V649q0-75 35-104 29-25 107-25 71 0 119 15v380z"/><glyph glyph-name="uniF4CC" unicode="" horiz-adv-x="1275" d="M0 1366h397l260-608 228 608h379L649 0H274l191 383zm745 537l207-150-315-278-152 112z"/><glyph glyph-name="uniF4CD" unicode="" horiz-adv-x="1236" d="M135-469l307 594L0 915h381l244-469 237 469h375L502-469H135zm596 1962l207-150-315-278-152 113z"/><glyph glyph-name="dollar.fitted" unicode="" horiz-adv-x="1064" d="M461 1587h205v-225q148-9 309-105L840 995q-113 88-230 88-84 0-123-36-30-26-30-68 0-40 28-68 35-32 95-51l106-37q53-18 80.5-28.5t74.5-38 83-62.5q102-99 102-250 0-189-115-309-43-45-109-80T666 2v-231H461V-8Q342-5 229 41 122 86 31 158l147 274q72-69 141-104 96-47 187-47 86 0 133 47 37 37 37 86 0 48-41 78-27 19-92 40l-121 41q-156 54-225 127-88 91-88 238 0 175 102 289 96 107 250 135v225z"/><glyph glyph-name="Euro.fitted" unicode="" horiz-adv-x="1323" d="M1194 389V47q-155-78-352-78-117 0-232.5 31T410 96q-75 59-130.5 149.5T199 440H39l74 185h61q-3 47 0 102H39l74 184h88q52 220 229 351 180 133 453 133 211 0 372-90l-118-299q-122 77-269 77-122 0-200-45-83-45-111-127h549l-74-184H520q-5-44 2-102h469l-73-185H567q32-74 115-118 78-41 195-41 194 0 317 108z"/><glyph glyph-name="cent.fitted" unicode="" horiz-adv-x="819" d="M455 1352h192v-187q55-3 107-30V840q-69 69-164 69-93 0-154-61-67-67-67-164 0-98 67-162 63-57 154-57 94 0 164 70V240q-57-26-107-29V20H455v179q-174 24-293 143-64 66-100.5 155.5T25 686q0 103 39.5 196T170 1040q112 112 285 138v174z"/><glyph glyph-name="sterling.fitted" unicode="" horiz-adv-x="1277" d="M332 516H76v197h147q-49 114-49 217 0 87 33.5 172T309 1253q143 138 402 138 243 0 368-127 123-123 123-336 0-37-2-51H844q2 16 2 49 0 94-49 143-46 43-113 43-77 0-121-51-49-55-49-141 0-91 51-207h314V516H623q8-56 8-102 0-51-17-113l97-29q136-41 192-41 43 0 66.5 25.5T993 322h221q-2-81-32-155.5T1100 45q-79-74-209-74-88 0-217 41l-78 25Q494 68 414 68q-98 0-125-68H53q12 64 42.5 126.5T164 229q73 77 180 93 12 38 12 86 0 56-24 108z"/><glyph glyph-name="yen.fitted" unicode="" horiz-adv-x="1300" d="M461 674H127v215h205L43 1366h403l205-393 197 393h409L956 889h215V674H821l-12-19V547h362V334H809V0H473v334H127v213h346v108z"/><glyph glyph-name="florin.fitted" unicode="" horiz-adv-x="1265" d="M438 231l88 488H371l32 196h160l43 228q33 174 119 262 108 111 299 111 118 0 219-52l-53-284q-56 45-127 45-60 0-94-37-30-34-49-139l-25-134h199l-37-196H858l-94-526q-57-319-178-443-133-135-389-135-99 0-177 18L74-68q52-18 116-18 98 0 146 45 34 30 57.5 94.5T438 231z"/><glyph glyph-name="uni20B4.fitted" unicode="" horiz-adv-x="1167" d="M268 1020l-137 260q221 117 492 117 204 0 303-72 110-83 110-219 0-98-59-164h139V727H807L672 600h444V387H518q-26-26-26-63 0-45 36-64 40-22 127-22 165 0 308 75l141-241Q982 13 838.5-15T567-43q-213 0-323 68-127 82-127 223 0 77 49 139H47v213h264l135 127H47v215h569q33 33 33 74 0 43-33 69-41 27-106 27-122 0-242-92z"/><glyph glyph-name="uni20B6.fitted" unicode="" horiz-adv-x="1288" d="M217 1366h565q225 0 351-117 122-112 122-313 0-60-7-107t-35-107-78-106q-123-114-340-114H571V387h381V174H571V0H217v174H49v213h168v115H49v246h168v618zm354-287V748h119q103 0 150 43 45 41 45 124 0 74-41 115-49 49-152 49H571z"/><glyph glyph-name="uni20B8.fitted" unicode="" horiz-adv-x="1015" d="M977 778H682V0H328v778H39v281h938V778zm0 369H39v219h938v-219z"/><glyph glyph-name="numbersign.fitted" unicode="" horiz-adv-x="1302" d="M997 612h207l-35-239H961L901 0H627l61 373H514L455 0H184l62 373H37l37 239h207l28 170H102l37 238h207l55 346h271l-58-346h174l56 346h272l-55-346h205l-37-238h-205zm-272 0l27 170H578l-27-170h174z"/><glyph glyph-name="uniF639" unicode="" horiz-adv-x="1277" d="M639 1079q-63 0-109-43-53-45-85.5-150T412 680q0-94 31.5-201T530 324q46-43 109-43t109 43q54 47 86 152.5T866 678q0 97-33.5 205T748 1036q-46 43-109 43zm580-397q0-176-54-320t-149-237Q938 49 839.5 9T639-31 438.5 9 262 125q-95 93-149 237T59 682q0 177 54 321.5T262 1241q78 76 176.5 116t200.5 40 200.5-40 176.5-116q95-93 149-237.5t54-321.5z"/><glyph glyph-name="uniF63A" unicode="" horiz-adv-x="1218" d="M1149 301V0H53l346 362q182 191 281 347 74 114 74 213 0 86-41 131-36 41-101 41-74 0-118-56-45-59-50-168H78q1 123 44.5 219.5T229 1249q148 148 387 148 243 0 385-142 134-134 134-335 0-122-51.5-217T932 514L702 301h447z"/><glyph glyph-name="uniF63B" unicode="" horiz-adv-x="1193" d="M45 467h363q3-85 55-137 51-54 139-54 83 0 139 60 41 46 41 113 0 78-53 120-47 39-131 39-35 0-59-8v240q91-13 145 34 45 40 45 97 0 27-11 55t-26 43q-37 37-100 37t-98-35q-48-45-48-121H117q6 99 43.5 180.5T250 1264q128 133 360 133 217 0 340-121 111-111 111-264 0-95-41-168-40-72-105-105 100-37 162-125 58-85 58-200 0-178-121-299Q868-31 606-31q-239 0-391 142-63 56-111 146T45 467z"/><glyph glyph-name="uniF63C" unicode="" horiz-adv-x="1232" d="M1014 1366V530h166V258h-166V0H686v258H25v227l526 881h463zM365 530h321v557z"/><glyph glyph-name="uniF63D" unicode="" horiz-adv-x="1132" d="M975 1366v-301H502l-25-152q70 11 111 11 230 0 360-136 125-125 125-323 0-207-131-342Q793-31 516-31 250-31 55 92l54 332q83-76 163-111 99-47 205-47 113 0 178 68 54 57 54 139 0 91-66 148-75 67-246 67-138 0-252-57l119 735h711z"/><glyph glyph-name="uniF63E" unicode="" horiz-adv-x="1245" d="M555 1366h403L569 901q95 43 191 43 80 0 162-33t147-98q129-129 129-326 0-215-141-356Q895-31 621-31q-287 0-449 166Q47 264 47 455q0 244 203 510zm59-1116q95 0 158 63 64 64 64 156 0 82-64 143-66 64-158 64-87 0-153-60-68-62-68-141 0-93 60-156 66-69 161-69z"/><glyph glyph-name="uniF63F" unicode="" horiz-adv-x="1257" d="M70 0l622 1065H123v301h1120L461 0H70z"/><glyph glyph-name="uniF640" unicode="" horiz-adv-x="1161" d="M821 719q103-32 176-105 105-102 105-241 0-147-111-258Q845-31 578-31q-264 0-408 144-54 54-83.5 123T57 373q0 66 28.5 133.5T158 618q32 32 79.5 59.5T330 719q-73 28-123 78-92 92-92 217 0 75 30 142.5t82 115.5q64 59 159 92t206 33q109 0 200-34.5t152-96.5q100-100 100-250 0-130-83-213-55-55-140-84zm-237 440q-69 0-113-47-41-44-41-104 0-53 43-99 42-45 109-45 59 0 100 41 47 47 47 105 0 64-47 108-44 41-98 41zm-4-584q-65 0-115-47-49-49-49-112 0-68 47-115 49-49 117-49 67 0 114 47 49 49 49 117 0 66-49 112-50 47-114 47z"/><glyph glyph-name="uniF641" unicode="" horiz-adv-x="1253" d="M694 0H293l387 461q-79-43-182-43-186 0-314 125Q47 678 47 872q0 210 137 353 168 172 449 172 276 0 438-162 65-67 100-155t35-183q0-234-207-502zm-57 1116q-93 0-158-65-67-67-67-156 0-86 65-147 65-62 160-62 91 0 154 57 31 28 51 72t20 84q0 39-18.5 81.5T797 1051q-69 65-160 65z"/><glyph glyph-name="uniF6BA" unicode="" horiz-adv-x="722" d="M102 561v273h519V561H102z"/><glyph glyph-name="uniF6BB" unicode="" horiz-adv-x="1175" d="M143 563v271h889V563H143z"/><glyph glyph-name="uniF6BC" unicode="" horiz-adv-x="1857" d="M143 563v271h1571V563H143z"/><glyph glyph-name="uniF6C3" unicode="" d="M307-487l107 385 307-33-209-377z"/><glyph glyph-name="uniF6C9" unicode="" d="M621 1903l206-150-315-278-152 112z"/><glyph glyph-name="uniF6CA" unicode="" d="M510 1475l-401 301 139 157 262-200 260 200 145-157z"/><glyph glyph-name="uniF6CB" unicode="" d="M743 1481q-73 0-125 55-51 57-51 123 0 63 54 125 53 53 122 53 72 0 123-51 56-56 56-127 0-68-54-125-53-53-125-53zm-464 0q-73 0-125 55-52 58-52 123 0 63 54 125 53 53 123 53 71 0 122-51 56-56 56-127 0-68-54-125-53-53-124-53z"/><glyph glyph-name="uniF6CE" unicode="" d="M512 1475l-315 278 209 150 258-316z"/><glyph glyph-name="uniF6CF" unicode="" d="M449 1903l169-150-280-278-111 112zm354 0l172-150-281-278-112 112z"/><glyph glyph-name="uniF6D0" unicode="" d="M127 1534v201h770v-201H127z"/><glyph glyph-name="uniF6D1" unicode="" d="M702 1833l238-90q-50-135-168-199-95-53-262-53-159 0-258 53-118 64-168 199l238 90q20-65 65-96 44-33 125-33 78 0 125 33 45 31 65 96z"/><glyph glyph-name="uniF6D4" unicode="" d="M670 1384l219-77q-34-124-139-189-91-57-238-57t-238 57q-105 65-139 189l219 77q15-54 47-86 39-41 111-41t111 41q32 32 47 86z"/><glyph glyph-name="uniF6DC" unicode="" horiz-adv-x="673" d="M233 0v1065H39v301h549V0H233z"/><glyph glyph-name="uniF6DE" unicode="" horiz-adv-x="1392" d="M106 408v270h1180V408H106z"/><glyph glyph-name="nbspace" horiz-adv-x="477"/><glyph glyph-name="hyphenminus" horiz-adv-x="722" d="M102 414v272h519V414H102z"/><glyph glyph-name="dotlessi1" horiz-adv-x="546" d="M109 915h327V0H109v915z"/></font>
</defs>
</svg>
