<svg xmlns="http://www.w3.org/2000/svg"><defs><font id="FuturaPT-Book" horiz-adv-x="1024"><font-face font-family="Futura PT Book" font-weight="400" units-per-em="2048" panose-1="2 11 5 2 2 2 4 2 3 3" ascent="1563" descent="-485" x-height="850" cap-height="1366" bbox="-741 -512 2103 1896" underline-thickness="102" underline-position="-204" unicode-range="U+0020-FB02"/><glyph glyph-name="afii10017.var.accented" unicode="А`" horiz-adv-x="1273" d="M1090 0L930 385H348L184 0H16l629 1432L1257 0h-167zM408 528h462l-229 547zm397 1278l143-92-313-239-88 65z"/><glyph glyph-name="afii10022.var.accented" unicode="Е`" horiz-adv-x="987" d="M885 1366v-143H328V817h540V674H328V143h557V0H176v1366h709zm-223 440l143-92-313-239-89 65z"/><glyph glyph-name="afii10026.var.accented" unicode="И`" horiz-adv-x="1454" d="M1126 0v1042L176-61v1427h152V319l950 1104V0h-152zM895 1806l143-92-313-239-88 65z"/><glyph glyph-name="afii10032.var.accented" unicode="О`" horiz-adv-x="1626" d="M813-25q-146 0-277.5 54T309 176 158 401t-56 281q0 150 56 282t151.5 225T536 1335.5t277 53.5 277-53.5 226.5-146.5T1468 964t56-282q0-149-56-281t-151-225-226.5-147T813-25zm0 1270q-151 0-279-75T332 965.5 258 682t74-283.5T534 194t279-75 279 75 202 204.5 74 283.5-74 283.5-202 204.5-279 75zm168 561l143-92-313-239-88 65z"/><glyph glyph-name="afii10037.var.accented" unicode="У`" horiz-adv-x="1163" d="M16 1366h185l426-805 356 805h164L530 0H367l174 381zm734 440l143-92-313-239-88 65z"/><glyph glyph-name="afii10045.var.accented" unicode="Ы`" horiz-adv-x="1454" d="M176 0v1366h152V799h184q42 0 79.5-3t87-12.5 90-25.5 81.5-45.5 69.5-69 46-98.5T983 414q0-193-119.5-303.5T541 0H176zm152 655V143h176q34 0 56.5 1.5t61 7.5 73 23 61.5 44q71 67 71 195 0 147-110 207-29 16-72.5 24t-71 9-86.5 1H328zm798 711h152V0h-152v1366zm-231 440l143-92-313-239-88 65z"/><glyph glyph-name="afii10047.var.accented" unicode="Э`" horiz-adv-x="1320" d="M102 1065v188q197 136 445 136 152 0 279-54t212.5-148.5 133-225.5 47.5-283q0-149-46.5-278T1042 177 832 29 555-25q-246 0-453 134v188q60-63 158-111 140-67 295-67 134 0 249.5 63.5t187.5 183 71 269.5H266v143h791q-15 198-154.5 332.5T557 1245q-147 0-276-57-103-47-179-123zm590 741l144-92-314-239-88 65z"/><glyph glyph-name="afii10048.var.accented" unicode="Ю`" horiz-adv-x="2027" d="M328 797h209q24 168 117.5 302t243 212 329.5 78q149 0 278-52.5t221.5-145T1872 967t53-285q0-200-90.5-362t-250-253.5T1227-25q-149 0-278.5 55T730 178 588 394.5 530 653H328V0H176v1366h152V797zm899 448q-149 0-273-73T758 969.5 686 682t72-287.5T954 192t273-73 273 73 196.5 202.5T1769 682t-72.5 287.5T1500 1172t-273 73zm-45 561l143-92-313-239-88 65z"/><glyph glyph-name="afii10049.var.accented" unicode="Я`" horiz-adv-x="1044" d="M61 0l402 606q-139 14-230 86-118 96-118 279 0 168 94 272 37 42 84 69t97.5 37.5T474 1363t75 3h319V0H717v598h-82L246 0H61zm656 1223H569q-47 0-79.5-3t-77.5-20-76-49q-66-70-66-176 0-121 78-184 73-58 209-58h160v490zm-27 583l144-92-314-239-88 65z"/><glyph glyph-name="afii10023.var.accented" unicode="Ё`" horiz-adv-x="987" d="M885 1366v-143H328V817h540V674H328V143h557V0H176v1366h709zm-289 440l113-75-254-242-70 51zm-420-182q0 43 27.5 70.5T274 1722q47 0 74-30t27-68q0-41-30-70.5t-71-29.5q-38 0-68 26.5t-30 73.5zm510 0q0 38 26.5 68t73.5 30q43 0 71-27.5t28-70.5q0-47-30.5-73.5T786 1524q-41 0-70.5 29.5T686 1624z"/><glyph glyph-name="afii10065.var.accented" unicode="а`" horiz-adv-x="1077" d="M791 729v121h147V0H791v119Q679-25 500-25q-82 0-155.5 29t-132 83.5-92.5 142T86 426q0 106 34 192t92 140.5 131.5 83T500 870q183 0 291-141zm-275 10q-116 0-197-82.5T238 426q0-140 74.5-230T516 106q130 0 206.5 93T799 424q0 79-25.5 141t-67 99-90.5 56-100 19zm150 625l151-70-274-276-92 49z"/><glyph glyph-name="afii10070.var.accented" unicode="е`" horiz-adv-x="985" d="M770 285l123-68q-43-81-105-137Q671-25 506-25q-80 0-152.5 26T220 78.5t-97.5 140T86 420q0 195 112 322.5T498 870q114 0 195-45t126-110q39-56 61-145t19-175H238q1-129 79-209t191-80q100 0 174 62 58 49 88 117zM248 518h500q-19 100-87.5 160.5T498 739q-93 0-163-62.5T248 518zm370 846l152-70-274-276-93 49z"/><glyph glyph-name="afii10074.var.accented" unicode="и`" horiz-adv-x="1007" d="M139 850h148V289l581 626V0H721v567L139-59v909zm492 514l151-70-274-276-92 49z"/><glyph glyph-name="afii10080.var.accented" unicode="о`" horiz-adv-x="1073" d="M537-25q-194 0-322.5 127T86 422q0 194 128 321t323 127 322.5-127T987 422q0-193-128-320T537-25zm0 764q-124 0-211.5-84.5T238 422q0-100 43.5-173.5t110.5-108T537 106q123 0 211 84t88 232q0 149-87 233t-212 84zm127 625l151-70-274-276-92 49z"/><glyph glyph-name="afii10085.var.accented" unicode="у`" horiz-adv-x="942" d="M137-471L408 80 16 850h168l301-608 277 608h164L301-471H137zm461 1835l152-70-275-276-92 49z"/><glyph glyph-name="afii10093.var.accented" unicode="ы`" horiz-adv-x="1150" d="M139 0v850h148V524h151q77 0 142-16t116-68q66-66 66-178 0-118-76-190-34-33-81-49.5T524.5 3 436 0H139zm148 131h137q91 0 131 23 55 37 55 108 0 74-53 107-17 12-42 17.5t-40 6-49 .5H287V131zM864 0v850h148V0H864zM702 1364l152-70-274-276-93 49z"/><glyph glyph-name="afii10095.var.accented" unicode="э`" horiz-adv-x="866" d="M86 684v143q106 43 231 43 216 0 339.5-124.5T780 420q0-194-125.5-319.5T328-25Q206-25 86 23v143q114-60 240-60 118 0 204.5 72.5T629 369H180v131h449q-24 114-108 176.5T324 739q-119 0-238-55zm371 680l151-70-274-276-92 49z"/><glyph glyph-name="afii10096.var.accented" unicode="ю`" horiz-adv-x="1413" d="M287 502h153q19 142 115 241 57 60 140 93.5T877 870q196 0 323-127t127-321-127.5-320.5T877-25q-225 0-351 160-81 101-94 232H287V0H139v850h148V502zm590 237q-124 0-208.5-85T584 422q0-149 86-232.5T877 106q123 0 211 84t88 232-87.5 232.5T877 739zm-43 625l151-70-274-276-93 49z"/><glyph glyph-name="afii10097.var.accented" unicode="я`" horiz-adv-x="835" d="M41 0l264 350q-11 0-33.5 4t-63 21-67.5 43q-67 63-67 170 0 120 76 190 35 33 81.5 49.5T311 847t88 3h297V0H549v342h-90L217 0H41zm508 465v254H412q-93 0-133-23-54-35-54-104t54-103q8-5 17-9t16.5-6.5 18-4T347 467t18-1.5 15.5-.5H549zm-4 899l151-70-274-276-92 49z"/><glyph glyph-name="afii10071.var.accented" unicode="ё`" horiz-adv-x="985" d="M770 285l123-68q-43-81-105-137Q671-25 506-25 322-25 211 86 86 209 86 420q0 219 135 346 110 104 277 104 115 0 196-44.5T819 715q39-56 61-145t19-175H238q-2-127 86-215 74-74 184-74 103 0 174 62 58 49 88 117zM248 518h500q-14 84-76 150-71 71-174 71-104 0-174-75-58-58-76-146zm-88 608q0 41 30.5 72t71.5 31 72-31 31-72-31-71.5-72-30.5-71.5 30.5T160 1126zm471 0q0 41 30.5 72t71.5 31 72-31 31-72-31-71.5-72-30.5-71.5 30.5T631 1126zm-35 238l125-55-275-277-65 35z"/><glyph glyph-name="fi" unicode="fi" horiz-adv-x="942" d="M500 715H291V0H143v715H61v135h82v319q0 78 10 130t40 94q86 125 280 125 201 0 281-125 49-79 49-224v-34H655v34q0 91-28 134-44 65-154 65t-154-65q-28-40-28-134V850h209V715zm155 135h148V0H655v850z"/><glyph glyph-name="fl" unicode="fl" horiz-adv-x="942" d="M500 715H291V0H143v715H61v135h82v319q0 78 10 130t40 94q86 125 280 125 201 0 281-125 49-79 49-224V0H655v1169q0 91-28 134-44 65-154 65t-154-65q-28-40-28-134V850h209V715z"/><glyph glyph-name=".notdef" horiz-adv-x="477"/><glyph glyph-name=".null" horiz-adv-x="0"/><glyph glyph-name="nonmarkingreturn" horiz-adv-x="682"/><glyph glyph-name="space" horiz-adv-x="477"/><glyph glyph-name="exclam" unicode="!" horiz-adv-x="573" d="M360 276H213v1090h147V276zM184 82q0 41 31 71.5t72 30.5 71.5-30.5T389 82t-30.5-71.5T287-20t-72 30.5T184 82z"/><glyph glyph-name="quotedbl" unicode="&quot;" horiz-adv-x="675" d="M274 1366l-26-549H137l-26 549h163zm291 0l-26-549H428l-27 549h164z"/><glyph glyph-name="numbersign" unicode="#" horiz-adv-x="1228" d="M807 0H657l66 424H444L379 0H229l66 424H70l20 135h225l41 272H131l21 136h225l61 399h150l-62-399h279l61 399h150l-62-399h226l-21-136H934l-41-272h225l-20-135H872zm-64 559l41 272H506l-41-272h278z"/><glyph glyph-name="dollar" unicode="$" horiz-adv-x="1163" d="M956 1176l-120-80q-29 60-78 102-39 34-88 43V786q162-63 239-143 97-100 97-248 0-94-37.5-180T853 65 670-16v-191H547v182Q394-20 285 86q-46 46-79.5 111.5T158 328l147 41q15-107 82-174 69-72 160-76v561q-151 63-225 133-52 49-73.5 102T227 1036q0 143 92 239.5T547 1384v179h123v-179q87-9 155-57 82-57 131-151zM670 623V127q83 22 131.5 98T850 389q0 96-66 162-45 45-114 72zM547 842v399q-80-13-124-70t-44-133q0-72 51-123 45-45 117-73z"/><glyph glyph-name="percent" unicode="%" horiz-adv-x="1454" d="M365 1378q125 0 211-86t86-211-86-211-211-86-211 86-86 211 86 211 211 86zm0-481q74 0 124 54t50 130-50 130.5-124 54.5q-72 0-123.5-54.5T190 1081t51.5-130T365 897zM289 20l796 1373 80-45L369-27zm801 560q124 0 210-86t86-211-86-211-210-86-210.5 86T793 283t86.5 211 210.5 86zm0-482q74 0 124 54.5t50 130.5-50 130-124 54q-72 0-123.5-54T915 283t51.5-130.5T1090 98z"/><glyph glyph-name="ampersand" unicode="&amp;" horiz-adv-x="1302" d="M1116 592l111-92q-70-97-174-203L1282 0h-188L946 190Q851 95 734.5 35T506-25Q338-25 224.5 83.5T111 354q0 161 122 283 72 72 230 170-72 93-103.5 159.5T328 1100q0 116 79 202.5t218 86.5q135 0 211.5-82t76.5-193q0-138-127-248-14-12-37.5-29.5T676 778l285-366q100 106 155 180zM854 303L551 694q-112-68-193-141-26-24-43.5-44t-35-62-17.5-91q0-102 68.5-171.5T504 115q154 0 350 188zM526 973l62-84 90 69q92 72 92 158 0 68-44 104.5T623 1257q-64 0-108-42.5T471 1108q0-28 9-54.5t18.5-41.5 27.5-39z"/><glyph glyph-name="quotesingle" unicode="'" horiz-adv-x="385" d="M274 1366l-26-549H137l-26 549h163z"/><glyph glyph-name="parenleft" unicode="(" horiz-adv-x="602" d="M342 1516l129-60q-66-171-104-354-52-250-52-516 0-264 50-500 38-186 106-375l-129-59Q245-93 207 115q-43 225-43 475 0 283 57 532 46 195 121 394z"/><glyph glyph-name="parenright" unicode=")" horiz-adv-x="602" d="M131 1456l129 60q75-199 121-394 57-249 57-532 0-250-43-475-38-208-135-463l-129 59Q201-94 238 86q49 231 49 500 0 271-51 516-37 178-105 354z"/><glyph glyph-name="asterisk" unicode="*" horiz-adv-x="1163" d="M285 1327l237-88-10 254h139l-10-254 238 88 43-129-246-70 158-198-111-80-141 211-142-211-110 80 157 198-245 70z"/><glyph glyph-name="plus" unicode="+" d="M68 614v136h370v352h148V750h370V614H586V262H438v352H68z"/><glyph glyph-name="comma" unicode="," horiz-adv-x="561" d="M49-272l168 473 135-49-207-463z"/><glyph glyph-name="hyphen" unicode="-" horiz-adv-x="655" d="M102 360v152h451V360H102z"/><glyph glyph-name="period" unicode="." horiz-adv-x="466" d="M131 82q0 41 30.5 71.5T233 184t72-30.5T336 82t-31-71.5T233-20t-71.5 30.5T131 82z"/><glyph glyph-name="slash" unicode="/" horiz-adv-x="1212" d="M0-348l1053 1902 118-61L119-406z"/><glyph glyph-name="zero" unicode="0" horiz-adv-x="1163" d="M582-25q-91 0-184.5 49.5T231 180Q94 379 94 682t137 502q73 106 166.5 155.5T582 1389t184-49.5T932 1184q137-199 137-502T932 180Q859 74 766 24.5T582-25zm0 1274q-60 0-123-35.5T346 1098Q246 940 246 682t100-416q50-80 113-115.5T582 115t122.5 35.5T817 266q101 160 101 416t-101 416q-50 80-112.5 115.5T582 1249z"/><glyph glyph-name="one" unicode="1" horiz-adv-x="1163" d="M545 0v1223H315l80 143h301V0H545z"/><glyph glyph-name="two" unicode="2" horiz-adv-x="1163" d="M985 0H102l498 575q123 144 160 199 76 110 76 209 0 116-76 191t-197 75q-148 0-227-121-42-64-45-161H139q8 172 103 282 121 140 323 140 182 0 302-115.5T987 981q0-72-24-140t-84-153q-50-70-187-227L408 139h577V0z"/><glyph glyph-name="three" unicode="3" horiz-adv-x="1163" d="M328 1028H176q6 109 64 201 102 160 317 160 93 0 168-31t121.5-83.5 71-117.5 24.5-137q0-88-40.5-171.5T766 717q19-7 39-18t50-38 52.5-61 39-90T963 387q0-187-120-299.5T543-25q-76 0-145.5 21t-135 76.5T162 211q-28 69-31 143h152q10-84 49-137 33-49 89-75.5T543 115q113 0 190.5 80.5T811 391q0 69-32 133.5T676 621q-67 31-156 28v135q89-7 156 29 115 62 115 203 0 100-58 166.5T557 1249q-115 0-176-78-47-61-53-143z"/><glyph glyph-name="four" unicode="4" horiz-adv-x="1163" d="M893 1442V397h168V258H893V0H741v258H41zM309 397h432v604z"/><glyph glyph-name="five" unicode="5" horiz-adv-x="1163" d="M981 1366v-139H543l-88-295q36 8 86 8 202 0 326-135t124-338q0-148-68.5-261.5t-181-172T494-25Q318-25 188 82q-72 62-118 139l120 86q31-60 93-110 99-82 221-82 143 0 239.5 102T840 465q0 147-94.5 241.5T504 801q-130 0-264-94l198 659h543z"/><glyph glyph-name="six" unicode="6" horiz-adv-x="1163" d="M688 1399l115-86-314-436q58 18 121 18 194 0 318.5-129T1053 444q0-204-132.5-336.5T584-25q-116 0-209 42T226 127.5t-85.5 149T111 440q0 157 112 314zM582 115q140 0 229.5 93T901 440q0 137-91 226.5T580 756q-138 0-228-90.5T262 440q0-138 89.5-231.5T582 115z"/><glyph glyph-name="seven" unicode="7" horiz-adv-x="1163" d="M106 47l777 1180H135v139h1004L225-33z"/><glyph glyph-name="eight" unicode="8" horiz-adv-x="1163" d="M793 711q102-45 154-132.5T999 377q0-81-26.5-153t-77-128T764 7.5 582-25Q383-25 273.5 91T164 377q0 113 52.5 201T371 711q-81 47-123.5 125T205 1010q0 74 25 141.5t71 121 119 85 162 31.5q118 0 205.5-55t129-139.5T958 1010q0-97-42-174.5T793 711zm-211 61q100 0 166.5 67.5T815 1008q0 109-68 175t-165 66-165.5-66-68.5-175q0-101 67-168.5T582 772zm0-657q118 0 192 74.5T848 381q0 115-74.5 187.5T582 641t-192-72.5T315 381q0-117 74.5-191.5T582 115z"/><glyph glyph-name="nine" unicode="9" horiz-adv-x="1163" d="M475-33L360 51l314 436q-59-18-121-18-194 0-318 129T111 920q0 204 132.5 336.5T580 1389q116 0 209-42t149-110.5 85.5-149T1053 924q0-158-113-314zm107 1282q-140 0-230-93t-90-232q0-137 91.5-226.5T584 608q138 0 227.5 90.5T901 924q0 139-89 232t-230 93z"/><glyph glyph-name="colon" unicode=":" horiz-adv-x="466" d="M131 768q0 41 30.5 71.5T233 870t72-30.5 31-71.5-31-71.5-72-30.5-71.5 30.5T131 768zm0-690q0 41 30.5 71.5T233 180t72-30.5T336 78 305 6t-72-31-71.5 31T131 78z"/><glyph glyph-name="semicolon" unicode=";" horiz-adv-x="561" d="M160 768q0 41 30.5 71.5T262 870t72-30.5 31-71.5-31-71.5-72-30.5-71.5 30.5T160 768zM49-272l168 473 135-49-207-463z"/><glyph glyph-name="less" unicode="&lt;" d="M225 676l731-332V197L68 612v127l888 416v-147z"/><glyph glyph-name="equal" unicode="=" d="M68 786v136h888V786H68zm0-315v135h888V471H68z"/><glyph glyph-name="greater" unicode="&gt;" d="M799 676L68 1008v147l888-416V612L68 197v147z"/><glyph glyph-name="question" unicode="?" horiz-adv-x="892" d="M592 592h147q0-145-84-232-76-81-211-81-132 0-213 81t-81 211q0 176 172 254 42 19 103 37t69 21q131 47 131 180 0 94-54 143-49 43-125 43-83 0-129-43-53-50-53-137 0-45 12-86H125q-8 39-8 90 0 138 78 221 88 95 249 95 153 0 242-89 90-90 90-241 0-122-69-201-56-63-158-102-15-5-45.5-14T448 724t-47-19q-100-45-100-144 0-65 41-106 37-37 100-37 64 0 101 37 23 23 36 61t13 76zM344 78q0 41 30.5 71.5T446 180t72-30.5T549 78 518 6t-72-31-71.5 31T344 78z"/><glyph glyph-name="at" unicode="@" horiz-adv-x="1501" d="M983 874l27 132h106q-37-158-64-310.5T1020 496v-17q6-94 76-94 81 0 156 110.5t75 280.5q0 150-74.5 268T1054 1224t-274 62q-167 0-307-81T252.5 983.5 172 676q0-82 19.5-162.5T258 352t116.5-142 179-99.5T799 72q227 0 428 94l30-94q-205-99-460-99-210 0-376 89T161.5 312 68 678q0 146 55.5 276.5t149.5 225T499 1329t279 55q104 0 201-27.5t177.5-80.5 141-126 94-168.5T1425 778q0-205-102.5-344T1092 295q-63 0-104 37.5T942 432q-11-17-27-36t-47.5-46.5-79.5-45T686 287q-129 0-208 94.5T399 616q0 110 44.5 204.5t128 153T758 1032q88 0 144.5-44.5T983 874zM709 397q70 0 124.5 47T916 565t28 158q0 100-51 149.5T768 922q-105 0-177.5-91T518 621q0-105 57-164.5T709 397z"/><glyph glyph-name="A" unicode="A" horiz-adv-x="1273" d="M1090 0L930 385H348L184 0H16l629 1432L1257 0h-167zM408 528h462l-229 547z"/><glyph glyph-name="B" unicode="B" horiz-adv-x="1085" d="M176 1366h246q206 0 313-86 47-36 85-105t38-178q0-177-135-268 68-17 120-54.5t81.5-86.5 44-100T983 385q0-93-39.5-171T844 90q-39-31-82-50.5t-89.5-27-79-10T516 0H176v1366zm152-143V766h114q31 0 59.5 3t69 16.5 69.5 36 50 67T711 993q0 46-13 83.5t-32 61-46.5 40.5-51 25.5-51.5 13-42.5 5.5-28.5 1H328zm0-592V143h174q79 0 136.5 11.5T741 201q41 30 65.5 79T831 389q0 74-34 124.5T715 590q-72 41-232 41H328z"/><glyph glyph-name="C" unicode="C" horiz-adv-x="1323" d="M1221 1253v-188q-81 81-179 127-116 53-235 53-154 0-280.5-76T329 962.5 258 676q0-107 33.5-199.5t88.5-157T507 209t149-68 153-22q131 0 254 63 86 43 158 115V109Q1034-25 809-25q-200 0-362 93T193.5 322 102 678q0 151 54.5 283t149 226T533 1335t284 54q226 0 404-136z"/><glyph glyph-name="D" unicode="D" horiz-adv-x="1294" d="M176 0v1366h279q62 0 114.5-5t121.5-20 137.5-49 129.5-86q104-86 169-218.5t65-305.5q0-318-240-524-98-83-210-120.5T453 0H176zm152 1223V143h133q244 0 391 123 184 155 184 416 0 246-157.5 393.5T461 1223H328z"/><glyph glyph-name="E" unicode="E" horiz-adv-x="987" d="M885 1366v-143H328V817h540V674H328V143h557V0H176v1366h709z"/><glyph glyph-name="F" unicode="F" horiz-adv-x="888" d="M799 1366v-143H328V819h454V676H328V0H176v1366h623z"/><glyph glyph-name="G" unicode="G" horiz-adv-x="1552" d="M881 543v143h569v-33q0-117-34-231.5T1319 221q-18-25-38.5-47.5t-68-62-99.5-67T980.5-4 811-25q-200 0-362.5 93.5T194 324t-92 358 92.5 358 256 255.5T815 1389q241 0 418-136 91-70 158-161l-113-103q-59 84-129 141-143 115-332 115-162 0-290.5-75T328 966.5 258 680q0-108 33-201t88-158 127-111.5T656 141t157-22q135 0 247 62.5T1231 348q50 86 55 195H881z"/><glyph glyph-name="H" unicode="H" horiz-adv-x="1355" d="M328 1366V811h700v555h152V0h-152v668H328V0H176v1366h152z"/><glyph glyph-name="I" unicode="I" horiz-adv-x="503" d="M176 1366h152V0H176v1366z"/><glyph glyph-name="J" unicode="J" horiz-adv-x="626" d="M299 1366h152V383q0-73-3-117t-23-104.5T367 61q-79-86-217-86Q-6-25-94 76l84 119q70-76 155-76 64 0 103 39 24 24 36 64.5t13.5 70.5 1.5 86v987z"/><glyph glyph-name="K" unicode="K" horiz-adv-x="1163" d="M328 1366V780l581 586h205L475 729 1135 0H926L367 627l-39-39V0H176v1366h152z"/><glyph glyph-name="L" unicode="L" horiz-adv-x="733" d="M176 1366h152V143h377V0H176v1366z"/><glyph glyph-name="M" unicode="M" horiz-adv-x="1767" d="M285 0H129l227 1442L881 289l534 1155L1628 0h-155l-130 950L879-57 420 950z"/><glyph glyph-name="N" unicode="N" horiz-adv-x="1568" d="M328 0H176v1423L1241 307v1059h152V-61L328 1055V0z"/><glyph glyph-name="O" unicode="O" horiz-adv-x="1626" d="M813-25q-146 0-277.5 54T309 176 158 401t-56 281q0 150 56 282t151.5 225T536 1335.5t277 53.5 277-53.5 226.5-146.5T1468 964t56-282q0-149-56-281t-151-225-226.5-147T813-25zm0 1270q-151 0-279-75T332 965.5 258 682t74-283.5T534 194t279-75 279 75 202 204.5 74 283.5-74 283.5-202 204.5-279 75z"/><glyph glyph-name="P" unicode="P" horiz-adv-x="933" d="M176 1366h248q115 0 197.5-20t146.5-76q125-108 125-293 0-60-14.5-114t-48-104-82.5-86-123-57.5T461 594H328V0H176v1366zm152-143V737h125q136 0 212 65t76 183q0 62-22.5 108t-54.5 70-76.5 38.5-78 18-69.5 3.5H328z"/><glyph glyph-name="Q" unicode="Q" horiz-adv-x="1626" d="M1335-14l-110 114Q1042-25 813-25q-146 0-277 54T309.5 176 158 401t-56 281q0 150 56 282t151.5 225T536 1335.5t277 53.5q145 0 276-53.5t226.5-146.5 152-225 56.5-282q0-286-193-489l201-207h-197zM983 549l240-246q145 156 145 379 0 154-74.5 283.5T1091 1170t-278 75q-151 0-279-75T332 965.5 258 682t74-283.5T534 194t279-75q167 0 303 90L786 549h197z"/><glyph glyph-name="R" unicode="R" horiz-adv-x="1028" d="M176 1366h219q221 0 332-76 65-43 107.5-121.5T877 987q0-157-95-262T532 610L967 0H782L367 598h-39V0H176v1366zm152-143V733h96q142 0 221.5 65.5T725 983q0 139-109 201-68 39-196 39h-92z"/><glyph glyph-name="S" unicode="S" horiz-adv-x="1060" d="M907 1176l-121-80q-31 63-79 102-63 47-154 47-102 0-165.5-58T324 1034q0-39 11.5-66t39.5-53q19-19 46.5-36.5t43.5-25 53-24.5l131-57q146-64 211-129 98-98 98-248 0-187-122.5-303.5T526-25Q342-25 229 86q-94 91-127 242l148 41q14-103 82-174 76-76 196-76 132 0 203.5 79.5T803 389q0 98-68 160-18 17-46 34.5t-49.5 28T571 643l-122 57q-3 1-20 9t-23 11l-22 11-24 13-22.5 14-25 16.5-23 17.5-23.5 21q-47 45-70.5 97.5T172 1036q0 157 108 255t275 98q125 0 219-62 83-56 133-151z"/><glyph glyph-name="T" unicode="T" horiz-adv-x="872" d="M844 1223H512V0H360v1223H29v143h815v-143z"/><glyph glyph-name="U" unicode="U" horiz-adv-x="1323" d="M328 1366V528q0-59 2-90t11-81 32.5-88.5T436 197q41-35 104.5-56.5T662 119t121 21.5T887 197q39 33 62.5 71.5T982 357t11 81 2 90v838h152V487q0-100-17.5-178.5T1061 160Q998 74 894 24.5T662-25 429.5 24.5 262 160q-51 70-68.5 148.5T176 487v879h152z"/><glyph glyph-name="V" unicode="V" horiz-adv-x="1138" d="M16 1366h168L569 324l385 1042h168L569-82z"/><glyph glyph-name="W" unicode="W" horiz-adv-x="1961" d="M16 1366h168L545 342l428 1094 405-1094 400 1024h168L1372-72 971 1022 541-72z"/><glyph glyph-name="X" unicode="X" horiz-adv-x="1032" d="M29 0l403 707-366 659h172l282-514 291 514h172L608 707 1004 0H831L518 561 201 0H29z"/><glyph glyph-name="Y" unicode="Y" horiz-adv-x="1085" d="M465 0v588L16 1366h177l348-610 352 610h176L616 588V0H465z"/><glyph glyph-name="Z" unicode="Z" horiz-adv-x="1097" d="M1049 1366L303 143h725V0H49l746 1223H145v143h904z"/><glyph glyph-name="bracketleft" unicode="[" horiz-adv-x="593" d="M508 1358H311V-213h197v-135H164v1841h344v-135z"/><glyph glyph-name="backslash" unicode="\" horiz-adv-x="1222" d="M1223-348l-119-58L41 1493l119 61z"/><glyph glyph-name="bracketright" unicode="]" horiz-adv-x="593" d="M86-213h197v1571H86v135h344V-348H86v135z"/><glyph glyph-name="asciicircum" unicode="^" d="M512 1253L213 748H53l363 618h192l363-618H811z"/><glyph glyph-name="underscore" unicode="_" d="M0-270v131h1024v-131H0z"/><glyph glyph-name="grave" unicode="`" d="M510 1018l-277 276 152 70 215-297z"/><glyph glyph-name="a" unicode="a" horiz-adv-x="1077" d="M791 729v121h147V0H791v119Q679-25 500-25q-82 0-155.5 29t-132 83.5-92.5 142T86 426q0 106 34 192t92 140.5 131.5 83T500 870q183 0 291-141zm-275 10q-116 0-197-82.5T238 426q0-140 74.5-230T516 106q130 0 206.5 93T799 424q0 79-25.5 141t-67 99-90.5 56-100 19z"/><glyph glyph-name="b" unicode="b" horiz-adv-x="1077" d="M287 119V0H139v1493h148V731q111 139 291 139 128 0 224-65.5T944.5 638 991 420q0-118-47-218.5T802.5 38 584-25q-186 0-297 144zm276-13q125 0 201 91t76 223q0 148-84 233.5T561 739t-196.5-86T279 422q0-134 78.5-225T563 106z"/><glyph glyph-name="c" unicode="c" horiz-adv-x="897" d="M805 788V612q-53 67-126 97t-140 30q-126 0-213.5-84.5T238 422q0-147 88.5-231.5T537 106q71 0 145 33.5T811 240V63Q692-25 541-25q-198 0-326.5 126.5T86 420q0 195 129 322.5T541 870q148 0 264-82z"/><glyph glyph-name="d" unicode="d" horiz-adv-x="1077" d="M791 729v764h147V0H791v119Q679-25 500-25q-82 0-155.5 29t-132 83.5-92.5 142T86 426q0 106 34 192t92 140.5 131.5 83T500 870q183 0 291-141zm-275 10q-116 0-197-82.5T238 426q0-140 74.5-230T516 106q130 0 206.5 93T799 424q0 79-25.5 141t-67 99-90.5 56-100 19z"/><glyph glyph-name="e" unicode="e" horiz-adv-x="985" d="M770 285l123-68q-43-81-105-137Q671-25 506-25q-80 0-152.5 26T220 78.5t-97.5 140T86 420q0 195 112 322.5T498 870q114 0 195-45t126-110q39-56 61-145t19-175H238q1-129 79-209t191-80q100 0 174 62 58 49 88 117zM248 518h500q-19 100-87.5 160.5T498 739q-93 0-163-62.5T248 518z"/><glyph glyph-name="f" unicode="f" horiz-adv-x="491" d="M500 715H291V0H143v715H61v135h82v371q0 77 15.5 137t66.5 102q66 56 170 56 54 0 105-19v-143q-47 18-97 18-66 0-94-45-18-31-18-123V850h209V715z"/><glyph glyph-name="g" unicode="g" horiz-adv-x="1077" d="M791 729v121h147V20q0-66-2.5-106.5t-22-108T856-313q-51-70-139-114t-201-44q-188 0-303 115Q102-245 102-82h146q0-104 65-176 74-82 205-82 154 0 225 119 48 78 48 217v123Q679-25 500-25 324-25 209 90 86 213 86 426q0 207 123 330 55 54 130.5 84T500 870q182 0 291-141zm-275 10q-112 0-192-80-86-88-86-233 0-161 96-250 77-70 182-70 114 0 186 72 44 42 70.5 107.5T799 424t-24.5 137T709 664q-75 75-193 75z"/><glyph glyph-name="h" unicode="h" horiz-adv-x="962" d="M139 0v1493h148V752q91 118 243 118 77 0 141.5-30T774 754q30-44 39.5-96t9.5-132V0H676v522q0 106-39 156-48 61-139 61-95 0-150-65-61-73-61-230V0H139z"/><glyph glyph-name="i" unicode="i" horiz-adv-x="425" d="M139 850h148V0H139v850zm-30 321q0 43 30.5 74t73.5 31 73.5-31 30.5-74-30.5-73.5T213 1067t-73.5 30.5T109 1171z"/><glyph glyph-name="j" unicode="j" horiz-adv-x="425" d="M139 850h148V-471H139V850zm-30 321q0 43 30.5 74t73.5 31 73.5-31 30.5-74-30.5-73.5T213 1067t-73.5 30.5T109 1171z"/><glyph glyph-name="k" unicode="k" horiz-adv-x="864" d="M139 1493h148V535l311 315h193L426 485 856 0H664L324 387l-37-37V0H139v1493z"/><glyph glyph-name="l" unicode="l" horiz-adv-x="425" d="M139 1493h148V0H139v1493z"/><glyph glyph-name="m" unicode="m" horiz-adv-x="1402" d="M139 0v850h148v-90q74 110 211 110 155 0 231-137 87 137 256 137 277 0 277-331V0h-148v516q0 44-4.5 76.5T1091 662t-46.5 57-81.5 20q-189 0-189-266V0H627v504q0 21-.5 32.5t-3 39.5-8 46-16.5 42.5-27 39-41.5 25T473 739q-186 0-186-276V0H139z"/><glyph glyph-name="n" unicode="n" horiz-adv-x="962" d="M139 0v850h148v-98q91 118 243 118 77 0 141.5-30T774 754q30-44 39.5-96t9.5-132V0H676v522q0 106-39 156-48 61-139 61-95 0-150-65-61-73-61-230V0H139z"/><glyph glyph-name="o" unicode="o" horiz-adv-x="1073" d="M537-25q-194 0-322.5 127T86 422q0 194 128 321t323 127 322.5-127T987 422q0-193-128-320T537-25zm0 764q-124 0-211.5-84.5T238 422q0-100 43.5-173.5t110.5-108T537 106q123 0 211 84t88 232q0 149-87 233t-212 84z"/><glyph glyph-name="p" unicode="p" horiz-adv-x="1077" d="M287 119v-590H139V850h148V731q111 139 291 139 128 0 224-65.5T944.5 638 991 420q0-118-47-218.5T802.5 38 584-25q-186 0-297 144zm276-13q125 0 201 91t76 223q0 148-84 233.5T561 739t-196.5-86T279 422q0-134 78.5-225T563 106z"/><glyph glyph-name="q" unicode="q" horiz-adv-x="1077" d="M791 729v121h147V-471H791v590Q679-25 500-25q-82 0-155.5 29t-132 83.5-92.5 142T86 426q0 106 34 192t92 140.5 131.5 83T500 870q183 0 291-141zm-275 10q-116 0-197-82.5T238 426q0-140 74.5-230T516 106q130 0 206.5 93T799 424q0 79-25.5 141t-67 99-90.5 56-100 19z"/><glyph glyph-name="r" unicode="r" horiz-adv-x="606" d="M139 0v850h148v-92q8 13 20.5 28t36.5 36 59.5 34.5T479 870q61 0 131-34l-69-134q-42 29-86 29-77 0-119-53-49-65-49-229V0H139z"/><glyph glyph-name="s" unicode="s" horiz-adv-x="720" d="M610 717l-121-64q-16 38-47 62t-71 24q-43 0-73-24.5T268 643q0-42 28-64t110-57q160-66 212-131 46-56 46-137 0-130-83-204.5T371-25q-18 0-38 2T272.5-9t-74 33-69 65T74 193l127 53q7-21 19-41.5t32.5-44.5 52-39 68.5-15q67 0 103 41.5t36 94.5q0 29-9 50t-31 38-40.5 26.5T375 383q-86 38-133 65t-74 60q-39 48-39 125 0 110 69 173.5T377 870q161 0 233-153z"/><glyph glyph-name="t" unicode="t" horiz-adv-x="438" d="M438 715H291V0H143v715H53v135h90v307h148V850h147V715z"/><glyph glyph-name="u" unicode="u" horiz-adv-x="954" d="M287 850V354q0-41 1.5-64t11-58 28.5-60q52-66 149-66 98 0 150 66 19 25 28.5 60t11 58 1.5 64v496h147V338q0-88-15.5-146.5T737 82Q635-25 477-25T217 82q-47 51-62.5 109.5T139 338v512h148z"/><glyph glyph-name="v" unicode="v" horiz-adv-x="868" d="M16 850h164l254-574 254 574h164L434-55z"/><glyph glyph-name="w" unicode="w" horiz-adv-x="1396" d="M16 850h164l252-578 266 643 265-643 254 578h163L958-59 696 575 434-59z"/><glyph glyph-name="x" unicode="x" horiz-adv-x="929" d="M16 0l363 455L70 850h180l219-289 223 289h180L561 453 913 0H733L465 346 197 0H16z"/><glyph glyph-name="y" unicode="y" horiz-adv-x="942" d="M137-471L408 80 16 850h168l301-608 277 608h164L301-471H137z"/><glyph glyph-name="z" unicode="z" horiz-adv-x="942" d="M926 850L311 135h590V0H16l615 715H135v135h791z"/><glyph glyph-name="braceleft" unicode="{" horiz-adv-x="1026" d="M563 1190V805q0-98-26-146-31-55-99-86 68-31 99-86 26-48 26-145V-45q0-32 1.5-51t10.5-46 27-44q39-37 127-37h31v-125h-55q-130 0-191 41-60 39-79 99.5T416-70v402q0 78-27 125-33 53-90 57v119q57 4 90 57 27 46 27 125v399q0 77 19 138t79 100q61 41 191 41h55v-125h-31q-88 0-127-37-18-17-27-44t-10.5-46-1.5-51z"/><glyph glyph-name="bar" unicode="|" d="M438-512v2048h148V-512H438z"/><glyph glyph-name="braceright" unicode="}" horiz-adv-x="1026" d="M463 805v385q0 32-1.5 51t-10.5 46-27 44q-39 37-127 37h-31v125h56q129 0 190-41 60-39 79-100t19-138V815q0-79 27-125 33-53 90-57V514q-57-4-90-57-27-47-27-125V-70q0-77-19-137.5T512-307q-61-41-190-41h-56v125h31q88 0 127 37 18 17 27 44t10.5 46 1.5 51v387q0 97 26 145 31 55 99 86-68 31-99 86-26 48-26 146z"/><glyph glyph-name="asciitilde" unicode="~" d="M913 739l91-53q-40-89-103-149-80-80-196-80-15 0-30.5 2t-27 4-29.5 7.5-26 8-29 11.5-25.5 11-28 13-26.5 12q-57 27-82 37.5T345 583t-56 9q-60 0-107-41-39-34-71-107l-91 54q48 101 99 159 69 78 178 78 53 0 105-17t126-52q2-1 22.5-11t25.5-12 23.5-10.5 26-11 23.5-8 26-7.5 23.5-4 24.5-2q76 0 125 49 39 36 65 90z"/><glyph glyph-name="uni00A0" horiz-adv-x="477"/><glyph glyph-name="exclamdown" unicode="¡" horiz-adv-x="573" d="M213 618h147V-471H213V618zm176 195q0-41-30.5-71.5T287 711t-72 30.5-31 71.5 31 71.5 72 30.5 71.5-30.5T389 813z"/><glyph glyph-name="cent" unicode="¢" horiz-adv-x="1163" d="M705 1341v-198q118-15 215-80V887q-93 111-215 125V385q125 15 221 129V338q-97-72-221-86V29H582v227q-154 23-260 125-121 117-121 313 0 197 127 324 101 101 254 121v202h123zM582 387v619q-82-10-142-70-88-88-88-240 0-145 90-235 57-57 140-74z"/><glyph glyph-name="sterling" unicode="£" horiz-adv-x="1163" d="M1020 938H870v20q0 145-73 218-65 65-174 65-107 0-170-63-34-32-55-80t-21-101q0-29 4.5-56.5t19-64 21-52T454 759t31-61l29-57h258V526H565q23-62 23-125 0-98-60-192l121-45q108-43 144-43 60 0 108 45 43 43 64 96l125-74q-36-85-101-139-84-72-182-72-84 0-176 37l-80 31Q449 84 397 84q-61 0-108-37-23-18-40.5-40.5T227-27L111 53q50 76 96 113 73 61 168 61 57 85 57 176 0 64-26 123H176v115h176l-41 76q-46 84-68 147t-22 137q0 76 27.5 148.5T330 1276q108 108 295 108 170 0 272-102 54-53 88.5-138.5T1020 956v-18z"/><glyph glyph-name="currency" unicode="¤" horiz-adv-x="1200" d="M109 1303l194-193q121 104 297 104t297-104l195 193 82-82-195-195q104-121 104-291T979 444l192-192-81-82-193 190Q776 256 600 256T303 360L111 170l-82 82 192 192Q117 565 117 735t104 291L27 1221zm491-916q148 0 246 98t98 250-98 250-246 98-246-98-98-250 98-250 246-98z"/><glyph glyph-name="yen" unicode="¥" horiz-adv-x="1163" d="M1061 786H772L668 606h393V492H655V0H504v492H104v114h388L387 786H104v115h218L53 1366h178l349-610 352 610h178L838 901h223V786z"/><glyph glyph-name="brokenbar" unicode="¦" d="M438 799v737h148V799H438zm0-1311v737h148v-737H438z"/><glyph glyph-name="section" unicode="§" horiz-adv-x="1163" d="M950 1106H803v10q0 128-68 193-51 49-133 49-92 0-153-58-60-54-60-135 0-74 53-127 49-49 179-98 6-2 33.5-12t38-14.5 34.5-14 38.5-17.5 34-19 35.5-23.5 31-26.5q90-87 90-227 0-122-57-203-24-34-60.5-65.5t-55.5-43-33-18.5q85-42 131-113 43-65 43-151 0-145-95-240-100-100-264-100-167 0-262 102-26 28-44 61.5t-26.5 69T220-56t-5.5 54.5T213 31h147q0-50 17.5-104t46.5-85q48-55 145-55 93 0 146 53 57 54 57 146 0 73-49 125-25 27-62.5 45T537 207q-75 29-102.5 40.5T364 285t-71 57q-86 90-86 238 0 100 55 186 58 87 152 125-67 37-113 92-59 72-59 166 0 155 104 252 99 92 254 92 147 0 242-90 68-63 88-131t20-156v-10zM582 797q-96 0-160-64t-64-160q0-100 64-159 30-28 73.5-46t86.5-18q98 0 159 64 64 64 64 159 0 96-66 162-62 62-157 62z"/><glyph glyph-name="dieresis" unicode="¨" d="M231 1126q0 41 31 72t72 31 71.5-31 30.5-72-30.5-71.5T334 1024t-72 30.5-31 71.5zm357 0q0 41 30.5 72t71.5 31 72-31 31-72-31-71.5-72-30.5-71.5 30.5T588 1126z"/><glyph glyph-name="copyright" unicode="©" horiz-adv-x="1515" d="M51 682q0 193 96 356t258.5 257 352.5 94q142 0 272.5-55.5t225.5-150T1407.5 958t56.5-276q0-143-56.5-273.5t-151-225-225-150.5T758-23q-190 0-353 94.5t-258.5 257T51 682zm1299 0q0 161-79 297.5T1055.5 1195 758 1274t-297.5-79T245 979.5 166 682q0-160 79-296t215.5-215T758 92t297.5 79T1271 386t79 296zm-297 336V854q-50 61-119 90t-131 29q-117 0-200-80.5T520 674q0-139 84-217t197-78q76 0 143.5 34t114.5 91V338q-112-82-254-82-185 0-305.5 117T379 672q0 181 122 302.5T805 1096q140 0 248-78z"/><glyph glyph-name="ordfeminine" unicode="ª" horiz-adv-x="763" d="M541 1284v70h104V809H541v65q-29-36-72-57-50-24-111-24-121 0-198 77-78 78-78 209 0 135 80 215 72 72 200 72 55 0 105-23 50-24 74-59zm-174-8q-77 0-127-53-26-27-41-67t-15-79q0-85 58-143 54-51 127-51 72 0 125 53t53 143q0 88-55 146-51 51-125 51zM102 682h543v-86H102v86z"/><glyph glyph-name="guillemotleft" unicode="«" horiz-adv-x="880" d="M229 434l246-299-94-74L74 434l307 385 94-76zm303 0l246-299-94-74-307 373 307 385 94-76z"/><glyph glyph-name="logicalnot" unicode="¬" d="M956 0H813v416H68v131h888V0z"/><glyph glyph-name="uni00AD" unicode="­" horiz-adv-x="655" d="M102 360v152h451V360H102z"/><glyph glyph-name="registered" unicode="®" horiz-adv-x="1515" d="M55 680q0 148 54 278.5T256 1182t223.5 146.5T758 1382q198 0 358.5-91.5t252-252T1460 680q0-148-53.5-278.5T1260 178 1036.5 31 758-23 479.5 31 256 178 109 401.5 55 680zm1291 0q0 166-76.5 300.5t-211 211T758 1268t-300.5-76.5-211-211T170 680t76.5-300.5 211-211T758 92t300.5 76.5 211 211T1346 680zm-304-383H903L653 621V297H543v766h139q20 0 36-.5t48.5-5 57.5-12 55.5-24 50.5-39 33.5-58T977 844q0-87-55.5-145.5T778 631zM653 965V719h45q32 0 56 3.5t52.5 15 44 37.5 15.5 65q0 35-12 59.5t-28 37-42 19.5-44.5 8-45.5 1h-41z"/><glyph glyph-name="macron" unicode="¯" d="M203 1051v123h618v-123H203z"/><glyph glyph-name="degree" unicode="°" horiz-adv-x="1009" d="M221 1087q0 121 80.5 202t202.5 81q121 0 201.5-80.5T786 1087q0-121-80-201.5T504 805t-202.5 80.5T221 1087zm103 0q0-88 56-138t124-50 124 50 56 138-56 138.5-124 50.5-124-50.5-56-138.5z"/><glyph glyph-name="plusminus" unicode="±" d="M68 707v135h370v350h148V842h370V707H586V356H438v351H68zm0-570v135h888V137H68z"/><glyph glyph-name="twosuperior" unicode="²" horiz-adv-x="716" d="M608 547H66l299 346q67 79 94 119 45 68 45 125 0 62-42.5 104.5T348 1284q-90 0-133-70-25-45-25-98H88q6 110 62 178 72 84 196 84 116 0 190-67.5t74-175.5q0-80-65-174-34-49-113-138L274 641h334v-94z"/><glyph glyph-name="threesuperior" unicode="³" horiz-adv-x="716" d="M209 1153H106q4 76 39 131 60 94 199 94 66 0 115-21.5t74.5-56.5 37-70 11.5-71q0-26-5.5-54t-31.5-68-70-60q43-17 70.5-50.5t38-70T594 778q0-105-70.5-175.5T334 532q-93 0-152 41T98 674q-16 42-20 96h102q3-44 29-82 45-61 121-61 70 0 113.5 44T487 782q0 50-22 84.5T408 915q-42 18-95 15v94q54-4 95 16 28 15 47.5 46t19.5 71q0 53-32.5 90t-98.5 37q-70 0-104-43-27-35-31-88z"/><glyph glyph-name="acute" unicode="´" d="M639 1364l152-70-275-276-92 49z"/><glyph glyph-name="mu" unicode="µ" horiz-adv-x="1071" d="M287-471H139V850h148V426q0-163 61-242 60-78 180-78 68 0 122 35t85 86q49 80 49 217v406h148V0H784v176Q751 86 684 30.5T524-25q-44 0-83 13.5T377.5 19 332 60t-30 38-15 27v-596z"/><glyph glyph-name="mu" unicode="μ" horiz-adv-x="1071" d="M287-471H139V850h148V426q0-163 61-242 60-78 180-78 68 0 122 35t85 86q49 80 49 217v406h148V0H784v176Q751 86 684 30.5T524-25q-44 0-83 13.5T377.5 19 332 60t-30 38-15 27v-596z"/><glyph glyph-name="paragraph" unicode="¶" horiz-adv-x="1187" d="M578-195H451v838h-31q-80 0-158 29t-125 76q-92 92-92 245 0 180 115 277 111 96 336 96h548v-119H922V-195H795v1442H578V-195z"/><glyph glyph-name="periodcentered" unicode="·" horiz-adv-x="409" d="M74 696q0 52 39 91.5t92 39.5 92-39.5 39-91.5-39-91.5-92-39.5-92 39.5T74 696z"/><glyph glyph-name="cedilla" unicode="¸" d="M545-106l135-56-207-262-100 49z"/><glyph glyph-name="onesuperior" unicode="¹" horiz-adv-x="716" d="M340 547v725H180l49 94h217V547H340z"/><glyph glyph-name="ordmasculine" unicode="º" horiz-adv-x="765" d="M383 1366q61 0 120-23t101-65q78-81 78-199 0-113-76-194-84-88-223-88-133 0-215 82-84 81-84 202 0 112 76 193 88 92 223 92zM106 682h556v-86H106v86zm277 594q-88 0-143-55-54-54-54-142 0-83 56-139 53-53 141-53 38 0 78 15t67 42q52 56 52 137 0 90-58 144-51 51-139 51z"/><glyph glyph-name="guillemotright" unicode="»" horiz-adv-x="880" d="M348 446L102 745l95 74 307-373L197 61l-95 76zm303 0L406 745l94 74 307-373L500 61l-94 76z"/><glyph glyph-name="onequarter" unicode="¼" horiz-adv-x="1556" d="M340 547v725H180l49 94h217V547H340zm43-527l795 1373 77-45L461-27zm1008 844V250h100v-94h-100V0h-103v156H868zm-334-614h231v317z"/><glyph glyph-name="onehalf" unicode="½" horiz-adv-x="1556" d="M340 547v725H180l49 94h217V547H340zM301 20l795 1373 78-45L379-27zM1448 0H905l299 346q67 79 94 119 45 67 45 125 0 62-42 104.5T1188 737q-91 0-133-69-25-45-25-99H928q6 112 61 179 71 83 197 83 116 0 190-67.5t74-175.5q0-79-66-174-38-55-112-138L1114 94h334V0z"/><glyph glyph-name="threequarters" unicode="¾" horiz-adv-x="1556" d="M78 770h102q5-56 41-96 44-47 119-47 65 0 104 41 43 43 43 114 0 77-51 117-40 31-114 31h-9v94h9q75 0 114 37 39 35 39 96t-39 96q-36 31-92 31-61 0-92-31-39-34-43-100H106q3 95 66 162 59 63 176 63 113 0 174-65 60-64 60-154 0-61-25-106-28-52-82-76 60-27 88-74 31-47 31-125 0-101-68-172-71-74-190-74-126 0-195 74-60 64-63 164zM424 20l795 1373 77-45L502-27zm967 844V250h100v-94h-100V0h-103v156H868zm-334-614h231v317z"/><glyph glyph-name="questiondown" unicode="¿" horiz-adv-x="892" d="M301 301H154q0 144 84 231 77 82 211 82 131 0 213-82 81-81 81-210 0-176-172-254-42-19-103-37t-69-21Q268-37 268-170q0-94 54-143 49-43 124-43 83 0 129 43 26 25 40 63t14 74q0 42-13 86h152q8-39 8-90 0-138-78-221-88-95-249-95-154 0-242 88-90 90-90 242 0 122 69 201 56 63 158 102 15 5 45.5 14t55.5 18 47 19q100 45 100 144 0 65-41 106-37 37-100 37-64 0-101-37-23-23-36-61t-13-76zm248 512q0-41-31-71.5T446 711t-71.5 30.5T344 813t30.5 71.5T446 915t72-30.5 31-71.5z"/><glyph glyph-name="Agrave" unicode="À" horiz-adv-x="1273" d="M1090 0L930 385H348L184 0H16l629 1432L1257 0h-167zM408 528h462l-229 547zm249 947l-313 239 143 92 258-266z"/><glyph glyph-name="Aacute" unicode="Á" horiz-adv-x="1273" d="M1090 0L930 385H348L184 0H16l629 1432L1257 0h-167zM408 528h462l-229 547zm397 1278l143-92-313-239-88 65z"/><glyph glyph-name="Acircumflex" unicode="Â" horiz-adv-x="1273" d="M1090 0L930 385H348L184 0H16l629 1432L1257 0h-167zM408 528h462l-229 547zm235 1104l-180-155-107 84 287 243 287-243-107-84z"/><glyph glyph-name="Atilde" unicode="Ã" horiz-adv-x="1273" d="M1090 0L930 385H348L184 0H16l629 1432L1257 0h-167zM408 528h462l-229 547zm458 1196l88-71q-18-49-53-84-61-64-143-64-23 0-47 6.5t-40 14-50 24.5q-84 41-115 41-36 0-62-26-26-29-34-64l-91 74q19 52 62 92 55 55 129 55 51 0 139-43 84-43 115-43 36 0 65 29 25 25 37 59z"/><glyph glyph-name="Adieresis" unicode="Ä" horiz-adv-x="1273" d="M1090 0L930 385H348L184 0H16l629 1432L1257 0h-167zM408 528h462l-229 547zm-64 1078q0 43 31 73.5t74 30.5 73.5-30.5T553 1606t-30.5-74-73.5-31-74 31-31 74zm389 0q0 43 31 73.5t74 30.5 73.5-30.5T942 1606t-30.5-74-73.5-31-74 31-31 74z"/><glyph glyph-name="Aring" unicode="Å" horiz-adv-x="1273" d="M1090 0L930 385H348L184 0H16l629 1432L1257 0h-167zM408 528h462l-229 547zm57 1147q0 73 53.5 126.5T645 1855t126.5-53.5T825 1675t-53.5-126.5T645 1495t-126.5 53.5T465 1675zm94 2q0-34 26-60t60-26 60 26 26 60-26 60-60 26-60-26-26-60z"/><glyph glyph-name="AE" unicode="Æ" horiz-adv-x="1843" d="M1102 0L940 383H358L197 0H29l608 1366h600l59-143H745l170-406h541l60-143H979l221-531h555l60-143h-713zM424 526h457l-226 535z"/><glyph glyph-name="Ccedilla" unicode="Ç" horiz-adv-x="1323" d="M1221 1253v-188q-81 81-179 127-116 53-235 53-154 0-280.5-76T329 962.5 258 676q0-107 33.5-199.5t88.5-157T507 209t149-68 153-22q131 0 254 63 86 43 158 115V109Q1034-25 809-25q-200 0-362 93T193.5 322 102 678q0 151 54.5 283t149 226T533 1335t284 54q226 0 404-136zM745-106l144-62-213-262-103 53z"/><glyph glyph-name="Egrave" unicode="È" horiz-adv-x="987" d="M885 1366v-143H328V817h540V674H328V143h557V0H176v1366h709zm-330 109l-313 239 143 92 258-266z"/><glyph glyph-name="Eacute" unicode="É" horiz-adv-x="987" d="M885 1366v-143H328V817h540V674H328V143h557V0H176v1366h709zm-205 440l143-92-313-239-88 65z"/><glyph glyph-name="Ecircumflex" unicode="Ê" horiz-adv-x="987" d="M885 1366v-143H328V817h540V674H328V143h557V0H176v1366h709zm-353 266l-180-155-106 84 286 243 287-243-106-84z"/><glyph glyph-name="Edieresis" unicode="Ë" horiz-adv-x="987" d="M885 1366v-143H328V817h540V674H328V143h557V0H176v1366h709zm-652 240q0 43 31 73.5t74 30.5 73.5-30.5T442 1606t-30.5-74-73.5-31-74 31-31 74zm390 0q0 43 30.5 73.5T727 1710t73.5-30.5T831 1606t-30.5-74-73.5-31-73.5 31-30.5 74z"/><glyph glyph-name="Igrave" unicode="Ì" horiz-adv-x="503" d="M176 1366h152V0H176v1366zm80 109l-313 239 143 92 258-266z"/><glyph glyph-name="Iacute" unicode="Í" horiz-adv-x="503" d="M176 1366h152V0H176v1366zm260 440l144-92-314-239-88 65z"/><glyph glyph-name="Icircumflex" unicode="Î" horiz-adv-x="503" d="M174 1366h152V0H174v1366zm78 266L72 1477l-107 84 287 243 287-243-107-84z"/><glyph glyph-name="Idieresis" unicode="Ï" horiz-adv-x="503" d="M176 1366h152V0H176v1366zM31 1606q0 43 26.5 73.5T123 1710t65.5-31 26.5-73-26.5-73.5T123 1501t-65.5 31-26.5 74zm258 0q0 42 26.5 73t65.5 31 65.5-30.5T473 1606t-26.5-74-65.5-31-65.5 31.5T289 1606z"/><glyph glyph-name="Eth" unicode="Ð" horiz-adv-x="1294" d="M176 0v688H0v131h176v547h279q62 0 114.5-5t121.5-20 137.5-49 129.5-86q104-86 169-218.5t65-305.5q0-318-240-524-98-83-210-120.5T453 0H176zm152 1223V819h278V688H328V143h133q244 0 391 123 184 155 184 416 0 246-157.5 393.5T461 1223H328z"/><glyph glyph-name="Ntilde" unicode="Ñ" horiz-adv-x="1568" d="M328 0H176v1423L1241 307v1059h152V-61L328 1055V0zm686 1724l88-71q-18-49-53-84-61-64-144-64-23 0-47 6.5t-40 14-50 24.5q-84 41-115 41-35 0-61-26-27-31-35-64l-90 74q19 53 61 92 55 55 129 55 52 0 140-43 3-2 16.5-8.5t17.5-9 15.5-8 17.5-7.5 15.5-5 17-4 14.5-1q37 0 66 29 25 25 37 59z"/><glyph glyph-name="Ograve" unicode="Ò" horiz-adv-x="1626" d="M813-25q-146 0-277.5 54T309 176 158 401t-56 281q0 150 56 282t151.5 225T536 1335.5t277 53.5 277-53.5 226.5-146.5T1468 964t56-282q0-149-56-281t-151-225-226.5-147T813-25zm0 1270q-151 0-279-75T332 965.5 258 682t74-283.5T534 194t279-75 279 75 202 204.5 74 283.5-74 283.5-202 204.5-279 75zm29 230l-314 239 144 92 258-266z"/><glyph glyph-name="Oacute" unicode="Ó" horiz-adv-x="1626" d="M813-25q-146 0-277.5 54T309 176 158 401t-56 281q0 150 56 282t151.5 225T536 1335.5t277 53.5 277-53.5 226.5-146.5T1468 964t56-282q0-149-56-281t-151-225-226.5-147T813-25zm0 1270q-151 0-279-75T332 965.5 258 682t74-283.5T534 194t279-75 279 75 202 204.5 74 283.5-74 283.5-202 204.5-279 75zm133 561l144-92-314-239-88 65z"/><glyph glyph-name="Ocircumflex" unicode="Ô" horiz-adv-x="1626" d="M813-25q-146 0-277.5 54T309 176 158 401t-56 281q0 150 56 282t151.5 225T536 1335.5t277 53.5 277-53.5 226.5-146.5T1468 964t56-282q0-149-56-281t-151-225-226.5-147T813-25zm0 1270q-151 0-279-75T332 965.5 258 682t74-283.5T534 194t279-75 279 75 202 204.5 74 283.5-74 283.5-202 204.5-279 75zm0 387l-180-155-107 84 287 243 287-243-107-84z"/><glyph glyph-name="Otilde" unicode="Õ" horiz-adv-x="1626" d="M813-25q-146 0-277.5 54T309 176 158 401t-56 281q0 150 56 282t151.5 225T536 1335.5t277 53.5 277-53.5 226.5-146.5T1468 964t56-282q0-149-56-281t-151-225-226.5-147T813-25zm0 1270q-151 0-279-75T332 965.5 258 682t74-283.5T534 194t279-75 279 75 202 204.5 74 283.5-74 283.5-202 204.5-279 75zm229 479l88-71q-18-49-53-84-61-64-143-64-23 0-47 6.5t-40 14-50 24.5q-84 41-115 41-35 0-61-26-27-31-35-64l-90 74q19 53 61 92 55 55 129 55 51 0 139-43 84-43 115-43 37 0 66 29 24 24 36 59z"/><glyph glyph-name="Odieresis" unicode="Ö" horiz-adv-x="1626" d="M813-25q-146 0-277.5 54T309 176 158 401t-56 281q0 150 56 282t151.5 225T536 1335.5t277 53.5 277-53.5 226.5-146.5T1468 964t56-282q0-149-56-281t-151-225-226.5-147T813-25zm0 1270q-151 0-279-75T332 965.5 258 682t74-283.5T534 194t279-75 279 75 202 204.5 74 283.5-74 283.5-202 204.5-279 75zm-299 361q0 43 30.5 73.5T618 1710t74-30.5 31-73.5-31-74-74-31-73.5 31-30.5 74zm389 0q0 43 31 73.5t74 30.5 73.5-30.5 30.5-73.5-30.5-74-73.5-31-74 31-31 74z"/><glyph glyph-name="multiply" unicode="×" d="M123 389l293 293-305 305 96 96 305-305 305 305 96-96-305-305 293-293-96-96-293 293-293-293z"/><glyph glyph-name="Oslash" unicode="Ø" horiz-adv-x="1626" d="M1524 1300l-162-163q162-193 162-455 0-149-56-281t-151.5-225T1090 29 813-25q-266 0-457 160L193-27 90 76l164 162Q102 432 102 682q0 150 56.5 282t152 225T537 1335.5t276 53.5q251 0 447-150l161 164zM373 340l768 797q-139 108-328 108-151 0-279-75T332 965.5 258 682q0-195 115-342zm872 696L473 236q152-117 340-117 150 0 278 75t202.5 204.5T1368 682q0 202-123 354z"/><glyph glyph-name="Ugrave" unicode="Ù" horiz-adv-x="1323" d="M328 1366V528q0-59 2-90t11-81 32.5-88.5T436 197q41-35 104.5-56.5T662 119t121 21.5T887 197q39 33 62.5 71.5T982 357t11 81 2 90v838h152V487q0-100-17.5-178.5T1061 160Q998 74 894 24.5T662-25 429.5 24.5 262 160q-51 70-68.5 148.5T176 487v879h152zm350 109l-313 239 143 92 258-266z"/><glyph glyph-name="Uacute" unicode="Ú" horiz-adv-x="1323" d="M328 1366V528q0-59 2-90t11-81 32.5-88.5T436 197q41-35 104.5-56.5T662 119t121 21.5T887 197q39 33 62.5 71.5T982 357t11 81 2 90v838h152V487q0-100-17.5-178.5T1061 160Q998 74 894 24.5T662-25 429.5 24.5 262 160q-51 70-68.5 148.5T176 487v879h152zm487 440l143-92-313-239-88 65z"/><glyph glyph-name="Ucircumflex" unicode="Û" horiz-adv-x="1323" d="M328 1366V528q0-59 2-90t11-81 32.5-88.5T436 197q41-35 104.5-56.5T662 119t121 21.5T887 197q39 33 62.5 71.5T982 357t11 81 2 90v838h152V487q0-100-17.5-178.5T1061 160Q998 74 894 24.5T662-25 429.5 24.5 262 160q-51 70-68.5 148.5T176 487v879h152zm334 266l-181-155-106 84 287 243 286-243-106-84z"/><glyph glyph-name="Udieresis" unicode="Ü" horiz-adv-x="1323" d="M328 1366V528q0-59 2-90t11-81 32.5-88.5T436 197q41-35 104.5-56.5T662 119t121 21.5T887 197q39 33 62.5 71.5T982 357t11 81 2 90v838h152V487q0-100-17.5-178.5T1061 160Q998 74 894 24.5T662-25 429.5 24.5 262 160q-51 70-68.5 148.5T176 487v879h152zm34 240q0 43 31 73.5t74 30.5 73.5-30.5T571 1606t-30.5-74-73.5-31-74 31-31 74zm390 0q0 43 30.5 73.5T856 1710t74-30.5 31-73.5-31-74-74-31-73.5 31-30.5 74z"/><glyph glyph-name="Yacute" unicode="Ý" horiz-adv-x="1085" d="M465 0v588L16 1366h177l348-610 352 610h176L616 588V0H465zm246 1806l143-92-313-239-88 65z"/><glyph glyph-name="Thorn" unicode="Þ" horiz-adv-x="933" d="M176 1366h152v-205h96q115 0 197.5-20t146.5-76q68-59 96.5-137T893 772q0-60-14.5-114t-48-104-82.5-86-123-57.5T461 389H328V0H176v1366zm152-348V532h125q136 0 212 65t76 183q0 62-22.5 108T664 958t-76.5 38.5-78 18-69.5 3.5H328z"/><glyph glyph-name="germandbls" unicode="ß" horiz-adv-x="1089" d="M303 0H156v715H12v135h144v274q0 193 100 295 95 99 258 99 162 0 262-103 92-94 92-241 0-113-45-185-43-69-112-102 112-39 180-113 113-117 113-295 0-201-136-340-62-64-159.5-112T485-25v144q82 6 154 39.5T758 240q90 94 90 231 0 146-98 240-101 96-265 100v131q48 0 98.5 18.5T666 1012q51 56 51 151 0 118-62 176-51 47-141 47-110 0-164-77-21-29-32-74t-13-79.5-2-88.5V0z"/><glyph glyph-name="agrave" unicode="à" horiz-adv-x="1077" d="M791 729v121h147V0H791v119Q679-25 500-25q-82 0-155.5 29t-132 83.5-92.5 142T86 426q0 106 34 192t92 140.5 131.5 83T500 870q183 0 291-141zm-275 10q-116 0-197-82.5T238 426q0-140 74.5-230T516 106q130 0 206.5 93T799 424q0 79-25.5 141t-67 99-90.5 56-100 19zm-6 279l-277 276 152 70 215-297z"/><glyph glyph-name="aacute" unicode="á" horiz-adv-x="1077" d="M791 729v121h147V0H791v119Q679-25 500-25q-82 0-155.5 29t-132 83.5-92.5 142T86 426q0 106 34 192t92 140.5 131.5 83T500 870q183 0 291-141zm-275 10q-116 0-197-82.5T238 426q0-140 74.5-230T516 106q130 0 206.5 93T799 424q0 79-25.5 141t-67 99-90.5 56-100 19zm123 625l152-70-275-276-92 49z"/><glyph glyph-name="acircumflex" unicode="â" horiz-adv-x="1077" d="M791 729v121h147V0H791v119Q679-25 500-25q-82 0-155.5 29t-132 83.5-92.5 142T86 426q0 106 34 192t92 140.5 131.5 83T500 870q183 0 291-141zm-275 10q-116 0-197-82.5T238 426q0-140 74.5-230T516 106q130 0 206.5 93T799 424q0 79-25.5 141t-67 99-90.5 56-100 19zm8 445l-188-166-94 74 282 247 283-247-94-74z"/><glyph glyph-name="atilde" unicode="ã" horiz-adv-x="1077" d="M791 729v121h147V0H791v119Q679-25 500-25q-82 0-155.5 29t-132 83.5-92.5 142T86 426q0 106 34 192t92 140.5 131.5 83T500 870q183 0 291-141zm-275 10q-116 0-197-82.5T238 426q0-140 74.5-230T516 106q130 0 206.5 93T799 424q0 79-25.5 141t-67 99-90.5 56-100 19zm-180 279l-86 69q33 57 69 93 52 49 117 49 64 0 144-41 32-17 44-23t32-12 38-6q38 0 60 24 26 29 43 64l84-70q-15-41-54-80-59-61-135-61-48 0-141 43-83 39-113 39t-59-29q-23-23-43-59z"/><glyph glyph-name="adieresis" unicode="ä" horiz-adv-x="1077" d="M791 729v121h147V0H791v119Q679-25 500-25q-82 0-155.5 29t-132 83.5-92.5 142T86 426q0 106 34 192t92 140.5 131.5 83T500 870q183 0 291-141zm-275 10q-116 0-197-82.5T238 426q0-140 74.5-230T516 106q130 0 206.5 93T799 424q0 79-25.5 141t-67 99-90.5 56-100 19zm-250 387q0 41 31 72t72 31 71.5-31 30.5-72-30.5-71.5T369 1024t-72 30.5-31 71.5zm357 0q0 41 30.5 72t71.5 31 71.5-31 30.5-72-30.5-71.5T725 1024t-71.5 30.5T623 1126z"/><glyph glyph-name="aring" unicode="å" horiz-adv-x="1077" d="M791 729v121h147V0H791v119Q679-25 500-25q-82 0-155.5 29t-132 83.5-92.5 142T86 426q0 106 34 192t92 140.5 131.5 83T500 870q183 0 291-141zm-275 10q-116 0-197-82.5T238 426q0-140 74.5-230T516 106q130 0 206.5 93T799 424q0 79-25.5 141t-67 99-90.5 56-100 19zm-143 455q0 72 52 124t124 52 124-52 52-124-52-124-124-52-124 52-52 124zm90 0q0-34 26-60t60-26 60 26 26 60-26 60-60 26-60-26-26-60z"/><glyph glyph-name="ae" unicode="æ" horiz-adv-x="1585" d="M1366 287l123-74q-24-45-55-83.5T1357 54 1246.5-4 1106-25q-218 0-334 170Q676-25 453-25q-158 0-262.5 72T86 252q0 132 100 206t254 74q144 0 244-71 4 110-39 180-57 98-203 98-112 0-262-53v139q137 45 264 45 240 0 322-172 52 84 138 128t190 44q186 0 295.5-125T1499 410v-15H836q4-125 81-207t187-82q85 0 154 51t108 130zM846 518h502q-13 102-83.5 161.5T1096 739q-95 0-164-59t-86-162zM453 401q-105 0-162.5-42T233 252q0-25 10.5-49t33.5-46.5 67.5-36.5T449 106q116 0 171.5 46.5T676 258q0 54-54.5 98.5T453 401z"/><glyph glyph-name="ccedilla" unicode="ç" horiz-adv-x="897" d="M805 788V612q-53 67-126 97t-140 30q-126 0-213.5-84.5T238 422q0-147 88.5-231.5T537 106q71 0 145 33.5T811 240V63Q692-25 541-25q-198 0-326.5 126.5T86 420q0 195 129 322.5T541 870q148 0 264-82zM504-106l135-56-207-262-100 49z"/><glyph glyph-name="egrave" unicode="è" horiz-adv-x="985" d="M770 285l123-68q-43-81-105-137Q671-25 506-25q-80 0-152.5 26T220 78.5t-97.5 140T86 420q0 195 112 322.5T498 870q114 0 195-45t126-110q39-56 61-145t19-175H238q1-129 79-209t191-80q100 0 174 62 58 49 88 117zM248 518h500q-19 100-87.5 160.5T498 739q-93 0-163-62.5T248 518zm262 500l-277 276 152 70 215-297z"/><glyph glyph-name="eacute" unicode="é" horiz-adv-x="985" d="M770 285l123-68q-43-81-105-137Q671-25 506-25q-80 0-152.5 26T220 78.5t-97.5 140T86 420q0 195 112 322.5T498 870q114 0 195-45t126-110q39-56 61-145t19-175H238q1-129 79-209t191-80q100 0 174 62 58 49 88 117zM248 518h500q-19 100-87.5 160.5T498 739q-93 0-163-62.5T248 518zm350 846l152-70-275-276-92 49z"/><glyph glyph-name="ecircumflex" unicode="ê" horiz-adv-x="985" d="M770 285l123-68q-43-81-105-137Q671-25 506-25q-80 0-152.5 26T220 78.5t-97.5 140T86 420q0 195 112 322.5T498 870q114 0 195-45t126-110q39-56 61-145t19-175H238q1-129 79-209t191-80q100 0 174 62 58 49 88 117zM248 518h500q-19 100-87.5 160.5T498 739q-93 0-163-62.5T248 518zm248 666l-189-166-94 74 283 247 282-247-94-74z"/><glyph glyph-name="edieresis" unicode="ë" horiz-adv-x="985" d="M770 285l123-68q-43-81-105-137Q671-25 506-25q-80 0-152.5 26T220 78.5t-97.5 140T86 420q0 195 112 322.5T498 870q114 0 195-45t126-110q39-56 61-145t19-175H238q1-129 79-209t191-80q100 0 174 62 58 49 88 117zM248 518h500q-19 100-87.5 160.5T498 739q-93 0-163-62.5T248 518zm-33 608q0 41 30.5 72t71.5 31 72-31 31-72-31-71.5-72-30.5-71.5 30.5T215 1126zm356 0q0 41 31 72t72 31 71.5-31 30.5-72-30.5-71.5T674 1024t-72 30.5-31 71.5z"/><glyph glyph-name="igrave" unicode="ì" horiz-adv-x="425" d="M139 850h148V0H139v850zm84 160l-252 301 158 55 186-313z"/><glyph glyph-name="iacute" unicode="í" horiz-adv-x="425" d="M139 850h148V0H139v850zm158 516l158-55-252-301-97 43z"/><glyph glyph-name="icircumflex" unicode="î" horiz-adv-x="425" d="M139 850h148V0H139v850zm74 321L59 1034l-88 72 242 217 242-217-88-72z"/><glyph glyph-name="idieresis" unicode="ï" horiz-adv-x="425" d="M139 850h148V0H139v850zm-207 276q0 41 31 72t72 31 71.5-31 30.5-72-30.5-71.5T35 1024t-72 30.5-31 71.5zm357 0q0 41 30.5 72t71.5 31 72-31 31-72-31-71.5-72-30.5-71.5 30.5T289 1126z"/><glyph glyph-name="eth" unicode="ð" horiz-adv-x="1073" d="M170 1253l35 125q235-20 432-145l264 86 37-111-195-63q93-80 152-199 92-184 92-430 0-196-72-323-55-97-149-157.5T537-25q-195 0-326 131Q86 235 86 434q0 209 133 342 119 119 305 119 165 0 277-100-21 81-76 161-57 81-131 140L227 975l-37 110 275 91q-126 59-295 77zm666-807q0 76-27.5 140.5T737 692q-75 72-194 72-121 0-207-82-98-91-98-252 0-148 94-240 87-84 205-84t198 80q50 48 75.5 117T836 446z"/><glyph glyph-name="ntilde" unicode="ñ" horiz-adv-x="962" d="M139 0v850h148v-98q91 118 243 118 77 0 141.5-30T774 754q30-44 39.5-96t9.5-132V0H676v522q0 106-39 156-48 61-139 61-95 0-150-65-61-73-61-230V0H139zm103 1018l-86 69q33 57 69 93 52 49 117 49 63 0 143-41 31-16 44-22.5t32.5-12.5 38.5-6q37 0 59 24 26 29 43 64l84-70q-16-43-53-80-59-61-135-61-48 0-141 43-83 39-113 39t-59-29q-23-23-43-59z"/><glyph glyph-name="ograve" unicode="ò" horiz-adv-x="1073" d="M537-25q-194 0-322.5 127T86 422q0 194 128 321t323 127 322.5-127T987 422q0-193-128-320T537-25zm0 764q-124 0-211.5-84.5T238 422q0-100 43.5-173.5t110.5-108T537 106q123 0 211 84t88 232q0 149-87 233t-212 84zm-2 279l-277 276 152 70 215-297z"/><glyph glyph-name="oacute" unicode="ó" horiz-adv-x="1073" d="M537-25q-194 0-322.5 127T86 422q0 194 128 321t323 127 322.5-127T987 422q0-193-128-320T537-25zm0 764q-124 0-211.5-84.5T238 422q0-100 43.5-173.5t110.5-108T537 106q123 0 211 84t88 232q0 149-87 233t-212 84zm127 625l151-70-274-276-92 49z"/><glyph glyph-name="ocircumflex" unicode="ô" horiz-adv-x="1073" d="M537-25q-194 0-322.5 127T86 422q0 194 128 321t323 127 322.5-127T987 422q0-193-128-320T537-25zm0 764q-124 0-211.5-84.5T238 422q0-100 43.5-173.5t110.5-108T537 106q123 0 211 84t88 232q0 149-87 233t-212 84zm0 445l-189-166-94 74 283 247 282-247-94-74z"/><glyph glyph-name="otilde" unicode="õ" horiz-adv-x="1073" d="M537-25q-194 0-322.5 127T86 422q0 194 128 321t323 127 322.5-127T987 422q0-193-128-320T537-25zm0 764q-124 0-211.5-84.5T238 422q0-100 43.5-173.5t110.5-108T537 106q123 0 211 84t88 232q0 149-87 233t-212 84zm-230 279l-86 69q32 55 70 93 52 49 117 49 63 0 143-41 31-16 44-22.5t32.5-12.5 38.5-6q37 0 59 24 26 29 43 64l84-70q-16-43-53-80-59-61-135-61-49 0-142 43-83 39-112 39-31 0-60-29-23-23-43-59z"/><glyph glyph-name="odieresis" unicode="ö" horiz-adv-x="1073" d="M537-25q-194 0-322.5 127T86 422q0 194 128 321t323 127 322.5-127T987 422q0-193-128-320T537-25zm0 764q-124 0-211.5-84.5T238 422q0-100 43.5-173.5t110.5-108T537 106q123 0 211 84t88 232q0 149-87 233t-212 84zm-281 387q0 41 30.5 72t71.5 31 72-31 31-72-31-71.5-72-30.5-71.5 30.5T256 1126zm356 0q0 41 31 72t72 31 71.5-31 30.5-72-30.5-71.5T715 1024t-72 30.5-31 71.5z"/><glyph glyph-name="divide" unicode="÷" d="M412 1055q0 41 29.5 70.5T512 1155t70.5-29.5T612 1055t-29.5-71-70.5-30-70.5 30-29.5 71zm0-746q0 41 29.5 71t70.5 30 70.5-30 29.5-71-29.5-70.5T512 209t-70.5 29.5T412 309zM68 614v136h888V614H68z"/><glyph glyph-name="oslash" unicode="ø" horiz-adv-x="1073" d="M1018 819L897 698q90-112 90-276 0-194-128-320.5T537-25q-160 0-275 86L137-61 43 31l125 123Q86 268 86 422q0 194 128.5 321T537 870q158 0 266-82l125 123zM276 254l424 438q-71 47-163 47-125 0-212-84t-87-233q0-94 38-168zm515 344L367 160q75-54 170-54 124 0 211.5 83.5T836 422q0 97-45 176z"/><glyph glyph-name="ugrave" unicode="ù" horiz-adv-x="954" d="M287 850V354q0-41 1.5-64t11-58 28.5-60q52-66 149-66 98 0 150 66 19 25 28.5 60t11 58 1.5 64v496h147V338q0-88-15.5-146.5T737 82Q635-25 477-25T217 82q-47 51-62.5 109.5T139 338v512h148zm202 168l-276 276 152 70 215-297z"/><glyph glyph-name="uacute" unicode="ú" horiz-adv-x="954" d="M287 850V354q0-41 1.5-64t11-58 28.5-60q52-66 149-66 98 0 150 66 19 25 28.5 60t11 58 1.5 64v496h147V338q0-88-15.5-146.5T737 82Q635-25 477-25T217 82q-47 51-62.5 109.5T139 338v512h148zm299 514l151-70-274-276-92 49z"/><glyph glyph-name="ucircumflex" unicode="û" horiz-adv-x="954" d="M287 850V354q0-41 1.5-64t11-58 28.5-60q52-66 149-66 98 0 150 66 19 25 28.5 60t11 58 1.5 64v496h147V338q0-88-15.5-146.5T737 82Q635-25 477-25T217 82q-47 51-62.5 109.5T139 338v512h148zm190 334l-188-166-94 74 282 247 283-247-94-74z"/><glyph glyph-name="udieresis" unicode="ü" horiz-adv-x="954" d="M287 850V354q0-41 1.5-64t11-58 28.5-60q52-66 149-66 98 0 150 66 19 25 28.5 60t11 58 1.5 64v496h147V338q0-88-15.5-146.5T737 82Q635-25 477-25T217 82q-47 51-62.5 109.5T139 338v512h148zm-90 276q0 41 30.5 72t71.5 31 71.5-31 30.5-72-30.5-71.5T299 1024t-71.5 30.5T197 1126zm356 0q0 41 30.5 72t71.5 31 72-31 31-72-31-71.5-72-30.5-71.5 30.5T553 1126z"/><glyph glyph-name="yacute" unicode="ý" horiz-adv-x="942" d="M137-471L408 80 16 850h168l301-608 277 608h164L301-471H137zm461 1835l152-70-275-276-92 49z"/><glyph glyph-name="thorn" unicode="þ" horiz-adv-x="1077" d="M287 119v-590H139v1964h148V731q111 139 291 139 128 0 224-65.5T944.5 638 991 420q0-118-47-218.5T802.5 38 584-25q-186 0-297 144zm276-13q125 0 201 91t76 223q0 148-84 233.5T561 739t-196.5-86T279 422q0-134 78.5-225T563 106z"/><glyph glyph-name="ydieresis" unicode="ÿ" horiz-adv-x="942" d="M137-471L408 80 16 850h168l301-608 277 608h164L301-471H137zm74 1597q0 41 30.5 72t71.5 31 72-31 31-72-31-71.5-72-30.5-71.5 30.5T211 1126zm356 0q0 41 31 72t72 31 71.5-31 30.5-72-30.5-71.5T670 1024t-72 30.5-31 71.5z"/><glyph glyph-name="Amacron" unicode="Ā" horiz-adv-x="1273" d="M1090 0L930 385H348L184 0H16l629 1432L1257 0h-167zM408 528h462l-229 547zm-91 973v131h656v-131H317z"/><glyph glyph-name="amacron" unicode="ā" horiz-adv-x="1077" d="M791 729v121h147V0H791v119Q679-25 500-25q-82 0-155.5 29t-132 83.5-92.5 142T86 426q0 106 34 192t92 140.5 131.5 83T500 870q183 0 291-141zm-275 10q-116 0-197-82.5T238 426q0-140 74.5-230T516 106q130 0 206.5 93T799 424q0 79-25.5 141t-67 99-90.5 56-100 19zm-285 312v123h619v-123H231z"/><glyph glyph-name="Abreve" unicode="Ă" horiz-adv-x="1273" d="M1090 0L930 385H348L184 0H16l629 1432L1257 0h-167zM408 528h462l-229 547zm419 1194h136q-15-78-64-137-94-108-254-108t-254 108q-48 57-63 137h135q14-44 51-73 52-41 131-41t131 41q37 29 51 73z"/><glyph glyph-name="abreve" unicode="ă" horiz-adv-x="1077" d="M791 729v121h147V0H791v119Q679-25 500-25q-82 0-155.5 29t-132 83.5-92.5 142T86 426q0 106 34 192t92 140.5 131.5 83T500 870q183 0 291-141zm-275 10q-116 0-197-82.5T238 426q0-140 74.5-230T516 106q130 0 206.5 93T799 424q0 79-25.5 141t-67 99-90.5 56-100 19zm-264 525h125q13-48 49-80 49-43 123-43t123 43q36 32 49 80h125q-12-66-60-138-85-108-237-108-153 0-238 108-47 70-59 138z"/><glyph glyph-name="Aogonek" unicode="Ą" horiz-adv-x="1273" d="M645 1432L1257 0h-40q-63-36-103-84-41-51-41-98 0-35 25-60 27-24 78-24 54 0 102 26l-16-120q-57-29-113-29-43 0-87.5 16.5T989-330q-47 43-47 117 0 69 47 129 43 53 101 84L930 385H348L184 0H16zM408 528h462l-229 547z"/><glyph glyph-name="aogonek" unicode="ą" horiz-adv-x="1077" d="M791 729v121h147V0h-29q-46-27-96-80-47-52-47-104 0-39 25-60 24-22 81-22t99 26l-17-112q-48-29-114-29-40 0-82 14.5T688-324q-45 45-45 115 0 64 41.5 118T791 0v119q-53-62-115-99-77-45-176-45-176 0-293 117Q86 219 86 426q0 105 33 190t90 142q52 52 128.5 82T500 870q182 0 291-141zm-275 10q-115 0-194-82-84-91-84-239 0-155 90-240 79-72 192-72 111 0 187 76 92 96 92 242 0 142-80 229-79 86-203 86z"/><glyph glyph-name="Cacute" unicode="Ć" horiz-adv-x="1323" d="M1221 1253v-188q-81 81-179 127-116 53-235 53-154 0-280.5-76T329 962.5 258 676q0-107 33.5-199.5t88.5-157T507 209t149-68 153-22q131 0 254 63 86 43 158 115V109Q1034-25 809-25q-200 0-362 93T193.5 322 102 678q0 151 54.5 283t149 226T533 1335t284 54q226 0 404-136zm-295 553l143-92-313-239-88 65z"/><glyph glyph-name="cacute" unicode="ć" horiz-adv-x="897" d="M805 788V612q-53 67-126 97t-140 30q-126 0-213.5-84.5T238 422q0-147 88.5-231.5T537 106q71 0 145 33.5T811 240V63Q692-25 541-25q-198 0-326.5 126.5T86 420q0 195 129 322.5T541 870q148 0 264-82zm-207 576l152-70-275-276-92 49z"/><glyph glyph-name="Ccircumflex" unicode="Ĉ" horiz-adv-x="1323" d="M1221 1253v-188q-81 81-179 127-116 53-235 53-154 0-280.5-76T329 962.5 258 676q0-107 33.5-199.5t88.5-157T507 209t149-68 153-22q131 0 254 63 86 43 158 115V109Q1034-25 809-25q-200 0-362 93T193.5 322 102 678q0 151 54.5 283t149 226T533 1335t284 54q226 0 404-136zm-402 379l-180-155-107 84 287 243 287-243-107-84z"/><glyph glyph-name="ccircumflex" unicode="ĉ" horiz-adv-x="897" d="M805 788V612q-53 67-126 97t-140 30q-126 0-213.5-84.5T238 422q0-147 88.5-231.5T537 106q71 0 145 33.5T811 240V63Q692-25 541-25q-198 0-326.5 126.5T86 420q0 195 129 322.5T541 870q148 0 264-82zm-273 396l-188-166-94 74 282 247 283-247-94-74z"/><glyph glyph-name="Cdotaccent" unicode="Ċ" horiz-adv-x="1323" d="M1221 1253v-188q-81 81-179 127-116 53-235 53-154 0-280.5-76T329 962.5 258 676q0-107 33.5-199.5t88.5-157T507 209t149-68 153-22q131 0 254 63 86 43 158 115V109Q1034-25 809-25q-200 0-362 93T193.5 322 102 678q0 151 54.5 283t149 226T533 1335t284 54q226 0 404-136zm-529 353q0 49 31.5 80.5T805 1718t81.5-31.5T918 1606q0-50-32-81.5t-81-31.5-81 31.5-32 81.5z"/><glyph glyph-name="cdotaccent" unicode="ċ" horiz-adv-x="897" d="M805 788V612q-53 67-126 97t-140 30q-126 0-213.5-84.5T238 422q0-147 88.5-231.5T537 106q71 0 145 33.5T811 240V63Q692-25 541-25q-198 0-326.5 126.5T86 420q0 195 129 322.5T541 870q148 0 264-82zm-373 345q0 46 31.5 77t77.5 31 77-31 31-77-31-77.5-77-31.5-77.5 31.5T432 1133z"/><glyph glyph-name="Ccaron" unicode="Č" horiz-adv-x="1323" d="M1221 1253v-188q-81 81-179 127-116 53-235 53-154 0-280.5-76T329 962.5 258 676q0-107 33.5-199.5t88.5-157T507 209t149-68 153-22q131 0 254 63 86 43 158 115V109Q1034-25 809-25q-200 0-362 93T193.5 322 102 678q0 151 54.5 283t149 226T533 1335t284 54q226 0 404-136zm-402 396l180 155 107-84-287-243-287 243 107 84z"/><glyph glyph-name="ccaron" unicode="č" horiz-adv-x="897" d="M805 788V612q-53 67-126 97t-140 30q-126 0-213.5-84.5T238 422q0-147 88.5-231.5T537 106q71 0 145 33.5T811 240V63Q692-25 541-25q-198 0-326.5 126.5T86 420q0 195 129 322.5T541 870q148 0 264-82zm-273 386l189 165 94-73-283-248-282 248 94 73z"/><glyph glyph-name="Dcaron" unicode="Ď" horiz-adv-x="1294" d="M176 0v1366h279q62 0 114.5-5t121.5-20 137.5-49 129.5-86q104-86 169-218.5t65-305.5q0-318-240-524-98-83-210-120.5T453 0H176zm152 1223V143h133q244 0 391 123 184 155 184 416 0 246-157.5 393.5T461 1223H328zm245 426l181 155 106-84-287-243-286 243 106 84z"/><glyph glyph-name="dcaron" unicode="ď" horiz-adv-x="1220" d="M791 729v764h147V0H791v119Q679-25 500-25q-82 0-155.5 29t-132 83.5-92.5 142T86 426q0 106 34 192t92 140.5 131.5 83T500 870q183 0 291-141zm-275 10q-116 0-197-82.5T238 426q0-140 74.5-230T516 106q130 0 206.5 93T799 424q0 79-25.5 141t-67 99-90.5 56-100 19zm508 346l106 328 132-49-144-320z"/><glyph glyph-name="Dcroat" unicode="Đ" horiz-adv-x="1294" d="M176 0v688H0v131h176v547h279q62 0 114.5-5t121.5-20 137.5-49 129.5-86q104-86 169-218.5t65-305.5q0-318-240-524-98-83-210-120.5T453 0H176zm152 1223V819h278V688H328V143h133q244 0 391 123 184 155 184 416 0 246-157.5 393.5T461 1223H328z"/><glyph glyph-name="dcroat" unicode="đ" horiz-adv-x="1077" d="M791 729v406H381v122h410v236h147v-236h139v-122H938V0H791v119Q679-25 500-25q-82 0-155.5 29t-132 83.5-92.5 142T86 426q0 106 34 192t92 140.5 131.5 83T500 870q183 0 291-141zm-275 10q-116 0-197-82.5T238 426q0-140 74.5-230T516 106t206 92.5T799 424q0 80-24.5 142t-66 99-90.5 55.5T516 739z"/><glyph glyph-name="Emacron" unicode="Ē" horiz-adv-x="987" d="M885 1366v-143H328V817h540V674H328V143h557V0H176v1366h709zm-680 135v131h655v-131H205z"/><glyph glyph-name="emacron" unicode="ē" horiz-adv-x="985" d="M770 285l123-68q-43-81-105-137Q671-25 506-25q-80 0-152.5 26T220 78.5t-97.5 140T86 420q0 195 112 322.5T498 870q114 0 195-45t126-110q39-56 61-145t19-175H238q1-129 79-209t191-80q100 0 174 62 58 49 88 117zM248 518h500q-19 100-87.5 160.5T498 739q-93 0-163-62.5T248 518zm-62 533v123h619v-123H186z"/><glyph glyph-name="Edotaccent" unicode="Ė" horiz-adv-x="987" d="M885 1366v-143H328V817h540V674H328V143h557V0H176v1366h709zm-465 240q0 50 31 81t81 31 81.5-31.5T645 1606q0-50-31.5-81.5T532 1493q-49 0-80.5 31.5T420 1606z"/><glyph glyph-name="edotaccent" unicode="ė" horiz-adv-x="985" d="M770 285l123-68q-43-81-105-137Q671-25 506-25q-80 0-152.5 26T220 78.5t-97.5 140T86 420q0 195 112 322.5T498 870q114 0 195-45t126-110q39-56 61-145t19-175H238q1-129 79-209t191-80q100 0 174 62 58 49 88 117zM248 518h500q-19 100-87.5 160.5T498 739q-93 0-163-62.5T248 518zm139 615q0 46 31.5 77t77.5 31 77-31 31-77-31-77.5-77-31.5-77.5 31.5T387 1133z"/><glyph glyph-name="Eogonek" unicode="Ę" horiz-adv-x="987" d="M885 1366v-143H328V817h540V674H328V143h557V0h-82q-63-36-103-84-41-51-41-98 0-35 25-60 27-24 78-24 54 0 102 26l-16-120q-57-29-113-29-43 0-87.5 16.5T575-330q-47 43-47 117 0 73 47 129 32 40 93 84H176v1366h709z"/><glyph glyph-name="eogonek" unicode="ę" horiz-adv-x="987" d="M772 285l123-68q-35-75-104-135-18-16-36.5-29.5t-26-18.5T695 14 664-4q-66-39-105-78-47-49-47-102 0-33 23-56 26-26 83-26 50 0 99 26l-17-112q-52-29-114-29-95 0-150 55-47 43-47 117 0 61 37 111 26 39 72 73-170 0-287 113Q86 209 86 420q0 104 33.5 192T213 760q110 110 287 110 179 0 284-110 117-119 117-365H238q2-58 23-116.5t58-96.5q73-76 191-76 100 0 174 62 52 44 88 117zM250 518h500q-15 93-78 152-72 69-172 69-106 0-174-71-59-62-76-150z"/><glyph glyph-name="Ecaron" unicode="Ě" horiz-adv-x="987" d="M885 1366v-143H328V817h540V674H328V143h557V0H176v1366h709zm-353 283l181 155 106-84-287-243-286 243 106 84z"/><glyph glyph-name="ecaron" unicode="ě" horiz-adv-x="985" d="M770 285l123-68q-43-81-105-137Q671-25 506-25q-80 0-152.5 26T220 78.5t-97.5 140T86 420q0 195 112 322.5T498 870q114 0 195-45t126-110q39-56 61-145t19-175H238q1-129 79-209t191-80q100 0 174 62 58 49 88 117zM248 518h500q-19 100-87.5 160.5T498 739q-93 0-163-62.5T248 518zm248 656l188 165 94-73-282-248-283 248 94 73z"/><glyph glyph-name="Gcircumflex" unicode="Ĝ" horiz-adv-x="1552" d="M881 543v143h569v-33q0-117-34-231.5T1319 221q-18-25-38.5-47.5t-68-62-99.5-67T980.5-4 811-25q-200 0-362.5 93.5T194 324t-92 358 92.5 358 256 255.5T815 1389q241 0 418-136 91-70 158-161l-113-103q-59 84-129 141-143 115-332 115-162 0-290.5-75T328 966.5 258 680q0-108 33-201t88-158 127-111.5T656 141t157-22q135 0 247 62.5T1231 348q50 86 55 195H881zm-70 1089l-180-155-107 84 287 243 287-243-107-84z"/><glyph glyph-name="gcircumflex" unicode="ĝ" horiz-adv-x="1077" d="M791 729v121h147V20q0-66-2.5-106.5t-22-108T856-313q-51-70-139-114t-201-44q-188 0-303 115Q102-245 102-82h146q0-104 65-176 74-82 205-82 154 0 225 119 48 78 48 217v123Q679-25 500-25 324-25 209 90 86 213 86 426q0 207 123 330 55 54 130.5 84T500 870q182 0 291-141zm-275 10q-112 0-192-80-86-88-86-233 0-161 96-250 77-70 182-70 114 0 186 72 44 42 70.5 107.5T799 424t-24.5 137T709 664q-75 75-193 75zm23 445l-189-166-94 74 283 247 282-247-94-74z"/><glyph glyph-name="Gbreve" unicode="Ğ" horiz-adv-x="1552" d="M881 543v143h569v-33q0-117-34-231.5T1319 221q-18-25-38.5-47.5t-68-62-99.5-67T980.5-4 811-25q-200 0-362.5 93.5T194 324t-92 358 92.5 358 256 255.5T815 1389q241 0 418-136 91-70 158-161l-113-103q-59 84-129 141-143 115-332 115-162 0-290.5-75T328 966.5 258 680q0-108 33-201t88-158 127-111.5T656 141t157-22q135 0 247 62.5T1231 348q50 86 55 195H881zm112 1179h135q-15-80-63-137-94-108-254-108t-254 108q-48 57-63 137h135q14-44 51-73 52-41 131-41t131 41q37 29 51 73z"/><glyph glyph-name="gbreve" unicode="ğ" horiz-adv-x="1077" d="M791 729v121h147V20q0-66-2.5-106.5t-22-108T856-313q-51-70-139-114t-201-44q-188 0-303 115Q102-245 102-82h146q0-104 65-176 74-82 205-82 154 0 225 119 48 78 48 217v123Q679-25 500-25 324-25 209 90 86 213 86 426q0 207 123 330 55 54 130.5 84T500 870q182 0 291-141zm-275 10q-112 0-192-80-86-88-86-233 0-161 96-250 77-70 182-70 114 0 186 72 44 42 70.5 107.5T799 424t-24.5 137T709 664q-75 75-193 75zm-274 525h125q13-48 49-80 49-43 123-43t123 43q36 32 49 80h125q-12-66-60-138-85-108-237-108-153 0-238 108-47 70-59 138z"/><glyph glyph-name="Gdotaccent" unicode="Ġ" horiz-adv-x="1552" d="M881 543v143h569v-33q0-117-34-231.5T1319 221q-18-25-38.5-47.5t-68-62-99.5-67T980.5-4 811-25q-200 0-362.5 93.5T194 324t-92 358 92.5 358 256 255.5T815 1389q241 0 418-136 91-70 158-161l-113-103q-59 84-129 141-143 115-332 115-162 0-290.5-75T328 966.5 258 680q0-108 33-201t88-158 127-111.5T656 141t157-22q135 0 247 62.5T1231 348q50 86 55 195H881zM705 1606q0 50 31.5 81t80.5 31q50 0 81.5-31.5T930 1606q0-50-32-81.5t-81-31.5-80.5 31.5T705 1606z"/><glyph glyph-name="gdotaccent" unicode="ġ" horiz-adv-x="1077" d="M791 729v121h147V20q0-66-2.5-106.5t-22-108T856-313q-51-70-139-114t-201-44q-188 0-303 115Q102-245 102-82h146q0-104 65-176 74-82 205-82 154 0 225 119 48 78 48 217v123Q679-25 500-25 324-25 209 90 86 213 86 426q0 207 123 330 55 54 130.5 84T500 870q182 0 291-141zm-275 10q-112 0-192-80-86-88-86-233 0-161 96-250 77-70 182-70 114 0 186 72 44 42 70.5 107.5T799 424t-24.5 137T709 664q-75 75-193 75zm-121 394q0 46 31.5 77t77.5 31 77-31 31-77-31-77.5-77-31.5-77.5 31.5T395 1133z"/><glyph glyph-name="Gcommaaccent" unicode="Ģ" horiz-adv-x="1552" d="M881 543v143h569v-33q0-117-34-231.5T1319 221q-18-25-38.5-47.5t-68-62-99.5-67T980.5-4 811-25q-200 0-362.5 93.5T194 324t-92 358 92.5 358 256 255.5T815 1389q241 0 418-136 91-70 158-161l-113-103q-59 84-129 141-143 115-332 115-162 0-290.5-75T328 966.5 258 680q0-108 33-201t88-158 127-111.5T656 141t157-22q135 0 247 62.5T1231 348q50 86 55 195H881zM651-430l115 328 131-50-143-319z"/><glyph glyph-name="gcommaaccent" unicode="ģ" horiz-adv-x="1077" d="M791 729v121h147V20q0-66-2.5-106.5t-22-108T856-313q-51-70-139-114t-201-44q-188 0-303 115Q102-245 102-82h146q0-104 65-176 74-82 205-82 154 0 225 119 48 78 48 217v123Q679-25 500-25 324-25 209 90 86 213 86 426q0 207 123 330 55 54 130.5 84T500 870q182 0 291-141zm-275 10q-112 0-192-80-86-88-86-233 0-161 96-250 77-70 182-70 114 0 186 72 44 42 70.5 107.5T799 424t-24.5 137T709 664q-75 75-193 75zm129 592l-115-327-131 49 144 319z"/><glyph glyph-name="Hcircumflex" unicode="Ĥ" horiz-adv-x="1355" d="M328 1366V811h700v555h152V0h-152v668H328V0H176v1366h152zm350 266l-180-155-107 84 287 243 287-243-107-84z"/><glyph glyph-name="hcircumflex" unicode="ĥ" horiz-adv-x="962" d="M139 0v1493h148V752q91 118 243 118 77 0 141.5-30T774 754q30-44 39.5-96t9.5-132V0H676v522q0 106-39 156-48 61-139 61-95 0-150-65-61-73-61-230V0H139zm78 1675L29 1509l-95 74 283 248 283-248-94-74z"/><glyph glyph-name="Hbar" unicode="Ħ" horiz-adv-x="1355" d="M328 1366v-109h700v109h152v-109h123v-127h-123V0h-152v668H328V0H176v1130H53v127h123v109h152zm700-236H328V811h700v319z"/><glyph glyph-name="hbar" unicode="ħ" horiz-adv-x="962" d="M139 0v1135H0v122h139v236h148v-236h409v-122H287V752q91 118 243 118 77 0 141.5-30T774 754q30-44 39.5-96t9.5-132V0H676v522q0 106-39 156-48 61-139 61-95 0-150-65-61-73-61-230V0H139z"/><glyph glyph-name="Imacron" unicode="Ī" horiz-adv-x="503" d="M176 1366h152V0H176v1366zM0 1501v131h504v-131H0z"/><glyph glyph-name="imacron" unicode="ī" horiz-adv-x="425" d="M139 850h148V0H139v850zM0 1051v123h426v-123H0z"/><glyph glyph-name="Iogonek" unicode="Į" horiz-adv-x="503" d="M176 1366h152V0q-63-41-97-80-47-56-47-104 0-35 25-58.5t82-23.5q55 0 98 26l-16-120q-57-29-121-29-79 0-139 48T53-211q0 69 49 131 38 46 99 80h-25v1366z"/><glyph glyph-name="iogonek" unicode="į" horiz-adv-x="425" d="M139 850h148V0q-63-41-97-80-47-56-47-104 0-35 25-58.5t82-23.5q55 0 98 26l-16-112q-54-29-115-29-79 0-138 47.5T20-211q0 68 50 131 38 50 98 80h-29v850zm-30 321q0 43 30.5 74t73.5 31 73.5-31 30.5-74-30.5-73.5T213 1067t-73.5 30.5T109 1171z"/><glyph glyph-name="Idotaccent" unicode="İ" horiz-adv-x="503" d="M176 1366h152V0H176v1366zm-37 240q0 49 31.5 80.5T252 1718t81.5-31.5T365 1606q0-50-31.5-81.5T252 1493t-81.5 31.5T139 1606z"/><glyph glyph-name="dotlessi" unicode="ı" horiz-adv-x="425" d="M139 850h148V0H139v850z"/><glyph glyph-name="Jcircumflex" unicode="Ĵ" horiz-adv-x="626" d="M299 1366h152V383q0-73-3-117t-23-104.5T367 61q-79-86-217-86Q-6-25-94 76l84 119q70-76 155-76 64 0 103 39 24 24 36 64.5t13.5 70.5 1.5 86v987zm70 266l-181-155-106 84 287 243 286-243-106-84z"/><glyph glyph-name="jcircumflex" unicode="ĵ" horiz-adv-x="425" d="M139 850h148V-471H139V850zm74 321L59 1034l-88 72 242 217 242-217-88-72z"/><glyph glyph-name="Kcommaaccent" unicode="Ķ" horiz-adv-x="1163" d="M328 1366V780l581 586h205L475 729 1135 0H926L367 627l-39-39V0H176v1366h152zm86-1796l114 328 131-50-143-319z"/><glyph glyph-name="kcommaaccent" unicode="ķ" horiz-adv-x="864" d="M139 1493h148V535l311 315h193L426 485 856 0H664L324 387l-37-37V0H139v1493zM268-430l115 328 131-50-143-319z"/><glyph glyph-name="Lacute" unicode="Ĺ" horiz-adv-x="733" d="M176 1366h152V143h377V0H176v1366zm320 440l143-92-313-239-88 65z"/><glyph glyph-name="lacute" unicode="ĺ" horiz-adv-x="425" d="M139 1493h148V0H139v1493zm213 403l152-69-275-277-92 49z"/><glyph glyph-name="Lcommaaccent" unicode="Ļ" horiz-adv-x="733" d="M176 1366h152V143h377V0H176v1366zM283-430l114 328 131-50-143-319z"/><glyph glyph-name="lcommaaccent" unicode="ļ" horiz-adv-x="425" d="M139 1493h148V0H139v1493zM49-430l115 328 131-50-143-319z"/><glyph glyph-name="Lcaron" unicode="Ľ" horiz-adv-x="733" d="M176 1366h152V143h377V0H176v1366zm336-301l106 328 132-50-144-319z"/><glyph glyph-name="lcaron" unicode="ľ" horiz-adv-x="569" d="M139 1493h148V0H139v1493zm234-408l106 328 131-49-143-320z"/><glyph glyph-name="Ldot" unicode="Ŀ" horiz-adv-x="731" d="M176 1366h152V143h377V0H176v1366zm320-682q0 50 31.5 81.5T608 797q50 0 81.5-31.5T721 684t-31.5-81.5T608 571q-49 0-80.5 31.5T496 684z"/><glyph glyph-name="ldot" unicode="ŀ" horiz-adv-x="643" d="M139 1493h148V0H139v1493zm287-745q0 46 31.5 77t77.5 31 77-31 31-77-31-77.5-77-31.5-77.5 31.5T426 748z"/><glyph glyph-name="Lslash" unicode="Ł" horiz-adv-x="733" d="M176 1366h152V831l204 132V831L328 700V143h377V0H176v625L0 512v131l176 113v610z"/><glyph glyph-name="lslash" unicode="ł" horiz-adv-x="425" d="M139 1493h148v-471l139 108v-122L287 899V0H139v805L0 696v123l139 109v565z"/><glyph glyph-name="Nacute" unicode="Ń" horiz-adv-x="1568" d="M328 0H176v1423L1241 307v1059h152V-61L328 1055V0zm624 1806l144-92-314-239-88 65z"/><glyph glyph-name="nacute" unicode="ń" horiz-adv-x="962" d="M139 0v850h148v-98q91 118 243 118 77 0 141.5-30T774 754q30-44 39.5-96t9.5-132V0H676v522q0 106-39 156-48 61-139 61-95 0-150-65-61-73-61-230V0H139zm500 1364l152-70-275-276-92 49z"/><glyph glyph-name="Ncommaaccent" unicode="Ņ" horiz-adv-x="1568" d="M328 0H176v1423L1241 307v1059h152V-61L328 1055V0zm303-430l114 328 132-50-144-319z"/><glyph glyph-name="ncommaaccent" unicode="ņ" horiz-adv-x="962" d="M139 0v850h148v-98q91 118 243 118 77 0 141.5-30T774 754q30-44 39.5-96t9.5-132V0H676v522q0 106-39 156-48 61-139 61-95 0-150-65-61-73-61-230V0H139zm178-430l115 328 131-50-143-319z"/><glyph glyph-name="Ncaron" unicode="Ň" horiz-adv-x="1568" d="M328 0H176v1423L1241 307v1059h152V-61L328 1055V0zm456 1649l181 155 106-84-287-243-286 243 106 84z"/><glyph glyph-name="ncaron" unicode="ň" horiz-adv-x="962" d="M139 0v850h148v-98q91 118 243 118 77 0 141.5-30T774 754q30-44 39.5-96t9.5-132V0H676v522q0 106-39 156-48 61-139 61-95 0-150-65-61-73-61-230V0H139zm373 1174l188 165 95-73-283-248-283 248 95 73z"/><glyph glyph-name="Omacron" unicode="Ō" horiz-adv-x="1626" d="M813-25q-146 0-277.5 54T309 176 158 401t-56 281q0 150 56 282t151.5 225T536 1335.5t277 53.5 277-53.5 226.5-146.5T1468 964t56-282q0-149-56-281t-151-225-226.5-147T813-25zm0 1270q-151 0-279-75T332 965.5 258 682t74-283.5T534 194t279-75 279 75 202 204.5 74 283.5-74 283.5-202 204.5-279 75zm-328 256v131h656v-131H485z"/><glyph glyph-name="omacron" unicode="ō" horiz-adv-x="1073" d="M537-25q-194 0-322.5 127T86 422q0 194 128 321t323 127 322.5-127T987 422q0-193-128-320T537-25zm0 764q-124 0-211.5-84.5T238 422q0-100 43.5-173.5t110.5-108T537 106q123 0 211 84t88 232q0 149-87 233t-212 84zm-310 312v123h619v-123H227z"/><glyph glyph-name="Obreve" unicode="Ŏ" horiz-adv-x="1626" d="M813-25q-146 0-277.5 54T309 176 158 401t-56 281q0 150 56 282t151.5 225T536 1335.5t277 53.5 277-53.5 226.5-146.5T1468 964t56-282q0-149-56-281t-151-225-226.5-147T813-25zm0 1270q-151 0-279-75T332 965.5 258 682t74-283.5T534 194t279-75 279 75 202 204.5 74 283.5-74 283.5-202 204.5-279 75zm182 477h135q-15-80-63-137-94-108-254-108t-254 108q-48 57-63 137h135q14-44 51-73 52-41 131-41t131 41q37 29 51 73z"/><glyph glyph-name="obreve" unicode="ŏ" horiz-adv-x="1073" d="M537-25q-194 0-322.5 127T86 422q0 194 128 321t323 127 322.5-127T987 422q0-193-128-320T537-25zm0 764q-124 0-211.5-84.5T238 422q0-100 43.5-173.5t110.5-108T537 106q123 0 211 84t88 232q0 149-87 233t-212 84zm-297 525h125q13-48 49-80 49-43 123-43 73 0 122 43 37 33 50 80h125q-12-66-60-138-85-108-237-108-153 0-238 108-47 70-59 138z"/><glyph glyph-name="Ohungarumlaut" unicode="Ő" horiz-adv-x="1626" d="M813-25q-146 0-277.5 54T309 176 158 401t-56 281q0 150 56 282t151.5 225T536 1335.5t277 53.5 277-53.5 226.5-146.5T1468 964t56-282q0-149-56-281t-151-225-226.5-147T813-25zm0 1270q-151 0-279-75T332 965.5 258 682t74-283.5T534 194t279-75 279 75 202 204.5 74 283.5-74 283.5-202 204.5-279 75zm8 561l144-82-301-249-89 53zm307 0l144-82-301-249-88 53z"/><glyph glyph-name="ohungarumlaut" unicode="ő" horiz-adv-x="1073" d="M537-25q-194 0-322.5 127T86 422q0 194 128 321t323 127 322.5-127T987 422q0-193-128-320T537-25zm0 764q-124 0-211.5-84.5T238 422q0-100 43.5-173.5t110.5-108T537 106q123 0 211 84t88 232q0 149-87 233t-212 84zm0 625l147-66-281-278-84 47zm274 0l143-66-276-278-84 47z"/><glyph glyph-name="OE" unicode="Œ" horiz-adv-x="2162" d="M2060 1366v-143h-547V817h533V674h-533V143h547V0h-698v262q-96-145-241.5-216T821-25q-197 0-363 96T197 329t-95 351q0 143 56.5 274t152 226T538 1332t277 57q163 0 307-74.5t240-216.5v268h698zM811 1245q-151 0-278.5-77t-201-207T258 680q0-150 73-279.5T531.5 195 809 119q113 0 215.5 45T1201 284t117.5 178 43.5 216q0 153-74 283.5t-201 207-276 76.5z"/><glyph glyph-name="oe" unicode="œ" horiz-adv-x="1744" d="M1659 428v-31H989q5-122 82.5-206.5T1268 106q88 0 155 51.5T1524 289l125-72q-58-106-157-174t-230-68q-29 0-62.5 5t-91 22.5T996 65t-91 113Q842 82 746 28.5T532-25q-190 0-318 129T86 422q0 192 129.5 320T539 870q127 0 218.5-55.5T905 668q107 202 342 202 190 0 301-120t111-322zm-658 92h506q-15 99-85.5 159T1253 739q-94 0-163-59t-89-160zM535 739q-136 0-216.5-94T238 422q0-130 81-223t213-93q56 0 108.5 20t95.5 57.5 69 98.5 26 136q0 139-79 230t-217 91z"/><glyph glyph-name="Racute" unicode="Ŕ" horiz-adv-x="1028" d="M176 1366h219q221 0 332-76 65-43 107.5-121.5T877 987q0-157-95-262T532 610L967 0H782L367 598h-39V0H176v1366zm152-143V733h96q142 0 221.5 65.5T725 983q0 139-109 201-68 39-196 39h-92zm311 583l143-92-313-239-88 65z"/><glyph glyph-name="racute" unicode="ŕ" horiz-adv-x="606" d="M139 0v850h148v-92q8 13 20.5 28t36.5 36 59.5 34.5T479 870q61 0 131-34l-69-134q-42 29-86 29-77 0-119-53-49-65-49-229V0H139zm377 1364l152-70-275-276-92 49z"/><glyph glyph-name="Rcommaaccent" unicode="Ŗ" horiz-adv-x="1028" d="M176 1366h219q221 0 332-76 65-43 107.5-121.5T877 987q0-157-95-262T532 610L967 0H782L367 598h-39V0H176v1366zm152-143V733h96q142 0 221.5 65.5T725 983q0 139-109 201-68 39-196 39h-92zm37-1653l114 328 131-50-143-319z"/><glyph glyph-name="rcommaaccent" unicode="ŗ" horiz-adv-x="606" d="M139 0v850h148v-92q8 13 20.5 28t36.5 36 59.5 34.5T479 870q61 0 131-34l-69-134q-42 29-86 29-77 0-119-53-49-65-49-229V0H139zm-6-430l115 328 131-50-143-319z"/><glyph glyph-name="Rcaron" unicode="Ř" horiz-adv-x="1028" d="M176 1366h219q221 0 332-76 65-43 107.5-121.5T877 987q0-157-95-262T532 610L967 0H782L367 598h-39V0H176v1366zm152-143V733h96q142 0 221.5 65.5T725 983q0 139-109 201-68 39-196 39h-92zm143 426l180 155 107-84-287-243-287 243 107 84z"/><glyph glyph-name="rcaron" unicode="ř" horiz-adv-x="606" d="M139 0v850h148v-92q8 13 20.5 28t36.5 36 59.5 34.5T479 870q61 0 131-34l-69-134q-42 29-86 29-77 0-119-53-49-65-49-229V0H139zm271 1174l188 165 94-73-282-248-283 248 94 73z"/><glyph glyph-name="Sacute" unicode="Ś" horiz-adv-x="1060" d="M907 1176l-121-80q-31 63-79 102-63 47-154 47-102 0-165.5-58T324 1034q0-39 11.5-66t39.5-53q19-19 46.5-36.5t43.5-25 53-24.5l131-57q146-64 211-129 98-98 98-248 0-187-122.5-303.5T526-25Q342-25 229 86q-94 91-127 242l148 41q14-103 82-174 76-76 196-76 132 0 203.5 79.5T803 389q0 98-68 160-18 17-46 34.5t-49.5 28T571 643l-122 57q-3 1-20 9t-23 11l-22 11-24 13-22.5 14-25 16.5-23 17.5-23.5 21q-47 45-70.5 97.5T172 1036q0 157 108 255t275 98q125 0 219-62 83-56 133-151zm-209 630l144-92-314-239-88 65z"/><glyph glyph-name="sacute" unicode="ś" horiz-adv-x="720" d="M610 717l-121-64q-16 38-47 62t-71 24q-43 0-73-24.5T268 643q0-42 28-64t110-57q160-66 212-131 46-56 46-137 0-130-83-204.5T371-25q-18 0-38 2T272.5-9t-74 33-69 65T74 193l127 53q7-21 19-41.5t32.5-44.5 52-39 68.5-15q67 0 103 41.5t36 94.5q0 29-9 50t-31 38-40.5 26.5T375 383q-86 38-133 65t-74 60q-39 48-39 125 0 110 69 173.5T377 870q161 0 233-153zm-123 647l152-70-274-276-93 49z"/><glyph glyph-name="Scircumflex" unicode="Ŝ" horiz-adv-x="1060" d="M907 1176l-121-80q-31 63-79 102-63 47-154 47-102 0-165.5-58T324 1034q0-39 11.5-66t39.5-53q19-19 46.5-36.5t43.5-25 53-24.5l131-57q146-64 211-129 98-98 98-248 0-187-122.5-303.5T526-25Q342-25 229 86q-94 91-127 242l148 41q14-103 82-174 76-76 196-76 132 0 203.5 79.5T803 389q0 98-68 160-18 17-46 34.5t-49.5 28T571 643l-122 57q-3 1-20 9t-23 11l-22 11-24 13-22.5 14-25 16.5-23 17.5-23.5 21q-47 45-70.5 97.5T172 1036q0 157 108 255t275 98q125 0 219-62 83-56 133-151zm-346 456l-180-155-107 84 287 243 287-243-107-84z"/><glyph glyph-name="scircumflex" unicode="ŝ" horiz-adv-x="720" d="M610 717l-121-64q-16 38-47 62t-71 24q-43 0-73-24.5T268 643q0-42 28-64t110-57q160-66 212-131 46-56 46-137 0-130-83-204.5T371-25q-18 0-38 2T272.5-9t-74 33-69 65T74 193l127 53q7-21 19-41.5t32.5-44.5 52-39 68.5-15q67 0 103 41.5t36 94.5q0 29-9 50t-31 38-40.5 26.5T375 383q-86 38-133 65t-74 60q-39 48-39 125 0 110 69 173.5T377 870q161 0 233-153zm-233 467l-189-166-94 74 283 247 282-247-94-74z"/><glyph glyph-name="Scedilla" unicode="Ş" horiz-adv-x="1060" d="M907 1176l-121-80q-31 63-79 102-63 47-154 47-102 0-165.5-58T324 1034q0-39 11.5-66t39.5-53q19-19 46.5-36.5t43.5-25 53-24.5l131-57q146-64 211-129 98-98 98-248 0-187-122.5-303.5T526-25Q342-25 229 86q-94 91-127 242l148 41q14-103 82-174 76-76 196-76 132 0 203.5 79.5T803 389q0 98-68 160-18 17-46 34.5t-49.5 28T571 643l-122 57q-3 1-20 9t-23 11l-22 11-24 13-22.5 14-25 16.5-23 17.5-23.5 21q-47 45-70.5 97.5T172 1036q0 157 108 255t275 98q125 0 219-62 83-56 133-151zM520-106l144-62-213-262-103 53z"/><glyph glyph-name="scedilla" unicode="ş" horiz-adv-x="720" d="M610 717l-121-64q-16 38-47 62t-71 24q-43 0-73-24.5T268 643q0-42 28-64t110-57q160-66 212-131 46-56 46-137 0-130-83-204.5T371-25q-18 0-38 2T272.5-9t-74 33-69 65T74 193l127 53q7-21 19-41.5t32.5-44.5 52-39 68.5-15q67 0 103 41.5t36 94.5q0 29-9 50t-31 38-40.5 26.5T375 383q-86 38-133 65t-74 60q-39 48-39 125 0 110 69 173.5T377 870q161 0 233-153zM360-106l136-56-207-262-101 49z"/><glyph glyph-name="Scaron" unicode="Š" horiz-adv-x="1060" d="M907 1176l-121-80q-31 63-79 102-63 47-154 47-102 0-165.5-58T324 1034q0-39 11.5-66t39.5-53q19-19 46.5-36.5t43.5-25 53-24.5l131-57q146-64 211-129 98-98 98-248 0-187-122.5-303.5T526-25Q342-25 229 86q-94 91-127 242l148 41q14-103 82-174 76-76 196-76 132 0 203.5 79.5T803 389q0 98-68 160-18 17-46 34.5t-49.5 28T571 643l-122 57q-3 1-20 9t-23 11l-22 11-24 13-22.5 14-25 16.5-23 17.5-23.5 21q-47 45-70.5 97.5T172 1036q0 157 108 255t275 98q125 0 219-62 83-56 133-151zm-346 473l180 155 107-84-287-243-287 243 107 84z"/><glyph glyph-name="scaron" unicode="š" horiz-adv-x="720" d="M610 717l-121-64q-16 38-47 62t-71 24q-43 0-73-24.5T268 643q0-42 28-64t110-57q160-66 212-131 46-56 46-137 0-130-83-204.5T371-25q-18 0-38 2T272.5-9t-74 33-69 65T74 193l127 53q7-21 19-41.5t32.5-44.5 52-39 68.5-15q67 0 103 41.5t36 94.5q0 29-9 50t-31 38-40.5 26.5T375 383q-86 38-133 65t-74 60q-39 48-39 125 0 110 69 173.5T377 870q161 0 233-153zm-233 457l188 165 94-73-282-248-283 248 94 73z"/><glyph glyph-name="Tcedilla" unicode="Ţ" horiz-adv-x="872" d="M844 1223H512V0H360v1223H29v143h815v-143zM418-106l143-62-213-262-102 53z"/><glyph glyph-name="tcedilla" unicode="ţ" horiz-adv-x="438" d="M438 715H291V0H143v715H53v135h90v307h148V850h147V715zM197-106l135-56-207-262-100 49z"/><glyph glyph-name="Tcaron" unicode="Ť" horiz-adv-x="872" d="M844 1223H512V0H360v1223H29v143h815v-143zm-408 426l180 155 107-84-287-243-286 243 106 84z"/><glyph glyph-name="tcaron" unicode="ť" horiz-adv-x="565" d="M438 715H291V0H143v715H53v135h90v307h148V850h147V715zm-69 370l106 328 131-49-143-320z"/><glyph glyph-name="Utilde" unicode="Ũ" horiz-adv-x="1323" d="M328 1366V528q0-59 2-90t11-81 32.5-88.5T436 197q41-35 104.5-56.5T662 119t121 21.5T887 197q39 33 62.5 71.5T982 357t11 81 2 90v838h152V487q0-100-17.5-178.5T1061 160Q998 74 894 24.5T662-25 429.5 24.5 262 160q-51 70-68.5 148.5T176 487v879h152zm563 358l88-71q-18-49-53-84-61-64-144-64-23 0-47 6.5t-40 14-50 24.5q-84 41-115 41-35 0-61-26-27-31-35-64l-90 74q19 52 62 92 55 55 129 55 51 0 139-43 3-2 16.5-8.5t17.5-9 15.5-8 17.5-7.5 15.5-5 17-4 14.5-1q37 0 66 29 25 25 37 59z"/><glyph glyph-name="utilde" unicode="ũ" horiz-adv-x="954" d="M287 850V354q0-41 1.5-64t11-58 28.5-60q52-66 149-66 98 0 150 66 19 25 28.5 60t11 58 1.5 64v496h147V338q0-88-15.5-146.5T737 82Q635-25 477-25T217 82q-47 51-62.5 109.5T139 338v512h148zm-39 168l-86 69q33 57 69 93 52 49 117 49 64 0 144-41 32-17 44-23t32-12 38-6q38 0 60 24 26 29 43 64l84-70q-15-41-54-80-59-61-135-61-48 0-141 43-83 39-113 39t-59-29q-23-23-43-59z"/><glyph glyph-name="Umacron" unicode="Ū" horiz-adv-x="1323" d="M328 1366V528q0-59 2-90t11-81 32.5-88.5T436 197q41-35 104.5-56.5T662 119t121 21.5T887 197q39 33 62.5 71.5T982 357t11 81 2 90v838h152V487q0-100-17.5-178.5T1061 160Q998 74 894 24.5T662-25 429.5 24.5 262 160q-51 70-68.5 148.5T176 487v879h152zm6 135v131h655v-131H334z"/><glyph glyph-name="umacron" unicode="ū" horiz-adv-x="954" d="M287 850V354q0-41 1.5-64t11-58 28.5-60q52-66 149-66 98 0 150 66 19 25 28.5 60t11 58 1.5 64v496h147V338q0-88-15.5-146.5T737 82Q635-25 477-25T217 82q-47 51-62.5 109.5T139 338v512h148zm-119 201v123h618v-123H168z"/><glyph glyph-name="Ubreve" unicode="Ŭ" horiz-adv-x="1323" d="M328 1366V528q0-59 2-90t11-81 32.5-88.5T436 197q41-35 104.5-56.5T662 119t121 21.5T887 197q39 33 62.5 71.5T982 357t11 81 2 90v838h152V487q0-100-17.5-178.5T1061 160Q998 74 894 24.5T662-25 429.5 24.5 262 160q-51 70-68.5 148.5T176 487v879h152zm516 356h135q-15-78-64-137-94-108-253-108-160 0-254 108-49 59-64 137h135q14-44 51-73 52-41 132-41 79 0 131 41 37 29 51 73z"/><glyph glyph-name="ubreve" unicode="ŭ" horiz-adv-x="954" d="M287 850V354q0-41 1.5-64t11-58 28.5-60q52-66 149-66 98 0 150 66 19 25 28.5 60t11 58 1.5 64v496h147V338q0-88-15.5-146.5T737 82Q635-25 477-25T217 82q-47 51-62.5 109.5T139 338v512h148zm-107 414h125q13-48 49-80 49-43 123-43t123 43q36 32 49 80h125q-12-68-59-138-85-108-238-108-152 0-237 108-48 72-60 138z"/><glyph glyph-name="Uring" unicode="Ů" horiz-adv-x="1323" d="M328 1366V528q0-59 2-90t11-81 32.5-88.5T436 197q41-35 104.5-56.5T662 119t121 21.5T887 197q39 33 62.5 71.5T982 357t11 81 2 90v838h152V487q0-100-17.5-178.5T1061 160Q998 74 894 24.5T662-25 429.5 24.5 262 160q-51 70-68.5 148.5T176 487v879h152zm153 309q0 73 53.5 126.5T662 1855t127-53.5 53-126.5-53-126.5-127-53.5-127.5 53.5T481 1675zm94 2q0-34 26.5-60t60.5-26 60 26 26 60-26 60-60 26-60.5-26-26.5-60z"/><glyph glyph-name="uring" unicode="ů" horiz-adv-x="954" d="M287 850V354q0-41 1.5-64t11-58 28.5-60q52-66 149-66 98 0 150 66 19 25 28.5 60t11 58 1.5 64v496h147V338q0-88-15.5-146.5T737 82Q635-25 477-25T217 82q-47 51-62.5 109.5T139 338v512h148zm14 344q0 72 52 124t124 52 124-52 52-124-52-124-124-52-124 52-52 124zm90 0q0-34 26-60t60-26 60 26 26 60-26 60-60 26-60-26-26-60z"/><glyph glyph-name="Uhungarumlaut" unicode="Ű" horiz-adv-x="1323" d="M328 1366V528q0-59 2-90t11-81 32.5-88.5T436 197q41-35 104.5-56.5T662 119t121 21.5T887 197q39 33 62.5 71.5T982 357t11 81 2 90v838h152V487q0-100-17.5-178.5T1061 160Q998 74 894 24.5T662-25 429.5 24.5 262 160q-51 70-68.5 148.5T176 487v879h152zm342 440l143-82-301-249-88 53zm307 0l143-82-301-249-88 53z"/><glyph glyph-name="uhungarumlaut" unicode="ű" horiz-adv-x="954" d="M287 850V354q0-41 1.5-64t11-58 28.5-60q52-66 149-66 98 0 150 66 19 25 28.5 60t11 58 1.5 64v496h147V338q0-88-15.5-146.5T737 82Q635-25 477-25T217 82q-47 51-62.5 109.5T139 338v512h148zm190 514l148-66-281-278-84 47zm275 0l143-66-277-278-83 47z"/><glyph glyph-name="Uogonek" unicode="Ų" horiz-adv-x="1323" d="M328 1366V502q0-93 16.5-160.5T416 217q43-43 111-70.5T662 119q58 0 121 21.5T887 197q38 32 62 72t33 87.5 11 75 2 74.5v860h152V487q0-48-3-85.5t-13.5-90-36-101T1030 121q-12-12-27.5-24.5T965 70t-36.5-23-43-25.5T848 0q-84-47-112-76-5-5-9-10-41-47-41-98 0-36 27-60 27-22 80-22 50 0 98 26l-17-120q-59-29-120-29-95 0-156 61-43 46-43 115 0 64 43 123 27 39 64 65-115 0-223.5 45.5T262 160q-51 70-68.5 148T176 487v879h152z"/><glyph glyph-name="uogonek" unicode="ų" horiz-adv-x="954" d="M287 850V354q0-41 1.5-64t11-58 28.5-60q52-66 149-66 98 0 150 66 19 25 28.5 60t11 58 1.5 64v496h147V338q0-53-3-87t-21.5-83.5T737 82q-14-14-30.5-26.5t-26.5-19-34-21T614-4q-68-41-102-84-41-48-41-96 0-40 27-60 28-22 80-22 51 0 98 26l-17-112q-50-29-116-29-93 0-150 57-45 45-45 113 0 60 33 107 28 41 76 79-146 7-240 107-47 51-62.5 109.5T139 338v512h148z"/><glyph glyph-name="Ydieresis" unicode="Ÿ" horiz-adv-x="1085" d="M465 0v588L16 1366h177l348-610 352 610h176L616 588V0H465zM244 1606q0 43 30.5 73.5T348 1710t74-30.5 31-73.5-31-74-74-31-73.5 31-30.5 74zm389 0q0 43 30.5 73.5T737 1710t74-30.5 31-73.5-31-74-74-31-73.5 31-30.5 74z"/><glyph glyph-name="Zacute" unicode="Ź" horiz-adv-x="1097" d="M1049 1366L303 143h725V0H49l746 1223H145v143h904zm-332 440l143-92-313-239-88 65z"/><glyph glyph-name="zacute" unicode="ź" horiz-adv-x="942" d="M926 850L311 135h590V0H16l615 715H135v135h791zm-328 514l152-70-275-276-92 49z"/><glyph glyph-name="Zdotaccent" unicode="Ż" horiz-adv-x="1097" d="M1049 1366L303 143h725V0H49l746 1223H145v143h904zm-588 240q0 50 31.5 81t80.5 31q50 0 81.5-31.5T686 1606q0-50-32-81.5t-81-31.5-80.5 31.5T461 1606z"/><glyph glyph-name="zdotaccent" unicode="ż" horiz-adv-x="942" d="M926 850L311 135h590V0H16l615 715H135v135h791zm-523 283q0 46 31.5 77t77.5 31 77.5-31 31.5-77-31.5-77.5T512 1024t-77.5 31.5T403 1133z"/><glyph glyph-name="Zcaron" unicode="Ž" horiz-adv-x="1097" d="M1049 1366L303 143h725V0H49l746 1223H145v143h904zm-476 283l181 155 106-84-287-243-286 243 106 84z"/><glyph glyph-name="zcaron" unicode="ž" horiz-adv-x="942" d="M926 850L311 135h590V0H16l615 715H135v135h791zm-414 324l188 165 95-73-283-248-283 248 95 73z"/><glyph glyph-name="uni018F" unicode="Ə" horiz-adv-x="1548" d="M270 989l-112 103q68 92 157 161 177 136 418 136 201 0 364.5-93.5t256-255.5 92.5-358-91.5-358T1101 68.5 741-25q-170 0-300 69.5T233 221q-63 86-97 200.5T102 653v33h1188q0 152-69.5 279.5T1022 1169t-291 76q-194 0-332-115-70-57-129-141zm1006-446H258q5-109 55-195 59-105 171-167t247-62q198 0 351 119.5T1276 543z"/><glyph glyph-name="florin" unicode="ƒ" horiz-adv-x="1163" d="M874 727H653L528 53q-19-107-44.5-178.5T401-252q-99-96-284-96-36 0-86 8l28 131q28-4 52-4 121 0 182 59 62 62 98 263l113 618H356l19 123h151l68 367q29 160 100 231 68 68 189 68 65 0 131-21l-27-137q-53 22-94 22-53 0-90-32-43-43-66-172l-61-326h217z"/><glyph glyph-name="uni01CF" unicode="Ǐ" horiz-adv-x="503" d="M174 1366h152V0H174v1366zm78 283l180 155 107-84-287-243-287 243 107 84z"/><glyph glyph-name="uni01D0" unicode="ǐ" horiz-adv-x="425" d="M139 850h148V0H139v850zm74 336l154 137 88-72-242-217-242 217 88 72z"/><glyph glyph-name="uni01DD" unicode="ǝ" horiz-adv-x="987" d="M215 561L92 629q43 81 105 137 114 104 282 104 63 0 122.5-15.5T716 804t95.5-85.5 65-126T901 426q0-195-112.5-323T487-25q-114 0-195 45T164 131q-43 61-63.5 148.5T86 451h664q-1 129-79.5 208.5T477 739q-104 0-174-61-58-49-88-117zm522-233H238q15-99 83-160.5T487 106q93 0 163 63t87 159z"/><glyph glyph-name="Gcaron" unicode="Ǧ" horiz-adv-x="1552" d="M881 543v143h569v-33q0-117-34-231.5T1319 221q-18-25-38.5-47.5t-68-62-99.5-67T980.5-4 811-25q-200 0-362.5 93.5T194 324t-92 358 92.5 358 256 255.5T815 1389q241 0 418-136 91-70 158-161l-113-103q-59 84-129 141-143 115-332 115-162 0-290.5-75T328 966.5 258 680q0-108 33-201t88-158 127-111.5T656 141t157-22q135 0 247 62.5T1231 348q50 86 55 195H881zM776 1649l180 155 107-84-287-243-287 243 107 84z"/><glyph glyph-name="gcaron" unicode="ǧ" horiz-adv-x="1077" d="M791 729v121h147V20q0-66-2.5-106.5t-22-108T856-313q-51-70-139-114t-201-44q-188 0-303 115Q102-245 102-82h146q0-104 65-176 74-82 205-82 154 0 225 119 48 78 48 217v123Q679-25 500-25 324-25 209 90 86 213 86 426q0 207 123 330 55 54 130.5 84T500 870q182 0 291-141zm-275 10q-112 0-192-80-86-88-86-233 0-161 96-250 77-70 182-70 114 0 186 72 44 42 70.5 107.5T799 424t-24.5 137T709 664q-75 75-193 75zm23 435l188 165 94-73-282-248-283 248 94 73z"/><glyph glyph-name="AEacute" unicode="Ǽ" horiz-adv-x="1843" d="M1102 0L940 383H358L197 0H29l608 1366h600l59-143H745l170-406h541l60-143H979l221-531h555l60-143h-713zM424 526h457l-226 535zm666 1280l143-92-313-239-89 65z"/><glyph glyph-name="aeacute" unicode="ǽ" horiz-adv-x="1585" d="M1366 287l123-74q-24-45-55-83.5T1357 54 1246.5-4 1106-25q-218 0-334 170Q676-25 453-25q-158 0-262.5 72T86 252q0 132 100 206t254 74q144 0 244-71 4 110-39 180-57 98-203 98-112 0-262-53v139q137 45 264 45 240 0 322-172 52 84 138 128t190 44q186 0 295.5-125T1499 410v-15H836q4-125 81-207t187-82q85 0 154 51t108 130zM846 518h502q-13 102-83.5 161.5T1096 739q-95 0-164-59t-86-162zM453 401q-105 0-162.5-42T233 252q0-25 10.5-49t33.5-46.5 67.5-36.5T449 106q116 0 171.5 46.5T676 258q0 54-54.5 98.5T453 401zm467 963l151-70-274-276-92 49z"/><glyph glyph-name="Scommaaccent" unicode="Ș" horiz-adv-x="1060" d="M907 1176l-121-80q-31 63-79 102-63 47-154 47-102 0-165.5-58T324 1034q0-39 11.5-66t39.5-53q19-19 46.5-36.5t43.5-25 53-24.5l131-57q146-64 211-129 98-98 98-248 0-187-122.5-303.5T526-25Q342-25 229 86q-94 91-127 242l148 41q14-103 82-174 76-76 196-76 132 0 203.5 79.5T803 389q0 98-68 160-18 17-46 34.5t-49.5 28T571 643l-122 57q-3 1-20 9t-23 11l-22 11-24 13-22.5 14-25 16.5-23 17.5-23.5 21q-47 45-70.5 97.5T172 1036q0 157 108 255t275 98q125 0 219-62 83-56 133-151zM385-430l115 328 131-50-144-319z"/><glyph glyph-name="scommaaccent" unicode="ș" horiz-adv-x="720" d="M610 717l-121-64q-16 38-47 62t-71 24q-43 0-73-24.5T268 643q0-42 28-64t110-57q160-66 212-131 46-56 46-137 0-130-83-204.5T371-25q-18 0-38 2T272.5-9t-74 33-69 65T74 193l127 53q7-21 19-41.5t32.5-44.5 52-39 68.5-15q67 0 103 41.5t36 94.5q0 29-9 50t-31 38-40.5 26.5T375 383q-86 38-133 65t-74 60q-39 48-39 125 0 110 69 173.5T377 870q161 0 233-153zM225-430l115 328 131-50-143-319z"/><glyph glyph-name="Tcommaaccent" unicode="Ț" horiz-adv-x="872" d="M844 1223H512V0H360v1223H29v143h815v-143zM262-430l115 328 131-50-143-319z"/><glyph glyph-name="tcommaaccent" unicode="ț" horiz-adv-x="438" d="M438 715H291V0H143v715H53v135h90v307h148V850h147V715zM61-430l115 328 131-50-143-319z"/><glyph glyph-name="uni0228" unicode="Ȩ" horiz-adv-x="987" d="M885 1366v-143H328V817h540V674H328V143h557V0H176v1366h709zM522-106l144-62-213-262-103 53z"/><glyph glyph-name="uni0229" unicode="ȩ" horiz-adv-x="985" d="M770 285l123-68q-43-81-105-137Q671-25 506-25q-80 0-152.5 26T220 78.5t-97.5 140T86 420q0 195 112 322.5T498 870q114 0 195-45t126-110q39-56 61-145t19-175H238q1-129 79-209t191-80q100 0 174 62 58 49 88 117zM248 518h500q-19 100-87.5 160.5T498 739q-93 0-163-62.5T248 518zm276-624l135-56-206-262-101 49z"/><glyph glyph-name="uni0237" unicode="ȷ" horiz-adv-x="425" d="M139 850h148V-471H139V850z"/><glyph glyph-name="uni0259" unicode="ə" horiz-adv-x="987" d="M215 561L92 629q43 81 105 137 114 104 282 104 63 0 122.5-15.5T716 804t95.5-85.5 65-126T901 426q0-195-112.5-323T487-25q-114 0-195 45T164 131q-43 61-63.5 148.5T86 451h664q-1 129-79.5 208.5T477 739q-104 0-174-61-58-49-88-117zm522-233H238q15-99 83-160.5T487 106q93 0 163 63t87 159z"/><glyph glyph-name="afii57929" unicode="ʼ" d="M389 1085l107 328 131-49-144-320z"/><glyph glyph-name="circumflex" unicode="ˆ" d="M512 1184l-188-166-95 74 283 247 283-247-95-74z"/><glyph glyph-name="caron" unicode="ˇ" d="M512 1174l188 165 95-73-283-248-283 248 95 73z"/><glyph glyph-name="uni02C9" unicode="ˉ" d="M203 1051v123h618v-123H203z"/><glyph glyph-name="breve" unicode="˘" d="M215 1264h125q13-48 49-80 49-43 123-43t123 43q36 32 49 80h125q-12-68-59-138-85-108-238-108t-238 108q-47 70-59 138z"/><glyph glyph-name="dotaccent" unicode="˙" d="M403 1133q0 46 31.5 77t77.5 31 77.5-31 31.5-77-31.5-77.5T512 1024t-77.5 31.5T403 1133z"/><glyph glyph-name="ring" unicode="˚" d="M336 1194q0 72 52 124t124 52 124-52 52-124-52-124-124-52-124 52-52 124zm90 0q0-34 26-60t60-26 60 26 26 60-26 60-60 26-60-26-26-60z"/><glyph glyph-name="ogonek" unicode="˛" d="M745-240l-16-112q-54-29-115-29-79 0-137.5 47.5T418-211q0 69 49 131 38 50 98 80h119q-61-39-96-80-47-56-47-104 0-35 24.5-58.5T647-266q55 0 98 26z"/><glyph glyph-name="tilde" unicode="˜" d="M283 1018l-86 69q33 57 69 93 52 49 117 49 63 0 143-41 31-16 44-22.5t32.5-12.5 38.5-6q37 0 59 24 26 29 43 64l84-70q-16-43-53-80-59-61-135-61-48 0-141 43-83 39-113 39t-59-29q-23-23-43-59z"/><glyph glyph-name="hungarumlaut" unicode="˝" d="M512 1364l147-66-280-278-84 47zm274 0l144-66-277-278-84 47z"/><glyph glyph-name="acutecomb" unicode="́" horiz-adv-x="4" d="M-381 1364l152-70-275-276-92 49z"/><glyph glyph-name="uni0394" unicode="Δ" horiz-adv-x="1368" d="M1311 0H57l549 1366h156zM684 1176L274 143h820z"/><glyph glyph-name="uni0394" unicode="∆" horiz-adv-x="1368" d="M1311 0H57l549 1366h156zM684 1176L274 143h820z"/><glyph glyph-name="uni03A9" unicode="Ω" horiz-adv-x="1368" d="M776 0v143q75 40 150 102.5T1049 375q104 153 104 346 0 255-156 403-128 121-313 121t-313-121Q215 976 215 721q0-193 104-346 48-67 123-129.5T592 143V0H59v143h367q-154 80-248 211Q59 519 59 735q0 149 51 275t138 211q168 168 436 168t436-168q87-85 138-211t51-275q0-216-119-381-94-131-248-211h367V0H776z"/><glyph glyph-name="uni03A9" unicode="Ω" horiz-adv-x="1368" d="M776 0v143q75 40 150 102.5T1049 375q104 153 104 346 0 255-156 403-128 121-313 121t-313-121Q215 976 215 721q0-193 104-346 48-67 123-129.5T592 143V0H59v143h367q-154 80-248 211Q59 519 59 735q0 149 51 275t138 211q168 168 436 168t436-168q87-85 138-211t51-275q0-216-119-381-94-131-248-211h367V0H776z"/><glyph glyph-name="pi" unicode="π" horiz-adv-x="1101" d="M356 0H209v715H57v135h987V715H893V0H745v715H356V0z"/><glyph glyph-name="afii10023" unicode="Ё" horiz-adv-x="987" d="M885 1366v-143H328V817h540V674H328V143h557V0H176v1366h709zm-656 240q0 43 31 73.5t74 30.5 73.5-30.5T438 1606t-30.5-74-73.5-31-74 31-31 74zm389 0q0 43 31 73.5t74 30.5 73.5-30.5T827 1606t-30.5-74-73.5-31-74 31-31 74z"/><glyph glyph-name="afii10051" unicode="Ђ" horiz-adv-x="1323" d="M922 1223H508V788q146 48 280 48 245 0 359-138 90-111 90-301 0-123-41.5-207T1094 63Q993-12 819-12q-57 0-139 12v143q56-12 129-12 126 0 190 55 82 68 82 213 0 130-57 199-36 42-100.5 68T774 692q-133 0-266-47V0H356v1223H29v143h893v-143z"/><glyph glyph-name="afii10052" unicode="Ѓ" horiz-adv-x="827" d="M176 0v1366h623v-143H328V0H176zm483 1806l144-92-314-239-88 65z"/><glyph glyph-name="afii10053" unicode="Є" horiz-adv-x="1320" d="M1219 1253v-188q-76 76-179 123-129 57-276 57-206 0-345.5-134.5T264 778h791V635H258q-1-150 71-269.5t187.5-183T766 119q155 0 295 67 98 48 158 111V109Q1012-25 766-25q-151 0-277 54T279 177 148.5 400 102 678q0 152 47.5 283t133 225.5T495 1335t279 54q248 0 445-136z"/><glyph glyph-name="afii10054" unicode="Ѕ" horiz-adv-x="1060" d="M907 1176l-121-80q-31 63-79 102-63 47-154 47-102 0-165.5-58T324 1034q0-39 11.5-66t39.5-53q19-19 46.5-36.5t43.5-25 53-24.5l131-57q146-64 211-129 98-98 98-248 0-187-122.5-303.5T526-25Q342-25 229 86q-94 91-127 242l148 41q14-103 82-174 76-76 196-76 132 0 203.5 79.5T803 389q0 98-68 160-18 17-46 34.5t-49.5 28T571 643l-122 57q-3 1-20 9t-23 11l-22 11-24 13-22.5 14-25 16.5-23 17.5-23.5 21q-47 45-70.5 97.5T172 1036q0 157 108 255t275 98q125 0 219-62 83-56 133-151z"/><glyph glyph-name="afii10055" unicode="І" horiz-adv-x="503" d="M176 1366h152V0H176v1366z"/><glyph glyph-name="afii10056" unicode="Ї" horiz-adv-x="503" d="M176 1366h152V0H176v1366zM31 1606q0 43 26.5 73.5T123 1710t65.5-31 26.5-73-26.5-73.5T123 1501t-65.5 31-26.5 74zm258 0q0 42 26.5 73t65.5 31 65.5-30.5T473 1606t-26.5-74-65.5-31-65.5 31.5T289 1606z"/><glyph glyph-name="afii10057" unicode="Ј" horiz-adv-x="626" d="M299 1366h152V383q0-73-3-117t-23-104.5T367 61q-79-86-217-86Q-6-25-94 76l84 119q70-76 155-76 64 0 103 39 24 24 36 64.5t13.5 70.5 1.5 86v987z"/><glyph glyph-name="afii10058" unicode="Љ" horiz-adv-x="1888" d="M315 1366h832V799h184q42 0 79.5-3t87-12.5 90-25.5 81.5-45.5 69.5-69 46-98.5 17.5-131q0-193-119.5-303.5T1360 0H995v1223H467V489q0-148-14-217-26-127-109-202-91-82-233-82-33 0-82 12v143q40-12 75-12 81 0 134 53 19 19 33 43t22.5 59 13 57.5T313 414t2 65v887zm832-711V143h176q34 0 56.5 1.5t61 7.5 73 23 61.5 44q72 68 72 195 0 147-111 207-29 16-72 24t-71 9-86 1h-160z"/><glyph glyph-name="afii10059" unicode="Њ" horiz-adv-x="1921" d="M328 1366V799h700v567h152V799h184q42 0 79.5-3t87-12.5 90-25.5 81.5-45.5 69.5-69 46-98.5 17.5-131q0-193-119.5-303.5T1393 0h-365v655H328V0H176v1366h152zm852-711V143h176q34 0 56.5 1.5t61 7.5 73 23 61.5 44q71 67 71 195 0 147-110 207-29 16-72.5 24t-71 9-86.5 1h-159z"/><glyph glyph-name="afii10060" unicode="Ћ" horiz-adv-x="1388" d="M922 1223H508V821q205 15 283 15 241 0 337-74 41-31 68-72t38-87 15-81 4-78V0h-151v424q0 30-1.5 51t-8.5 57-25 66-47 51q-34 26-91 34.5T782 692q-120 0-274-14V0H356v1223H29v143h893v-143z"/><glyph glyph-name="afii10061" unicode="Ќ" horiz-adv-x="1163" d="M328 1366V780l581 586h205L475 729 1135 0H926L367 627l-39-39V0H176v1366h152zm422 440l143-92-313-239-88 65z"/><glyph glyph-name="afii10062" unicode="Ў" horiz-adv-x="1163" d="M16 1366h185l426-805 356 805h164L530 0H367l174 381zm260 309l144 47q9-32 29.5-55t41-34 45.5-17 36.5-7 21.5-1 21.5 1 36.5 7 45.5 17 41 34 29.5 55l143-47q-5-16-15-34.5t-35-49.5-58-55-88-41.5-121-17.5-121.5 17.5-88 41.5-58 55-35.5 49.5-15 34.5z"/><glyph glyph-name="afii10145" unicode="Џ" horiz-adv-x="1347" d="M176 0v1366h152V143h692v1223h151V0H745v-328H602V0H176z"/><glyph glyph-name="afii10017" unicode="А" horiz-adv-x="1273" d="M1090 0L930 385H348L184 0H16l629 1432L1257 0h-167zM408 528h462l-229 547z"/><glyph glyph-name="afii10018" unicode="Б" horiz-adv-x="1085" d="M176 0v1366h678v-143H328V799h184q42 0 79.5-3t87-12.5 90-25.5 81.5-45.5 69.5-69 46-98.5T983 414q0-193-119.5-303.5T541 0H176zm152 655V143h176q34 0 56.5 1.5t61 7.5 73 23 61.5 44q71 67 71 195 0 147-110 207-29 16-72.5 24t-71 9-86.5 1H328z"/><glyph glyph-name="afii10019" unicode="В" horiz-adv-x="1085" d="M176 1366h246q206 0 313-86 47-36 85-105t38-178q0-177-135-268 68-17 120-54.5t81.5-86.5 44-100T983 385q0-93-39.5-171T844 90q-39-31-82-50.5t-89.5-27-79-10T516 0H176v1366zm152-143V766h114q31 0 59.5 3t69 16.5 69.5 36 50 67T711 993q0 46-13 83.5t-32 61-46.5 40.5-51 25.5-51.5 13-42.5 5.5-28.5 1H328zm0-592V143h174q79 0 136.5 11.5T741 201q41 30 65.5 79T831 389q0 74-34 124.5T715 590q-72 41-232 41H328z"/><glyph glyph-name="afii10020" unicode="Г" horiz-adv-x="827" d="M176 0v1366h623v-143H328V0H176z"/><glyph glyph-name="afii10021" unicode="Д" horiz-adv-x="1310" d="M295 1366h831V143h156v-430h-143V0H172v-287H29v430q70-3 127 50t90 135q49 123 49 358v680zm151-143V686q0-253-49-381-35-93-104-162h682v1080H446z"/><glyph glyph-name="afii10022" unicode="Е" horiz-adv-x="987" d="M885 1366v-143H328V817h540V674H328V143h557V0H176v1366h709z"/><glyph glyph-name="afii10024" unicode="Ж" horiz-adv-x="1658" d="M754 1366h151V780l520 586h189l-574-637L1630 0h-192L938 625l-33-37V0H754v588l-33 37L221 0H29l589 729-573 637h188l521-586v586z"/><glyph glyph-name="afii10025" unicode="З" horiz-adv-x="1179" d="M322 1098l-117 92q135 199 391 199 183 0 289-97 106-95 106-252 0-100-52-174.5T803 752q132-30 203-126.5t71-226.5q0-214-170-333-133-91-311-91-97 0-180 28T273 79.5t-101.5 104T102 303l148 66q41-116 135-183t217-67q126 0 209 57 111 77 111 219 0 60-17 106.5T856.5 576t-66 47-80 27-79.5 11-74 3H434v143h123q136 0 207.5 65.5T836 1038q0 88-56 144-61 63-184 63-82 0-149.5-32T322 1098z"/><glyph glyph-name="afii10026" unicode="И" horiz-adv-x="1454" d="M1126 0v1042L176-61v1427h152V319l950 1104V0h-152z"/><glyph glyph-name="afii10027" unicode="Й" horiz-adv-x="1454" d="M1126 0v1042L176-61v1427h152V319l950 1104V0h-152zM410 1675l143 47q9-32 29.5-55t41-34 45.5-17 36.5-7 21.5-1 21.5 1 36.5 7 45.5 17 41 34 29.5 55l143-47q-5-16-15-34.5t-35-49.5-58-55-88-41.5-121-17.5-121 17.5-88 41.5-58 55-35 49.5-15 34.5z"/><glyph glyph-name="afii10028" unicode="К" horiz-adv-x="1163" d="M328 1366V780l581 586h205L475 729 1135 0H926L367 627l-39-39V0H176v1366h152z"/><glyph glyph-name="afii10029" unicode="Л" horiz-adv-x="1323" d="M315 1366h832V0H995v1223H467V489q0-148-14-217-26-127-109-202-91-82-233-82-33 0-82 12v143q40-12 75-12 81 0 134 53 19 19 33 43t22.5 59 13 57.5T313 414t2 65v887z"/><glyph glyph-name="afii10030" unicode="М" horiz-adv-x="1767" d="M285 0H129l227 1442L881 289l534 1155L1628 0h-155l-130 950L879-57 420 950z"/><glyph glyph-name="afii10031" unicode="Н" horiz-adv-x="1355" d="M328 1366V811h700v555h152V0h-152v668H328V0H176v1366h152z"/><glyph glyph-name="afii10032" unicode="О" horiz-adv-x="1626" d="M813-25q-146 0-277.5 54T309 176 158 401t-56 281q0 150 56 282t151.5 225T536 1335.5t277 53.5 277-53.5 226.5-146.5T1468 964t56-282q0-149-56-281t-151-225-226.5-147T813-25zm0 1270q-151 0-279-75T332 965.5 258 682t74-283.5T534 194t279-75 279 75 202 204.5 74 283.5-74 283.5-202 204.5-279 75z"/><glyph glyph-name="afii10033" unicode="П" horiz-adv-x="1355" d="M176 1366h1004V0h-152v1223H328V0H176v1366z"/><glyph glyph-name="afii10034" unicode="Р" horiz-adv-x="933" d="M176 1366h248q115 0 197.5-20t146.5-76q125-108 125-293 0-60-14.5-114t-48-104-82.5-86-123-57.5T461 594H328V0H176v1366zm152-143V737h125q136 0 212 65t76 183q0 62-22.5 108t-54.5 70-76.5 38.5-78 18-69.5 3.5H328z"/><glyph glyph-name="afii10035" unicode="С" horiz-adv-x="1323" d="M1221 1253v-188q-81 81-179 127-116 53-235 53-154 0-280.5-76T329 962.5 258 676q0-107 33.5-199.5t88.5-157T507 209t149-68 153-22q131 0 254 63 86 43 158 115V109Q1034-25 809-25q-200 0-362 93T193.5 322 102 678q0 151 54.5 283t149 226T533 1335t284 54q226 0 404-136z"/><glyph glyph-name="afii10036" unicode="Т" horiz-adv-x="872" d="M844 1223H512V0H360v1223H29v143h815v-143z"/><glyph glyph-name="afii10037" unicode="У" horiz-adv-x="1163" d="M16 1366h185l426-805 356 805h164L530 0H367l174 381z"/><glyph glyph-name="afii10038" unicode="Ф" horiz-adv-x="1683" d="M766 0v193h-37q-106 0-194.5 18t-152 48.5T269 333t-80.5 89.5T138 523t-28 103-8 99 8 99 28 103 50.5 100.5T269 1117t113.5 73.5 152 48.5 194.5 18h37v164h152v-164h36q106 0 194.5-18t152-48.5T1414 1117t80.5-89.5T1545 927t28-103 8-99-8-99-28-103-50.5-100.5T1414 333t-113.5-73.5-152-48.5T954 193h-36V0H766zm0 336v778h-41q-108 0-191.5-24T399 1027.5t-83.5-91-45-104T258 725t12.5-107.5 45-104 83.5-91T533.5 360 725 336h41zm152 778V336h40q108 0 191.5 24t134.5 62.5 83.5 91 45 104T1425 725t-12.5 107.5-45 104-83.5 91-134.5 62.5-191.5 24h-40z"/><glyph glyph-name="afii10039" unicode="Х" horiz-adv-x="1032" d="M29 0l403 707-366 659h172l282-514 291 514h172L608 707 1004 0H831L518 561 201 0H29z"/><glyph glyph-name="afii10040" unicode="Ц" horiz-adv-x="1355" d="M176 0v1366h152V143h692v1223h151V143h156v-430h-143V0H176z"/><glyph glyph-name="afii10041" unicode="Ч" horiz-adv-x="1208" d="M881 0v586q-205-15-283-15-242 0-338 74-41 31-68 72t-38 87-15 81-4 78v403h152V983q0-30 1.5-51t8.5-57 25-66 47-51q34-26 90.5-34.5T606 715q121 0 275 14v637h151V0H881z"/><glyph glyph-name="afii10042" unicode="Ш" horiz-adv-x="1888" d="M176 0v1366h152V143h540v1223h152V143h541v1223h151V0H176z"/><glyph glyph-name="afii10043" unicode="Щ" horiz-adv-x="1896" d="M176 0v1366h152V143h540v1223h152V143h541v1223h151V143h156v-430h-144V0H176z"/><glyph glyph-name="afii10044" unicode="Ъ" horiz-adv-x="1249" d="M356 0v1223H29v143h479V799h184q42 0 79.5-3t87-12.5 90-25.5 81.5-45.5 69.5-69 46-98.5 17.5-131q0-193-119.5-303.5T721 0H356zm152 655V143h176q34 0 56.5 1.5t61 7.5 73 23 61.5 44q72 68 72 195 0 147-111 207-29 16-72 24t-71 9-86 1H508z"/><glyph glyph-name="afii10045" unicode="Ы" horiz-adv-x="1454" d="M176 0v1366h152V799h184q42 0 79.5-3t87-12.5 90-25.5 81.5-45.5 69.5-69 46-98.5T983 414q0-193-119.5-303.5T541 0H176zm152 655V143h176q34 0 56.5 1.5t61 7.5 73 23 61.5 44q71 67 71 195 0 147-110 207-29 16-72.5 24t-71 9-86.5 1H328zm798 711h152V0h-152v1366z"/><glyph glyph-name="afii10046" unicode="Ь" horiz-adv-x="1069" d="M176 0v1366h152V799h184q42 0 79.5-3t87-12.5 90-25.5 81.5-45.5 69.5-69 46-98.5T983 414q0-193-119.5-303.5T541 0H176zm152 655V143h176q34 0 56.5 1.5t61 7.5 73 23 61.5 44q71 67 71 195 0 147-110 207-29 16-72.5 24t-71 9-86.5 1H328z"/><glyph glyph-name="afii10047" unicode="Э" horiz-adv-x="1320" d="M102 1065v188q197 136 445 136 152 0 279-54t212.5-148.5 133-225.5 47.5-283q0-149-46.5-278T1042 177 832 29 555-25q-246 0-453 134v188q60-63 158-111 140-67 295-67 134 0 249.5 63.5t187.5 183 71 269.5H266v143h791q-15 198-154.5 332.5T557 1245q-147 0-276-57-103-47-179-123z"/><glyph glyph-name="afii10048" unicode="Ю" horiz-adv-x="2027" d="M328 797h209q24 168 117.5 302t243 212 329.5 78q149 0 278-52.5t221.5-145T1872 967t53-285q0-200-90.5-362t-250-253.5T1227-25q-149 0-278.5 55T730 178 588 394.5 530 653H328V0H176v1366h152V797zm899 448q-149 0-273-73T758 969.5 686 682t72-287.5T954 192t273-73 273 73 196.5 202.5T1769 682t-72.5 287.5T1500 1172t-273 73z"/><glyph glyph-name="afii10049" unicode="Я" horiz-adv-x="1044" d="M61 0l402 606q-139 14-230 86-118 96-118 279 0 168 94 272 37 42 84 69t97.5 37.5T474 1363t75 3h319V0H717v598h-82L246 0H61zm656 1223H569q-47 0-79.5-3t-77.5-20-76-49q-66-70-66-176 0-121 78-184 73-58 209-58h160v490z"/><glyph glyph-name="afii10065" unicode="а" horiz-adv-x="1077" d="M791 729v121h147V0H791v119Q679-25 500-25q-82 0-155.5 29t-132 83.5-92.5 142T86 426q0 106 34 192t92 140.5 131.5 83T500 870q183 0 291-141zm-275 10q-116 0-197-82.5T238 426q0-140 74.5-230T516 106q130 0 206.5 93T799 424q0 79-25.5 141t-67 99-90.5 56-100 19z"/><glyph glyph-name="afii10066" unicode="б" horiz-adv-x="1073" d="M795 1434h163q-17-58-49.5-101t-76-68.5T756 1226t-76-24q-5-1-48.5-11.5t-60-15.5-51.5-16-61-24.5-49-30.5q-79-59-126.5-165T231 715h5q91 155 309 155 190 0 316-128.5T987 422q0-193-129-320T522-25Q344-25 229 82q-46 43-76.5 96t-44 113.5-18 111.5T86 520q0 535 242 701 22 15 48.5 28t46 21.5 53 18 48 13T577 1314t48 11q81 19 118 45t52 64zM537 739q-124 0-211.5-84.5T238 422q0-100 43.5-173.5t110.5-108T537 106q123 0 211 84t88 232q0 149-87 233t-212 84z"/><glyph glyph-name="afii10067" unicode="в" horiz-adv-x="880" d="M139 850h322q116 0 178-49 74-60 74-160 0-110-92-170 62-15 106-57 68-65 68-164 0-124-88-193Q632 0 506 0H139v850zm148-346h155q61 0 95 24 41 31 41 88 0 53-41 82-5 3-11 6t-10.5 5-11.5 3.5-11 2.5-12 2-11.5 1.5-13 .5H287V504zm0-373h182q93 0 133 29 49 36 49 94 0 62-43 96-40 31-133 31H287V131z"/><glyph glyph-name="afii10068" unicode="г" horiz-adv-x="651" d="M139 0v850h504V715H287V0H139z"/><glyph glyph-name="afii10069" unicode="д" horiz-adv-x="942" d="M201 850h598V135h127v-360H791V0H143v-225H8v360q53 1 94 32t64 79q35 71 35 225v379zm450-715v580H348V395q0-171-102-260h405z"/><glyph glyph-name="afii10070" unicode="е" horiz-adv-x="985" d="M770 285l123-68q-43-81-105-137Q671-25 506-25q-80 0-152.5 26T220 78.5t-97.5 140T86 420q0 195 112 322.5T498 870q114 0 195-45t126-110q39-56 61-145t19-175H238q1-129 79-209t191-80q100 0 174 62 58 49 88 117zM248 518h500q-19 100-87.5 160.5T498 739q-93 0-163-62.5T248 518z"/><glyph glyph-name="afii10072" unicode="ж" horiz-adv-x="1220" d="M537 850h147V502l320 348h172L807 457 1212 0h-184L713 358l-29-28V0H537v330l-29 28L193 0H8l406 457L45 850h172l320-348v348z"/><glyph glyph-name="afii10073" unicode="з" horiz-adv-x="864" d="M250 633l-103 84q49 70 109 106 80 47 186 47 62 0 110-11.5t91-47.5q74-63 74-162 0-118-96-178 63-15 98-55 59-62 59-156 0-66-29-123.5T668 41q-89-66-242-66-133 0-227 72-69 52-113 146l127 53q22-56 76-96 59-44 139-44 95 0 143 33 25 15 42.5 46t17.5 73q0 66-51 98-43 29-140 29h-86v135h72q76 0 111 23 45 27 45 78 0 59-37 88-34 30-109 30-66 0-117-32-43-26-69-74z"/><glyph glyph-name="afii10074" unicode="и" horiz-adv-x="1007" d="M139 850h148V289l581 626V0H721v567L139-59v909z"/><glyph glyph-name="afii10075" unicode="й" horiz-adv-x="1007" d="M139 850h148V289l581 626V0H721v567L139-59v909zm74 367l123 47q16-55 60.5-89t113.5-34 113.5 34 60.5 89l123-47q-33-92-112-145.5T510 1018t-185 53.5T213 1217z"/><glyph glyph-name="afii10076" unicode="к" horiz-adv-x="864" d="M139 850h148V502l344 348h180L442 471 856 0H664L332 373l-45-43V0H139v850z"/><glyph glyph-name="afii10077" unicode="л" horiz-adv-x="921" d="M782 850V0H635v715H332V332q0-50-2-80.5T312.5 172 266 86Q192-4 61-4 44-4 16 0v135q20-4 33-4 74 0 107 55 28 43 28 146v518h598z"/><glyph glyph-name="afii10078" unicode="м" horiz-adv-x="1187" d="M41 0l205 915 352-692 344 692L1147 0H995L883 526 594-59 301 526 193 0H41z"/><glyph glyph-name="afii10079" unicode="н" horiz-adv-x="974" d="M139 0v850h148V502h401v348h148V0H688v367H287V0H139z"/><glyph glyph-name="afii10080" unicode="о" horiz-adv-x="1073" d="M537-25q-194 0-322.5 127T86 422q0 194 128 321t323 127 322.5-127T987 422q0-193-128-320T537-25zm0 764q-124 0-211.5-84.5T238 422q0-100 43.5-173.5t110.5-108T537 106q123 0 211 84t88 232q0 149-87 233t-212 84z"/><glyph glyph-name="afii10081" unicode="п" horiz-adv-x="962" d="M139 850h684V0H676v715H287V0H139v850z"/><glyph glyph-name="afii10082" unicode="р" horiz-adv-x="1077" d="M287 119v-590H139V850h148V731q111 139 291 139 128 0 224-65.5T944.5 638 991 420q0-118-47-218.5T802.5 38 584-25q-186 0-297 144zm276-13q125 0 201 91t76 223q0 148-84 233.5T561 739t-196.5-86T279 422q0-134 78.5-225T563 106z"/><glyph glyph-name="afii10083" unicode="с" horiz-adv-x="897" d="M805 788V612q-53 67-126 97t-140 30q-126 0-213.5-84.5T238 422q0-147 88.5-231.5T537 106q71 0 145 33.5T811 240V63Q692-25 541-25q-198 0-326.5 126.5T86 420q0 195 129 322.5T541 870q148 0 264-82z"/><glyph glyph-name="afii10084" unicode="т" horiz-adv-x="712" d="M696 715H430V0H283v715H16v135h680V715z"/><glyph glyph-name="afii10085" unicode="у" horiz-adv-x="942" d="M137-471L408 80 16 850h168l301-608 277 608h164L301-471H137z"/><glyph glyph-name="afii10086" unicode="ф" horiz-adv-x="1331" d="M592-471v457Q369-14 233 96 86 216 86 426q0 208 145 328 130 110 361 110v502h147V864q231 0 361-110 145-120 145-328 0-210-147-330Q962-14 739-14v-457H592zm0 588v616q-145 0-227-53-52-33-89.5-95.5T238 426q0-165 118-248 85-61 236-61zm147 616V117q151 0 236 61 119 84 119 248 0 96-37.5 158.5T967 680q-82 53-228 53z"/><glyph glyph-name="afii10087" unicode="х" horiz-adv-x="929" d="M16 0l363 455L70 850h180l219-289 223 289h180L561 453 913 0H733L465 346 197 0H16z"/><glyph glyph-name="afii10088" unicode="ц" horiz-adv-x="970" d="M139 0v850h148V135h381v715h147V135h139v-360H819V0H139z"/><glyph glyph-name="afii10089" unicode="ч" horiz-adv-x="880" d="M594 0v334q-126-19-201-19-138 0-207 62-71 64-71 209v264h147V606q0-66 19-100 29-55 129-55 90 0 184 18v381h147V0H594z"/><glyph glyph-name="afii10090" unicode="ш" horiz-adv-x="1376" d="M139 0v850h148V135h327v715h148V135h328v715h147V0H139z"/><glyph glyph-name="afii10091" unicode="щ" horiz-adv-x="1392" d="M139 0v850h148V135h327v715h148V135h328v715h147V135h139v-360h-135V0H139z"/><glyph glyph-name="afii10092" unicode="ъ" horiz-adv-x="880" d="M201 0v715H16v135h332V524h152q77 0 142-16t116-68q65-65 65-178 0-119-75-190-34-33-81-49.5T586.5 3 498 0H201zm147 131h137q91 0 131 23 56 37 56 108 0 73-54 107-17 12-42 17.5t-40 6-49 .5H348V131z"/><glyph glyph-name="afii10093" unicode="ы" horiz-adv-x="1150" d="M139 0v850h148V524h151q77 0 142-16t116-68q66-66 66-178 0-118-76-190-34-33-81-49.5T524.5 3 436 0H139zm148 131h137q91 0 131 23 55 37 55 108 0 74-53 107-17 12-42 17.5t-40 6-49 .5H287V131zM864 0v850h148V0H864z"/><glyph glyph-name="afii10094" unicode="ь" horiz-adv-x="819" d="M139 0v850h148V524h151q77 0 142-16t116-68q66-66 66-178 0-118-76-190-34-33-81-49.5T524.5 3 436 0H139zm148 131h137q91 0 131 23 55 37 55 108 0 74-53 107-17 12-42 17.5t-40 6-49 .5H287V131z"/><glyph glyph-name="afii10095" unicode="э" horiz-adv-x="866" d="M86 684v143q106 43 231 43 216 0 339.5-124.5T780 420q0-194-125.5-319.5T328-25Q206-25 86 23v143q114-60 240-60 118 0 204.5 72.5T629 369H180v131h449q-24 114-108 176.5T324 739q-119 0-238-55z"/><glyph glyph-name="afii10096" unicode="ю" horiz-adv-x="1413" d="M287 502h153q19 142 115 241 57 60 140 93.5T877 870q196 0 323-127t127-321-127.5-320.5T877-25q-225 0-351 160-81 101-94 232H287V0H139v850h148V502zm590 237q-124 0-208.5-85T584 422q0-149 86-232.5T877 106q123 0 211 84t88 232-87.5 232.5T877 739z"/><glyph glyph-name="afii10097" unicode="я" horiz-adv-x="835" d="M41 0l264 350q-11 0-33.5 4t-63 21-67.5 43q-67 63-67 170 0 120 76 190 35 33 81.5 49.5T311 847t88 3h297V0H549v342h-90L217 0H41zm508 465v254H412q-93 0-133-23-54-35-54-104t54-103q8-5 17-9t16.5-6.5 18-4T347 467t18-1.5 15.5-.5H549z"/><glyph glyph-name="afii10071" unicode="ё" horiz-adv-x="985" d="M770 285l123-68q-43-81-105-137Q671-25 506-25q-80 0-152.5 26T220 78.5t-97.5 140T86 420q0 195 112 322.5T498 870q114 0 195-45t126-110q39-56 61-145t19-175H238q1-129 79-209t191-80q100 0 174 62 58 49 88 117zM248 518h500q-19 100-87.5 160.5T498 739q-93 0-163-62.5T248 518zm-23 608q0 41 31 72t72 31 71.5-31 30.5-72-30.5-71.5T328 1024t-72 30.5-31 71.5zm357 0q0 41 30.5 72t71.5 31 71.5-31 30.5-72-30.5-71.5T684 1024t-71.5 30.5T582 1126z"/><glyph glyph-name="afii10099" unicode="ђ" horiz-adv-x="962" d="M139 0v1053H0v123h139v317h148v-317h409v-123H287V670q91 118 243 118 77 0 141.5-30T774 672q30-44 39.5-96t9.5-132v-620q0-76-13-128.5T758-399q-69-72-187-72-55 0-104 18v144q55-19 96-19 67 0 94 45 19 32 19 123v600q0 106-39 156-48 61-139 61-95 0-150-65-61-73-61-230V0H139z"/><glyph glyph-name="afii10100" unicode="ѓ" horiz-adv-x="651" d="M139 0v850h504V715H287V0H139zm377 1364l152-70-275-276-92 49z"/><glyph glyph-name="afii10101" unicode="є" horiz-adv-x="897" d="M805 788V612q-55 65-126 96t-140 31q-105 0-189.5-64T244 500h444V369H242q13-117 98-190t197-73q71 0 145 33.5T811 240V63Q692-25 541-25q-198 0-326.5 126.5T86 420q0 195 129 322.5T541 870q148 0 264-82z"/><glyph glyph-name="afii10102" unicode="ѕ" horiz-adv-x="720" d="M610 717l-121-64q-16 38-47 62t-71 24q-43 0-73-24.5T268 643q0-42 28-64t110-57q160-66 212-131 46-56 46-137 0-130-83-204.5T371-25q-18 0-38 2T272.5-9t-74 33-69 65T74 193l127 53q7-21 19-41.5t32.5-44.5 52-39 68.5-15q67 0 103 41.5t36 94.5q0 29-9 50t-31 38-40.5 26.5T375 383q-86 38-133 65t-74 60q-39 48-39 125 0 110 69 173.5T377 870q161 0 233-153z"/><glyph glyph-name="afii10103" unicode="і" horiz-adv-x="425" d="M139 850h148V0H139v850zm-30 321q0 43 30.5 74t73.5 31 73.5-31 30.5-74-30.5-73.5T213 1067t-73.5 30.5T109 1171z"/><glyph glyph-name="afii10104" unicode="ї" horiz-adv-x="425" d="M139 850h148V0H139v850zM18 1174q0 41 25.5 71.5T104 1276t60.5-30.5T190 1174t-25.5-72-60.5-31-60.5 31-25.5 72zm218 0q0 41 25.5 71.5T322 1276t60.5-30.5T408 1174t-25.5-72-60.5-31-60.5 31-25.5 72z"/><glyph glyph-name="afii10105" unicode="ј" horiz-adv-x="425" d="M139 850h148V-471H139V850zm-30 321q0 43 30.5 74t73.5 31 73.5-31 30.5-74-30.5-73.5T213 1067t-73.5 30.5T109 1171z"/><glyph glyph-name="afii10106" unicode="љ" horiz-adv-x="1314" d="M782 850V524h152q77 0 142-16t116-68q65-65 65-178 0-119-75-190-34-33-81-49.5T1020.5 3 932 0H635v715H332V332q0-50-2-80.5T312.5 172 266 86Q192-4 61-4 44-4 16 0v135q20-4 33-4 74 0 107 55 28 43 28 146v518h598zm0-719h138q91 0 131 23 55 37 55 108 0 74-53 107-17 12-42 17.5t-40 6-49 .5H782V131z"/><glyph glyph-name="afii10107" unicode="њ" horiz-adv-x="1368" d="M139 0v850h148V528h401v322h148V524h151q77 0 142-16t116-68q66-66 66-178 0-118-76-190-34-33-81-49.5T1073.5 3 985 0H688v393H287V0H139zm697 131h137q91 0 131 23 55 37 55 108 0 74-53 107-17 12-42 17.5t-40 6-49 .5H836V131z"/><glyph glyph-name="afii10108" unicode="ћ" horiz-adv-x="962" d="M139 0v1053H0v123h139v317h148v-317h409v-123H287V670q91 118 243 118 77 0 141.5-30T774 672q30-44 39.5-96t9.5-132V0H676v440q0 106-39 156-48 61-139 61-95 0-150-65-61-73-61-230V0H139z"/><glyph glyph-name="afii10109" unicode="ќ" horiz-adv-x="864" d="M139 850h148V502l344 348h180L442 471 856 0H664L332 373l-45-43V0H139v850zm420 514l152-70-275-276-92 49z"/><glyph glyph-name="afii10110" unicode="ў" horiz-adv-x="942" d="M137-471L408 80 16 850h168l301-608 277 608h164L301-471H137zm58 1688l122 47q16-55 61-89t114-34 113.5 34 60.5 89l122-47q-33-92-111.5-145.5T492 1018t-185 53.5T195 1217z"/><glyph glyph-name="afii10193" unicode="џ" horiz-adv-x="954" d="M139 0v850h148V135h381v715h147V0H545v-246H410V0H139z"/><glyph glyph-name="afii10146" unicode="Ѣ" horiz-adv-x="1249" d="M356 0v1059H29v143h327v219h152v-219h369v-143H508V799h184q42 0 79.5-3t87-12.5 90-25.5 81.5-45.5 69.5-69 46-98.5 17.5-131q0-193-119.5-303.5T721 0H356zm152 655V143h176q34 0 56.5 1.5t61 7.5 73 23 61.5 44q72 68 72 195 0 147-111 207-29 16-72 24t-71 9-86 1H508z"/><glyph glyph-name="afii10194" unicode="ѣ" horiz-adv-x="880" d="M16 850h185v516h147V850h246V715H348V524h152q77 0 142-16t116-68q65-65 65-178 0-119-75-190-34-33-81-49.5T586.5 3 498 0H201v715H16v135zm332-719h137q91 0 131 23 56 37 56 108 0 73-54 107-17 12-42 17.5t-40 6-49 .5H348V131z"/><glyph glyph-name="afii10147" unicode="Ѳ" horiz-adv-x="1622" d="M811-25q-145 0-276 54T309 176 158 401t-56 281q0 150 56 282t151 225 225.5 146.5T811 1389t276.5-53.5T1313 1189t151-225 56-282q0-149-56-281t-151-225-226-147-276-54zM264 778h1094q-18 110-73 200t-130.5 147.5T990 1214t-179 31-179-31-164.5-88.5T337 978t-73-200zm1100-143H258q14-152 95-271.5t201-182T811 119t257 62.5 201 182 95 271.5z"/><glyph glyph-name="afii10195" unicode="ѳ" horiz-adv-x="1073" d="M537-25q-194 0-322.5 127T86 422q0 194 128 321t323 127 322.5-127T987 422q0-193-128-320T537-25zM246 500h581q-21 113-103.5 176T537 739t-187-63-104-176zm585-131H242q10-117 96.5-190T537 106q113 0 197.5 73T831 369z"/><glyph glyph-name="afii10148" unicode="Ѵ" horiz-adv-x="1138" d="M16 1366h168L569 324l385 1042h168L569-82z"/><glyph glyph-name="afii10196" unicode="ѵ" horiz-adv-x="868" d="M16 850h164l254-574 254 574h164L434-55z"/><glyph glyph-name="afii10050" unicode="Ґ" horiz-adv-x="827" d="M176 0v1366h479v287h144v-430H328V0H176z"/><glyph glyph-name="afii10098" unicode="ґ" horiz-adv-x="671" d="M139 0v850h369v225h135V715H287V0H139z"/><glyph glyph-name="uni0492" unicode="Ғ" horiz-adv-x="827" d="M176 0v684H0v135h176v547h623v-143H328V819h278V684H328V0H176z"/><glyph glyph-name="uni0493" unicode="ғ" horiz-adv-x="651" d="M139 0v385H0v123h139v342h504V715H287V508h205V385H287V0H139z"/><glyph glyph-name="uni0494" unicode="Ҕ" horiz-adv-x="1142" d="M823 1223H328V788q146 48 280 48 245 0 359-138 90-111 90-301 0-123-42-207T913 63Q812-12 639-12q-57 0-139 12v143q56-12 129-12 126 0 190 55 82 68 82 213 0 130-57 199-36 42-100.5 68T594 692q-133 0-266-47V0H176v1366h647v-143z"/><glyph glyph-name="uni0495" unicode="ҕ" horiz-adv-x="880" d="M139 0v850h504V715H287V483h61q226 0 342-116Q795 257 795 82q0-103-40-200T633-291Q507-409 334-426v143q109 15 196 99Q639-80 639 84q0 135-80 203-68 61-211 61h-61V0H139z"/><glyph glyph-name="uni0496" unicode="Җ" horiz-adv-x="1658" d="M754 1366h151V780l520 586h189l-574-637 473-586h117v-430h-143V0h-49L938 625l-33-37V0H754v588l-33 37L221 0H29l589 729-573 637h188l521-586v586z"/><glyph glyph-name="uni0497" unicode="җ" horiz-adv-x="1220" d="M537 850h147V502l320 348h172L807 457l287-322h118v-360h-135V0h-49L713 358l-29-28V0H537v330l-29 28L193 0H8l406 457L45 850h172l320-348v348z"/><glyph glyph-name="uni0498" unicode="Ҙ" horiz-adv-x="1179" d="M322 1098l-117 92q66 98 160 147 96 52 223 52 196 0 305-105 98-94 98-242 0-106-55-182-54-73-133-108 106-25 178-97 96-96 96-249 0-172-114-293Q847-7 672-20v-308H528v308Q370-7 252 96q-99 84-150 207l148 66q35-97 96-150 103-100 262-100 150 0 236 82 78 78 78 202 0 112-74 181-53 49-125.5 64.5T557 664H434v143h123q134 0 207 63 72 60 72 168 0 88-56 144-63 63-184 63-107 0-180-51-57-40-94-96z"/><glyph glyph-name="uni0499" unicode="ҙ" horiz-adv-x="864" d="M250 633l-103 84q49 70 109 106 76 47 195 47 121 0 192-59 74-63 74-166 0-64-29-110-23-41-67-64 57-14 98-55 59-59 59-158 0-107-78-188-81-84-194-90v-226H371v226q-96 7-172 67-64 51-113 146l127 53q27-59 76-96 58-44 139-44 89 0 139 31 64 39 64 121 0 64-51 98-44 29-140 29h-86v135h72q73 0 111 23 20 13 32.5 35.5T582 623q0 53-37 86-37 30-115 30-38 0-60.5-6T319 707q-46-32-69-74z"/><glyph glyph-name="uni049A" unicode="Қ" horiz-adv-x="1163" d="M176 1366h152V780l581 586h205L475 729l531-586h129v-430H991V0h-65L367 627l-39-39V0H176v1366z"/><glyph glyph-name="uni049B" unicode="қ" horiz-adv-x="864" d="M139 850h148V502l344 348h180L442 471l295-336h119v-360H721V0h-57L332 373l-45-43V0H139v850z"/><glyph glyph-name="uni049C" unicode="Ҝ" horiz-adv-x="1318" d="M176 1366h152V770h164v287h135V770l477 596h168L750 721 1290 0h-180L627 635V328H492v307H328V0H176v1366z"/><glyph glyph-name="uni049D" unicode="ҝ" horiz-adv-x="921" d="M139 850h148V502h102v205h123V502l223 348h160L627 442 913 0H750L512 379V154H389v225H287V0H139v850z"/><glyph glyph-name="uni04A0" unicode="Ҡ" horiz-adv-x="1343" d="M356 0v1223H29v143h479V780l582 586h204L655 729 1315 0h-209L547 627l-39-39V0H356z"/><glyph glyph-name="uni04A1" unicode="ҡ" horiz-adv-x="925" d="M201 0v715H16v135h332V502l344 348h180L504 471 918 0H725L393 373l-45-43V0H201z"/><glyph glyph-name="uni04A2" unicode="Ң" horiz-adv-x="1363" d="M176 0v1366h152V811h700v555h152V143h155v-430h-143V0h-164v668H328V0H176z"/><glyph glyph-name="uni04A3" unicode="ң" horiz-adv-x="991" d="M139 0v850h148V502h401v348h148V135h139v-360H840V0H688v367H287V0H139z"/><glyph glyph-name="uni04A4" unicode="Ҥ" horiz-adv-x="1679" d="M176 0v1366h152V811h700v555h623v-143h-471V0h-152v668H328V0H176z"/><glyph glyph-name="uni04A5" unicode="ҥ" horiz-adv-x="1200" d="M139 0v850h148V502h401v348h504V715H836V0H688v367H287V0H139z"/><glyph glyph-name="uni04AA" unicode="Ҫ" horiz-adv-x="1323" d="M1221 1253v-188q-81 81-179 127-112 53-235 53-110 0-212.5-43T418 1085q-71-73-115.5-177T258 676q0-239 156-395 78-78 182-120t213-42q122 0 233 53 94 45 179 125V109Q1091 10 887-20v-308H743v308Q483-4 299 182 102 382 102 678q0 294 193 500 93 98 225.5 154.5T817 1389q237 0 404-136z"/><glyph glyph-name="uni04AB" unicode="ҫ" horiz-adv-x="897" d="M805 788V612q-54 66-127 96.5T539 739q-57 0-115.5-22.5T322 651q-84-84-84-229 0-134 73-215 88-101 232-101 73 0 144 35.5T811 240V63Q730-7 618-18v-228H483v226Q318-7 207 104 86 225 86 418q0 196 125 321 60 60 150 95.5T547 870q142 0 258-82z"/><glyph glyph-name="uni04AE" unicode="Ү" horiz-adv-x="1085" d="M465 0v588L16 1366h177l348-610 352 610h176L616 588V0H465z"/><glyph glyph-name="uni04AF" unicode="ү" horiz-adv-x="868" d="M16 850h164l254-574 254 574h164L508 104v-575H360v575z"/><glyph glyph-name="uni04B0" unicode="Ұ" horiz-adv-x="1085" d="M465 0v453H76v135h389L16 1366h177l348-610 352 610h176L616 588h390V453H616V0H465z"/><glyph glyph-name="uni04B1" unicode="ұ" horiz-adv-x="868" d="M16 850h164l254-574 254 574h164L508 104V0h246v-135H508v-336H360v336H115V0h245v104z"/><glyph glyph-name="uni04B2" unicode="Ҳ" horiz-adv-x="1064" d="M29 0l403 707-366 659h172l282-514 291 514h172L608 707l316-564h112v-430H893V0h-62L518 561 201 0H29z"/><glyph glyph-name="uni04B3" unicode="ҳ" horiz-adv-x="929" d="M16 0l363 455L70 850h180l219-289 223 289h180L561 453l248-318h104v-360H778V0h-45L465 346 197 0H16z"/><glyph glyph-name="uni04B6" unicode="Ҷ" horiz-adv-x="1216" d="M881 0v586q-205-15-283-15-242 0-338 74-41 31-68 72t-38 87-15 81-4 78v403h152V983q0-30 1.5-51t8.5-57 25-66 47-51q34-26 90.5-34.5T606 715q121 0 275 14v637h151V143h156v-430h-144V0H881z"/><glyph glyph-name="uni04B7" unicode="ҷ" horiz-adv-x="897" d="M594 0v334q-126-19-201-19-138 0-207 62-71 64-71 209v264h147V606q0-66 19-100 29-55 129-55 90 0 184 18v381h147V135h140v-360H745V0H594z"/><glyph glyph-name="uni04B8" unicode="Ҹ" horiz-adv-x="1269" d="M942 0v586q-189-11-237-13V287H569v284q-213 0-309 74-125 93-125 318v403h152V983q0-166 82-225 34-26 93.5-35.5T569 715v301h136V717q132 4 237 12v637h152V0H942z"/><glyph glyph-name="uni04B9" unicode="ҹ" horiz-adv-x="942" d="M655 0v334q-61-12-131-12V113H401v202q-52-3-115 13t-100 49q-71 61-71 209v264h147V606q0-69 19-100 14-24 46.5-39t73.5-14v213h123V455q59 0 131 14v381h148V0H655z"/><glyph glyph-name="uni04BA" unicode="Һ" horiz-adv-x="1208" d="M328 1366V821q205 15 282 15 242 0 338-74 41-31 68-72t38-87 15-81 4-78V0H922v424q0 30-1.5 51t-8.5 57-25 66-47 51q-34 26-91 34.5T602 692q-120 0-274-14V0H176v1366h152z"/><glyph glyph-name="uni04BB" unicode="һ" horiz-adv-x="962" d="M139 0v1493h148V752q91 118 243 118 77 0 141.5-30T774 754q30-44 39.5-96t9.5-132V0H676v522q0 106-39 156-48 61-139 61-95 0-150-65-61-73-61-230V0H139z"/><glyph glyph-name="uni04C0" unicode="Ӏ" horiz-adv-x="503" d="M176 1366h152V0H176v1366z"/><glyph glyph-name="uni04C1" unicode="Ӂ" horiz-adv-x="1658" d="M754 1366h151V780l520 586h189l-574-637L1630 0h-192L938 625l-33-37V0H754v588l-33 37L221 0H29l589 729-573 637h188l521-586v586zm-242 309l143 47q9-32 29.5-55t41-34 45.5-17 36.5-7 21.5-1q14 0 31 2.5t48.5 11.5 58 35 37.5 65l143-47q-5-16-15-34.5t-35.5-49.5-58-55-88-41.5T829 1477t-121 17.5-88 41.5-58 55-35 49.5-15 34.5z"/><glyph glyph-name="uni04C2" unicode="ӂ" horiz-adv-x="1220" d="M537 850h147V502l320 348h172L807 457 1212 0h-184L713 358l-29-28V0H537v330l-29 28L193 0H8l406 457L45 850h172l320-348v348zm-224 367l123 47q16-55 60.5-89t113.5-34 113.5 34 60.5 89l123-47q-33-92-112-145.5T610 1018t-185 53.5T313 1217z"/><glyph glyph-name="uni04C3" unicode="Ӄ" horiz-adv-x="1196" d="M176 1366h152V739l581 627h205L582 809q247 0 372-125 87-86 121.5-211.5T1110 221q0-115-30-234.5T973-213Q863-328 664-328q-120 0-228 43l43 146q78-45 176-45 125 0 197 67 48 47 76 131.5T956 207q0 43-4.5 86T934 396.5t-44 115-77 90.5q-95 74-252 74-106 0-233-27V0H176v1366z"/><glyph glyph-name="uni04C4" unicode="ӄ" horiz-adv-x="847" d="M139 850h148V502l344 348h180L438 471q70-5 138.5-32T690 367Q795 262 795 90q0-108-40.5-207.5T633-291Q507-409 334-426v143q109 15 196 99Q639-78 639 78q0 138-80 209-70 61-211 61h-61V0H139v850z"/><glyph glyph-name="uni04C7" unicode="Ӈ" horiz-adv-x="1355" d="M176 0v1366h152V811h700v555h152V-176q0-162-70-232-63-63-182-63-61 0-109 18v148q42-19 86-19 60 0 90 27 33 31 33 113v852H328V0H176z"/><glyph glyph-name="uni04C8" unicode="ӈ" horiz-adv-x="974" d="M139 0v850h148V502h401v348h148V-176q0-76-13.5-128.5T770-399q-69-72-186-72-56 0-105 18v144q55-19 96-19 68 0 95 45 18 30 18 123v527H287V0H139z"/><glyph glyph-name="uni04D0" unicode="Ӑ" horiz-adv-x="1273" d="M1090 0L930 385H348L184 0H16l629 1432L1257 0h-167zM408 528h462l-229 547zm-80 1147l143 47q9-32 29.5-55t41-34 45.5-17 36.5-7 21.5-1 21.5 1 36.5 7 45.5 17 41 34 29.5 55l144-47q-5-16-15-34.5t-35.5-49.5-58-55-88-41.5T645 1477t-121 17.5-88 41.5-58 55-35 49.5-15 34.5z"/><glyph glyph-name="uni04D1" unicode="ӑ" horiz-adv-x="1077" d="M791 729v121h147V0H791v119Q679-25 500-25q-82 0-155.5 29t-132 83.5-92.5 142T86 426q0 106 34 192t92 140.5 131.5 83T500 870q183 0 291-141zm-275 10q-116 0-197-82.5T238 426q0-140 74.5-230T516 106q130 0 206.5 93T799 424q0 79-25.5 141t-67 99-90.5 56-100 19zm-293 478l123 47q16-55 60.5-89t113.5-34 113.5 34 60.5 89l123-47q-33-92-112-145.5T520 1018t-185 53.5T223 1217z"/><glyph glyph-name="uni04D2" unicode="Ӓ" horiz-adv-x="1273" d="M1090 0L930 385H348L184 0H16l629 1432L1257 0h-167zM408 528h462l-229 547zm-62 1078q0 43 31 73.5t74 30.5 73.5-30.5T555 1606t-30.5-74-73.5-31-74 31-31 74zm389 0q0 43 31 73.5t74 30.5 73.5-30.5T944 1606t-30.5-74-73.5-31-74 31-31 74z"/><glyph glyph-name="uni04D3" unicode="ӓ" horiz-adv-x="1077" d="M791 729v121h147V0H791v119Q679-25 500-25q-82 0-155.5 29t-132 83.5-92.5 142T86 426q0 106 34 192t92 140.5 131.5 83T500 870q183 0 291-141zm-275 10q-116 0-197-82.5T238 426q0-140 74.5-230T516 106q130 0 206.5 93T799 424q0 79-25.5 141t-67 99-90.5 56-100 19zm-305 387q0 41 30.5 72t71.5 31 72-31 31-72-31-71.5-72-30.5-71.5 30.5T211 1126zm356 0q0 41 31 72t72 31 71.5-31 30.5-72-30.5-71.5T670 1024t-72 30.5-31 71.5z"/><glyph glyph-name="uni04D4" unicode="Ӕ" horiz-adv-x="1843" d="M1102 0L940 383H358L197 0H29l608 1366h600l59-143H745l170-406h541l60-143H979l221-531h555l60-143h-713zM424 526h457l-226 535z"/><glyph glyph-name="uni04D5" unicode="ӕ" horiz-adv-x="1585" d="M1366 287l123-74q-24-45-55-83.5T1357 54 1246.5-4 1106-25q-218 0-334 170Q676-25 453-25q-158 0-262.5 72T86 252q0 132 100 206t254 74q144 0 244-71 4 110-39 180-57 98-203 98-112 0-262-53v139q137 45 264 45 240 0 322-172 52 84 138 128t190 44q186 0 295.5-125T1499 410v-15H836q4-125 81-207t187-82q85 0 154 51t108 130zM846 518h502q-13 102-83.5 161.5T1096 739q-95 0-164-59t-86-162zM453 401q-105 0-162.5-42T233 252q0-25 10.5-49t33.5-46.5 67.5-36.5T449 106q116 0 171.5 46.5T676 258q0 54-54.5 98.5T453 401z"/><glyph glyph-name="uni04D6" unicode="Ӗ" horiz-adv-x="987" d="M885 1366v-143H328V817h540V674H328V143h557V0H176v1366h709zm-670 309l143 47q9-32 29.5-55t41-34 45.5-17 36.5-7 21.5-1q14 0 31 2.5t48.5 11.5 58 35 37.5 65l143-47q-5-16-15-34.5t-35.5-49.5-58-55-88-41.5T532 1477t-121 17.5-88 41.5-58 55-35 49.5-15 34.5z"/><glyph glyph-name="uni04D7" unicode="ӗ" horiz-adv-x="985" d="M770 285l123-68q-43-81-105-137Q671-25 506-25q-80 0-152.5 26T220 78.5t-97.5 140T86 420q0 195 112 322.5T498 870q114 0 195-45t126-110q39-56 61-145t19-175H238q1-129 79-209t191-80q100 0 174 62 58 49 88 117zM248 518h500q-19 100-87.5 160.5T498 739q-93 0-163-62.5T248 518zm-51 699l122 47q16-55 61-89t114-34 113.5 34 60.5 89l123-47q-33-92-112-145.5T494 1018t-185 53.5T197 1217z"/><glyph glyph-name="uni04D8" unicode="Ә" horiz-adv-x="1548" d="M270 989l-112 103q68 92 157 161 177 136 418 136 201 0 364.5-93.5t256-255.5 92.5-358-91.5-358T1101 68.5 741-25q-170 0-300 69.5T233 221q-63 86-97 200.5T102 653v33h1188q0 152-69.5 279.5T1022 1169t-291 76q-194 0-332-115-70-57-129-141zm1006-446H258q5-109 55-195 59-105 171-167t247-62q198 0 351 119.5T1276 543z"/><glyph glyph-name="afii10846" unicode="ә" horiz-adv-x="987" d="M215 561L92 629q43 81 105 137 114 104 282 104 63 0 122.5-15.5T716 804t95.5-85.5 65-126T901 426q0-195-112.5-323T487-25q-114 0-195 45T164 131q-43 61-63.5 148.5T86 451h664q-1 129-79.5 208.5T477 739q-104 0-174-61-58-49-88-117zm522-233H238q15-99 83-160.5T487 106q93 0 163 63t87 159z"/><glyph glyph-name="uni04DA" unicode="Ӛ" horiz-adv-x="1548" d="M270 989l-112 103q68 92 157 161 177 136 418 136 201 0 364.5-93.5t256-255.5 92.5-358-91.5-358T1101 68.5 741-25q-170 0-300 69.5T233 221q-63 86-97 200.5T102 653v33h1188q0 152-69.5 279.5T1022 1169t-291 76q-194 0-332-115-70-57-129-141zm1006-446H258q5-109 55-195 59-105 171-167t247-62q198 0 351 119.5T1276 543zM438 1606q0 43 31 73.5t74 30.5 73.5-30.5T647 1606t-30.5-74-73.5-31-74 31-31 74zm389 0q0 43 31 73.5t74 30.5 73.5-30.5 30.5-73.5-30.5-74-73.5-31-74 31-31 74z"/><glyph glyph-name="uni04DB" unicode="ӛ" horiz-adv-x="987" d="M215 561L92 629q43 81 105 137 114 104 282 104 63 0 122.5-15.5T716 804t95.5-85.5 65-126T901 426q0-195-112.5-323T487-25q-114 0-195 45T164 131q-43 61-63.5 148.5T86 451h664q-1 129-79.5 208.5T477 739q-104 0-174-61-58-49-88-117zm522-233H238q15-99 83-160.5T487 106q93 0 163 63t87 159zm-522 798q0 41 30.5 72t71.5 31 72-31 31-72-31-71.5-72-30.5-71.5 30.5T215 1126zm356 0q0 41 31 72t72 31 71.5-31 30.5-72-30.5-71.5T674 1024t-72 30.5-31 71.5z"/><glyph glyph-name="uni04DC" unicode="Ӝ" horiz-adv-x="1658" d="M754 1366h151V780l520 586h189l-574-637L1630 0h-192L938 625l-33-37V0H754v588l-33 37L221 0H29l589 729-573 637h188l521-586v586zm-224 240q0 43 31 73.5t74 30.5 73.5-30.5T739 1606t-30.5-74-73.5-31-74 31-31 74zm390 0q0 43 30.5 73.5t73.5 30.5 73.5-30.5 30.5-73.5-30.5-74-73.5-31-73.5 31-30.5 74z"/><glyph glyph-name="uni04DD" unicode="ӝ" horiz-adv-x="1220" d="M537 850h147V502l320 348h172L807 457 1212 0h-184L713 358l-29-28V0H537v330l-29 28L193 0H8l406 457L45 850h172l320-348v348zm-207 276q0 41 30.5 72t71.5 31 72-31 31-72-31-71.5-72-30.5-71.5 30.5T330 1126zm356 0q0 41 30.5 72t71.5 31 72-31 31-72-31-71.5-72-30.5-71.5 30.5T686 1126z"/><glyph glyph-name="uni04DE" unicode="Ӟ" horiz-adv-x="1179" d="M322 1098l-117 92q135 199 391 199 183 0 289-97 106-95 106-252 0-100-52-174.5T803 752q132-30 203-126.5t71-226.5q0-214-170-333-133-91-311-91-97 0-180 28T273 79.5t-101.5 104T102 303l148 66q41-116 135-183t217-67q126 0 209 57 111 77 111 219 0 60-17 106.5T856.5 576t-66 47-80 27-79.5 11-74 3H434v143h123q136 0 207.5 65.5T836 1038q0 88-56 144-61 63-184 63-82 0-149.5-32T322 1098zm-27 508q0 43 30.5 73.5T399 1710t74-30.5 31-73.5-31-74-74-31-73.5 31-30.5 74zm389 0q0 43 30.5 73.5T788 1710t74-30.5 31-73.5-31-74-74-31-73.5 31-30.5 74z"/><glyph glyph-name="uni04DF" unicode="ӟ" horiz-adv-x="864" d="M250 633l-103 84q49 70 109 106 80 47 186 47 62 0 110-11.5t91-47.5q74-63 74-162 0-118-96-178 63-15 98-55 59-62 59-156 0-66-29-123.5T668 41q-89-66-242-66-133 0-227 72-69 52-113 146l127 53q22-56 76-96 59-44 139-44 95 0 143 33 25 15 42.5 46t17.5 73q0 66-51 98-43 29-140 29h-86v135h72q76 0 111 23 45 27 45 78 0 59-37 88-34 30-109 30-66 0-117-32-43-26-69-74zm-80 493q0 41 30.5 72t71.5 31 72-31 31-72-31-71.5-72-30.5-71.5 30.5T170 1126zm356 0q0 41 31 72t72 31 71.5-31 30.5-72-30.5-71.5T629 1024t-72 30.5-31 71.5z"/><glyph glyph-name="uni04E2" unicode="Ӣ" horiz-adv-x="1454" d="M1126 0v1042L176-61v1427h152V319l950 1104V0h-152zM410 1501v131h655v-131H410z"/><glyph glyph-name="uni04E3" unicode="ӣ" horiz-adv-x="1007" d="M139 850h148V289l581 626V0H721v567L139-59v909zm56 201v123h618v-123H195z"/><glyph glyph-name="uni04E4" unicode="Ӥ" horiz-adv-x="1454" d="M1126 0v1042L176-61v1427h152V319l950 1104V0h-152zM438 1606q0 43 31 73.5t74 30.5 73.5-30.5T647 1606t-30.5-74-73.5-31-74 31-31 74zm389 0q0 43 31 73.5t74 30.5 73.5-30.5 30.5-73.5-30.5-74-73.5-31-74 31-31 74z"/><glyph glyph-name="uni04E5" unicode="ӥ" horiz-adv-x="1007" d="M139 850h148V289l581 626V0H721v567L139-59v909zm84 276q0 41 31 72t72 31 71.5-31 30.5-72-30.5-71.5T326 1024t-72 30.5-31 71.5zm357 0q0 41 30.5 72t71.5 31 71.5-31 30.5-72-30.5-71.5T682 1024t-71.5 30.5T580 1126z"/><glyph glyph-name="uni04E6" unicode="Ӧ" horiz-adv-x="1626" d="M813-25q-146 0-277.5 54T309 176 158 401t-56 281q0 150 56 282t151.5 225T536 1335.5t277 53.5 277-53.5 226.5-146.5T1468 964t56-282q0-149-56-281t-151-225-226.5-147T813-25zm0 1270q-151 0-279-75T332 965.5 258 682t74-283.5T534 194t279-75 279 75 202 204.5 74 283.5-74 283.5-202 204.5-279 75zm-299 361q0 43 30.5 73.5T618 1710t74-30.5 31-73.5-31-74-74-31-73.5 31-30.5 74zm389 0q0 43 31 73.5t74 30.5 73.5-30.5 30.5-73.5-30.5-74-73.5-31-74 31-31 74z"/><glyph glyph-name="uni04E7" unicode="ӧ" horiz-adv-x="1073" d="M537-25q-194 0-322.5 127T86 422q0 194 128 321t323 127 322.5-127T987 422q0-193-128-320T537-25zm0 764q-124 0-211.5-84.5T238 422q0-100 43.5-173.5t110.5-108T537 106q123 0 211 84t88 232q0 149-87 233t-212 84zm-281 387q0 41 30.5 72t71.5 31 72-31 31-72-31-71.5-72-30.5-71.5 30.5T256 1126zm356 0q0 41 31 72t72 31 71.5-31 30.5-72-30.5-71.5T715 1024t-72 30.5-31 71.5z"/><glyph glyph-name="uni04E8" unicode="Ө" horiz-adv-x="1622" d="M811-25q-145 0-276 54T309 176 158 401t-56 281q0 150 56 282t151 225 225.5 146.5T811 1389t276.5-53.5T1313 1189t151-225 56-282q0-149-56-281t-151-225-226-147-276-54zM264 778h1094q-18 110-73 200t-130.5 147.5T990 1214t-179 31-179-31-164.5-88.5T337 978t-73-200zm1100-143H258q14-152 95-271.5t201-182T811 119t257 62.5 201 182 95 271.5z"/><glyph glyph-name="uni04E9" unicode="ө" horiz-adv-x="1073" d="M537-25q-194 0-322.5 127T86 422q0 194 128 321t323 127 322.5-127T987 422q0-193-128-320T537-25zM246 500h581q-21 113-103.5 176T537 739t-187-63-104-176zm585-131H242q10-117 96.5-190T537 106q113 0 197.5 73T831 369z"/><glyph glyph-name="uni04EA" unicode="Ӫ" horiz-adv-x="1622" d="M811-25q-145 0-276 54T309 176 158 401t-56 281q0 150 56 282t151 225 225.5 146.5T811 1389t276.5-53.5T1313 1189t151-225 56-282q0-149-56-281t-151-225-226-147-276-54zM264 778h1094q-18 110-73 200t-130.5 147.5T990 1214t-179 31-179-31-164.5-88.5T337 978t-73-200zm1100-143H258q14-152 95-271.5t201-182T811 119t257 62.5 201 182 95 271.5zm-850 971q0 43 30.5 73.5T618 1710t74-30.5 31-73.5-31-74-74-31-73.5 31-30.5 74zm389 0q0 43 31 73.5t74 30.5 73.5-30.5 30.5-73.5-30.5-74-73.5-31-74 31-31 74z"/><glyph glyph-name="uni04EB" unicode="ӫ" horiz-adv-x="1073" d="M537-25q-194 0-322.5 127T86 422q0 194 128 321t323 127 322.5-127T987 422q0-193-128-320T537-25zM246 500h581q-21 113-103.5 176T537 739t-187-63-104-176zm585-131H242q10-117 96.5-190T537 106q113 0 197.5 73T831 369zm-575 757q0 41 30.5 72t71.5 31 72-31 31-72-31-71.5-72-30.5-71.5 30.5T256 1126zm356 0q0 41 31 72t72 31 71.5-31 30.5-72-30.5-71.5T715 1024t-72 30.5-31 71.5z"/><glyph glyph-name="uni04EE" unicode="Ӯ" horiz-adv-x="1163" d="M16 1366h185l426-805 356 805h164L530 0H367l174 381zm260 135v131h656v-131H276z"/><glyph glyph-name="uni04EF" unicode="ӯ" horiz-adv-x="942" d="M137-471L408 80 16 850h168l301-608 277 608h164L301-471H137zm25 1522v123h618v-123H162z"/><glyph glyph-name="uni04F0" unicode="Ӱ" horiz-adv-x="1163" d="M16 1366h185l426-805 356 805h164L530 0H367l174 381zm289 240q0 43 31 73.5t74 30.5 73.5-30.5T514 1606t-30.5-74-73.5-31-74 31-31 74zm389 0q0 43 31 73.5t74 30.5 73.5-30.5T903 1606t-30.5-74-73.5-31-74 31-31 74z"/><glyph glyph-name="uni04F1" unicode="ӱ" horiz-adv-x="942" d="M137-471L408 80 16 850h168l301-608 277 608h164L301-471H137zm74 1597q0 41 30.5 72t71.5 31 72-31 31-72-31-71.5-72-30.5-71.5 30.5T211 1126zm356 0q0 41 31 72t72 31 71.5-31 30.5-72-30.5-71.5T670 1024t-72 30.5-31 71.5z"/><glyph glyph-name="uni04F2" unicode="Ӳ" horiz-adv-x="1163" d="M16 1366h185l426-805 356 805h164L530 0H367l174 381zm574 440l143-82-301-249-88 53zm307 0l143-82-301-249-88 53z"/><glyph glyph-name="uni04F3" unicode="ӳ" horiz-adv-x="942" d="M137-471L408 80 16 850h168l301-608 277 608h164L301-471H137zm334 1835l147-66-280-278-84 47zm274 0l144-66-277-278-84 47z"/><glyph glyph-name="uni04F4" unicode="Ӵ" horiz-adv-x="1208" d="M881 0v586q-205-15-283-15-242 0-338 74-41 31-68 72t-38 87-15 81-4 78v403h152V983q0-30 1.5-51t8.5-57 25-66 47-51q34-26 90.5-34.5T606 715q121 0 275 14v637h151V0H881zM295 1606q0 43 30.5 73.5T399 1710t74-30.5 31-73.5-31-74-74-31-73.5 31-30.5 74zm389 0q0 43 30.5 73.5T788 1710t74-30.5 31-73.5-31-74-74-31-73.5 31-30.5 74z"/><glyph glyph-name="uni04F5" unicode="ӵ" horiz-adv-x="880" d="M594 0v334q-126-19-201-19-138 0-207 62-71 64-71 209v264h147V606q0-66 19-100 29-55 129-55 90 0 184 18v381h147V0H594zM150 1126q0 41 30.5 72t71.5 31 71.5-31 30.5-72-30.5-71.5T252 1024t-71.5 30.5T150 1126zm356 0q0 41 30.5 72t71.5 31 72-31 31-72-31-71.5-72-30.5-71.5 30.5T506 1126z"/><glyph glyph-name="uni04F8" unicode="Ӹ" horiz-adv-x="1454" d="M176 0v1366h152V799h184q42 0 79.5-3t87-12.5 90-25.5 81.5-45.5 69.5-69 46-98.5T983 414q0-193-119.5-303.5T541 0H176zm152 655V143h176q34 0 56.5 1.5t61 7.5 73 23 61.5 44q71 67 71 195 0 147-110 207-29 16-72.5 24t-71 9-86.5 1H328zm798 711h152V0h-152v1366zm-698 240q0 43 30.5 73.5T532 1710t74-30.5 31-73.5-31-74-74-31-73.5 31-30.5 74zm389 0q0 43 31 73.5t74 30.5 73.5-30.5 30.5-73.5-30.5-74-73.5-31-74 31-31 74z"/><glyph glyph-name="uni04F9" unicode="ӹ" horiz-adv-x="1150" d="M139 0v850h148V524h151q77 0 142-16t116-68q66-66 66-178 0-118-76-190-34-33-81-49.5T524.5 3 436 0H139zm148 131h137q91 0 131 23 55 37 55 108 0 74-53 107-17 12-42 17.5t-40 6-49 .5H287V131zM864 0v850h148V0H864zM295 1126q0 41 30.5 72t71.5 31 72-31 31-72-31-71.5-72-30.5-71.5 30.5T295 1126zm356 0q0 41 31 72t72 31 71.5-31 30.5-72-30.5-71.5T754 1024t-72 30.5-31 71.5z"/><glyph glyph-name="uni1E9E" unicode="ẞ" horiz-adv-x="1181" d="M176 0v983q0 186 121 297 119 109 291 109 47 0 79-3t82-18.5 95-44.5q74-49 118-136t42-167L711 770q138-21 233-94 135-107 135-275 0-207-196-333-65-40-155-64T555-25v144q149 12 242 69 58 35 92.5 87.5T924 391q0 139-131 219-92 55-238 64v123l291 262q-41 186-254 186-125 0-199-80-65-72-65-211V0H176z"/><glyph glyph-name="uni2010" unicode="‐" horiz-adv-x="655" d="M102 360v152h451V360H102z"/><glyph glyph-name="uni2011" unicode="‑" horiz-adv-x="655" d="M102 360v152h451V360H102z"/><glyph glyph-name="figuredash" unicode="‒" horiz-adv-x="1187" d="M143 629v131h901V629H143z"/><glyph glyph-name="endash" unicode="–" horiz-adv-x="1187" d="M143 371v131h901V371H143z"/><glyph glyph-name="emdash" unicode="—" horiz-adv-x="1638" d="M143 371v131h1352V371H143z"/><glyph glyph-name="afii00208" unicode="―" horiz-adv-x="1638" d="M143 371v131h1352V371H143z"/><glyph glyph-name="quoteleft" unicode="‘" horiz-adv-x="540" d="M422 1366L252 893l-133 49 207 463z"/><glyph glyph-name="quoteright" unicode="’" horiz-adv-x="540" d="M119 942l166 473 137-49-207-463z"/><glyph glyph-name="quotesinglbase" unicode="‚" horiz-adv-x="630" d="M119-272l166 473 137-49-207-463z"/><glyph glyph-name="quotedblleft" unicode="“" horiz-adv-x="839" d="M422 1366L252 893l-133 49 207 463zm299 0L555 893l-137 49 207 463z"/><glyph glyph-name="quotedblright" unicode="”" horiz-adv-x="839" d="M119 942l166 473 137-49-207-463zm299 0l170 473 133-49-207-463z"/><glyph glyph-name="quotedblbase" unicode="„" horiz-adv-x="929" d="M119-272l166 473 137-49-207-463zm299 0l170 473 133-49-207-463z"/><glyph glyph-name="dagger" unicode="†" horiz-adv-x="1163" d="M508 1030v463h147v-463h303V891H655V-348H508V891H205v139h303z"/><glyph glyph-name="daggerdbl" unicode="‡" horiz-adv-x="1163" d="M508 1030v463h147v-463h303V891H655V324h303V184H655v-544H508v544H205v140h303v567H205v139h303z"/><glyph glyph-name="bullet" unicode="•" horiz-adv-x="2048" d="M737 696q0 118 84.5 202.5T1024 983t202.5-84.5T1311 696t-84-202-203-84-203 84-84 202z"/><glyph glyph-name="ellipsis" unicode="…" horiz-adv-x="1527" d="M154 82q0 41 30.5 71.5T256 184t71.5-30.5T358 82t-30.5-71.5T256-20t-71.5 30.5T154 82zm508 0q0 41 30.5 71.5T764 184t71.5-30.5T866 82t-30.5-71.5T764-20t-71.5 30.5T662 82zm507 0q0 41 31 71.5t72 30.5 71.5-30.5T1374 82t-30.5-71.5T1272-20t-72 30.5-31 71.5z"/><glyph glyph-name="perthousand" unicode="‰" horiz-adv-x="2170" d="M365 1378q125 0 211-86t86-211-86-211-211-86-211 86-86 211 86 211 211 86zm0-481q74 0 124 54t50 130-50 130.5-124 54.5q-72 0-123.5-54.5T190 1081t51.5-130T365 897zM289 20l796 1373 80-45L369-27zm801 560q124 0 210-86t86-211-86-211-210-86-210.5 86T793 283t86.5 211 210.5 86zm0-482q74 0 124 54.5t50 130.5-50 130-124 54q-72 0-123.5-54T915 283t51.5-130.5T1090 98zm716 482q124 0 210.5-86t86.5-211-86.5-211T1806-14t-210.5 86-86.5 211 86.5 211 210.5 86zm0-482q74 0 124 54.5t50 130.5-50 130-124 54q-72 0-123-54t-51-130q0-77 51-131t123-54z"/><glyph glyph-name="guilsinglleft" unicode="‹" horiz-adv-x="577" d="M229 434l246-299-94-74L74 434l307 385 94-76z"/><glyph glyph-name="guilsinglright" unicode="›" horiz-adv-x="577" d="M348 446L102 745l95 74 307-373L197 61l-95 76z"/><glyph glyph-name="fraction" unicode="⁄" horiz-adv-x="258" d="M-307 20l794 1373 78-45L-229-27z"/><glyph glyph-name="uni2080" unicode="₀" horiz-adv-x="716" d="M358-14q-56 0-114.5 30.5T141 109Q57 222 57 410q0 185 84 301 44 63 102 91.5T358 831t115-28.5T575 711q84-116 84-301 0-188-84-301-44-62-102.5-92.5T358-14zm0 751q-82 0-137-84-57-89-57-243 0-151 57-242 29-44 66-66t71-22 71.5 22 66.5 66q57 89 57 242 0 157-57 243-55 84-138 84z"/><glyph glyph-name="uni2081" unicode="₁" horiz-adv-x="716" d="M340 0v725H180l49 94h217V0H340z"/><glyph glyph-name="uni2082" unicode="₂" horiz-adv-x="716" d="M608 0H66l299 346q67 79 94 119 45 67 45 125 0 62-42.5 104.5T348 737q-91 0-133-69-25-45-25-99H88q6 111 62 179 71 83 196 83 116 0 190-67.5T610 588q0-80-65-174-34-49-113-138L274 94h334V0z"/><glyph glyph-name="uni2083" unicode="₃" horiz-adv-x="716" d="M209 606H106q4 76 39 131 60 94 199 94 66 0 115-21.5t74.5-56.5 37-70 11.5-71q0-26-5.5-54T545 490t-70-60q43-17 70.5-50.5t38-70T594 231q0-105-70.5-175T334-14q-93 0-152 40.5T98 127q-16 42-20 96h102q3-44 29-82 45-61 121-61 70 0 113.5 44.5T487 236q0 50-22 84.5T408 369q-40 18-95 14v94q53-3 95 17 29 15 48 45.5t19 70.5q0 53-32.5 90T344 737q-70 0-104-43-27-35-31-88z"/><glyph glyph-name="uni2084" unicode="₄" horiz-adv-x="716" d="M551 864V227h100v-94H551V0H449v133H29zM213 227h236v336z"/><glyph glyph-name="uni2085" unicode="₅" horiz-adv-x="716" d="M608 819v-94H334l-45-166q32 4 51 4 128 0 201-79t73-199q0-140-93-219.5T301-14q-104 0-184 63-49 40-72 84l80 62q21-41 53-66 57-49 127-49 84 0 143.5 58.5T508 279q0 83-57.5 136.5T305 469q-81 0-158-57l119 407h342z"/><glyph glyph-name="uni2086" unicode="₆" horiz-adv-x="716" d="M414 846l86-64-189-252q32 11 64 11 123 0 198.5-77.5T649 266q0-122-81-201T360-14q-126 0-209 78T68 264q0 93 67 189zM358 80q87 0 136 56.5T543 264q0 78-54.5 130T356 446t-130-52.5T174 264q0-72 47.5-128T358 80z"/><glyph glyph-name="uni2087" unicode="₇" horiz-adv-x="716" d="M66 37l454 688H82v94h614L150-20z"/><glyph glyph-name="uni2088" unicode="₈" horiz-adv-x="716" d="M223 426q-98 61-98 180 0 94 62 159.5T358 831t171.5-65.5T592 606q0-119-98-180 62-27 93-80.5T618 225q0-102-70-170.5T358-14 168 54.5 98 225q0 66 31.5 120t93.5 81zm135 43q60 0 97 38.5t37 96.5q0 62-38 97.5T358 737t-95.5-35.5T225 604q0-58 36.5-96.5T358 469zm0-90q-67 0-110-43t-43-107q0-66 42.5-107.5T358 80t111 41.5T512 229q0 64-43.5 107T358 379z"/><glyph glyph-name="uni2089" unicode="₉" horiz-adv-x="716" d="M303-29l-86 64 189 252q-32-11-64-11-123 0-198.5 77.5T68 551q0 122 80.5 201T356 831q126 0 209.5-78T649 553q0-92-67-188zm55 766q-87 0-135.5-56.5T174 553q0-78 54-130t132-52 130.5 52.5T543 553q0 45-18.5 85.5t-62 69.5T358 737z"/><glyph glyph-name="Euro" unicode="€" horiz-adv-x="1163" d="M1081 1274l-67-137q-127 108-309 108-81 0-149-25.5t-111-62-77.5-86.5-51-89.5T289 901h653l-53-135H264q-12-79-2-160h576l-54-135H285q30-157 143-254.5T709 119q205 0 372 157V88Q912-25 700-25q-128 0-233 40T291.5 125 178 282.5 121 471H-16l53 135h69q-9 80 3 160H-16l53 135h88q21 96 67.5 181.5t118 155 176 110.5 228.5 41q200 0 366-115z"/><glyph glyph-name="uni20B4" unicode="₴" horiz-adv-x="1163" d="M324 1096l-121 80q70 90 162 145 113 68 260 68 144 0 229-74 86-72 86-182 0-128-100-232h190V786H748L565 606h465V492H461q-92-85-92-205 0-70 51-117 55-51 151-51 115 0 199 78 63 60 100 151l140-61Q968 173 889 98 820 30 743 2.5T563-25q-150 0-241 68-48 38-78.5 98T213 276q0 117 80 216H135v114h250l182 180H135v115h537q116 101 116 195 0 60-45 102-49 47-145 47-52 0-86.5-10.5T440 1200q-67-42-116-104z"/><glyph glyph-name="uni20B6" unicode="₶" horiz-adv-x="1163" d="M539 1366q113 0 202.5-22.5T901 1251q49-49 78-120.5t29-153.5q0-161-103-260-118-115-330-115H442V422h336V307H442V0H291v307H135v115h156v180H135v135h156v629h248zm-97-143V737h125q154 0 230 80 59 66 59 172 0 99-57 156-76 78-244 78H442z"/><glyph glyph-name="uni20B6" unicode="⃏" horiz-adv-x="1163" d="M539 1366q113 0 202.5-22.5T901 1251q49-49 78-120.5t29-153.5q0-161-103-260-118-115-330-115H442V422h336V307H442V0H291v307H135v115h156v180H135v135h156v629h248zm-97-143V737h125q154 0 230 80 59 66 59 172 0 99-57 156-76 78-244 78H442z"/><glyph glyph-name="uni20B6" unicode="⃎" horiz-adv-x="1163" d="M539 1366q113 0 202.5-22.5T901 1251q49-49 78-120.5t29-153.5q0-161-103-260-118-115-330-115H442V422h336V307H442V0H291v307H135v115h156v180H135v135h156v629h248zm-97-143V737h125q154 0 230 80 59 66 59 172 0 99-57 156-76 78-244 78H442z"/><glyph glyph-name="uni20B6" unicode="⃍" horiz-adv-x="1163" d="M539 1366q113 0 202.5-22.5T901 1251q49-49 78-120.5t29-153.5q0-161-103-260-118-115-330-115H442V422h336V307H442V0H291v307H135v115h156v180H135v135h156v629h248zm-97-143V737h125q154 0 230 80 59 66 59 172 0 99-57 156-76 78-244 78H442z"/><glyph glyph-name="uni20B6" unicode="⃌" horiz-adv-x="1163" d="M539 1366q113 0 202.5-22.5T901 1251q49-49 78-120.5t29-153.5q0-161-103-260-118-115-330-115H442V422h336V307H442V0H291v307H135v115h156v180H135v135h156v629h248zm-97-143V737h125q154 0 230 80 59 66 59 172 0 99-57 156-76 78-244 78H442z"/><glyph glyph-name="uni20B6" unicode="⃋" horiz-adv-x="1163" d="M539 1366q113 0 202.5-22.5T901 1251q49-49 78-120.5t29-153.5q0-161-103-260-118-115-330-115H442V422h336V307H442V0H291v307H135v115h156v180H135v135h156v629h248zm-97-143V737h125q154 0 230 80 59 66 59 172 0 99-57 156-76 78-244 78H442z"/><glyph glyph-name="uni20B6" unicode="⃊" horiz-adv-x="1163" d="M539 1366q113 0 202.5-22.5T901 1251q49-49 78-120.5t29-153.5q0-161-103-260-118-115-330-115H442V422h336V307H442V0H291v307H135v115h156v180H135v135h156v629h248zm-97-143V737h125q154 0 230 80 59 66 59 172 0 99-57 156-76 78-244 78H442z"/><glyph glyph-name="uni20B6" unicode="⃉" horiz-adv-x="1163" d="M539 1366q113 0 202.5-22.5T901 1251q49-49 78-120.5t29-153.5q0-161-103-260-118-115-330-115H442V422h336V307H442V0H291v307H135v115h156v180H135v135h156v629h248zm-97-143V737h125q154 0 230 80 59 66 59 172 0 99-57 156-76 78-244 78H442z"/><glyph glyph-name="uni20B6" unicode="⃈" horiz-adv-x="1163" d="M539 1366q113 0 202.5-22.5T901 1251q49-49 78-120.5t29-153.5q0-161-103-260-118-115-330-115H442V422h336V307H442V0H291v307H135v115h156v180H135v135h156v629h248zm-97-143V737h125q154 0 230 80 59 66 59 172 0 99-57 156-76 78-244 78H442z"/><glyph glyph-name="uni20B6" unicode="⃇" horiz-adv-x="1163" d="M539 1366q113 0 202.5-22.5T901 1251q49-49 78-120.5t29-153.5q0-161-103-260-118-115-330-115H442V422h336V307H442V0H291v307H135v115h156v180H135v135h156v629h248zm-97-143V737h125q154 0 230 80 59 66 59 172 0 99-57 156-76 78-244 78H442z"/><glyph glyph-name="uni20B6" unicode="⃆" horiz-adv-x="1163" d="M539 1366q113 0 202.5-22.5T901 1251q49-49 78-120.5t29-153.5q0-161-103-260-118-115-330-115H442V422h336V307H442V0H291v307H135v115h156v180H135v135h156v629h248zm-97-143V737h125q154 0 230 80 59 66 59 172 0 99-57 156-76 78-244 78H442z"/><glyph glyph-name="uni20B6" unicode="⃅" horiz-adv-x="1163" d="M539 1366q113 0 202.5-22.5T901 1251q49-49 78-120.5t29-153.5q0-161-103-260-118-115-330-115H442V422h336V307H442V0H291v307H135v115h156v180H135v135h156v629h248zm-97-143V737h125q154 0 230 80 59 66 59 172 0 99-57 156-76 78-244 78H442z"/><glyph glyph-name="uni20B6" unicode="⃄" horiz-adv-x="1163" d="M539 1366q113 0 202.5-22.5T901 1251q49-49 78-120.5t29-153.5q0-161-103-260-118-115-330-115H442V422h336V307H442V0H291v307H135v115h156v180H135v135h156v629h248zm-97-143V737h125q154 0 230 80 59 66 59 172 0 99-57 156-76 78-244 78H442z"/><glyph glyph-name="uni20B6" unicode="⃃" horiz-adv-x="1163" d="M539 1366q113 0 202.5-22.5T901 1251q49-49 78-120.5t29-153.5q0-161-103-260-118-115-330-115H442V422h336V307H442V0H291v307H135v115h156v180H135v135h156v629h248zm-97-143V737h125q154 0 230 80 59 66 59 172 0 99-57 156-76 78-244 78H442z"/><glyph glyph-name="uni20B6" unicode="⃂" horiz-adv-x="1163" d="M539 1366q113 0 202.5-22.5T901 1251q49-49 78-120.5t29-153.5q0-161-103-260-118-115-330-115H442V422h336V307H442V0H291v307H135v115h156v180H135v135h156v629h248zm-97-143V737h125q154 0 230 80 59 66 59 172 0 99-57 156-76 78-244 78H442z"/><glyph glyph-name="uni20B6" unicode="⃁" horiz-adv-x="1163" d="M539 1366q113 0 202.5-22.5T901 1251q49-49 78-120.5t29-153.5q0-161-103-260-118-115-330-115H442V422h336V307H442V0H291v307H135v115h156v180H135v135h156v629h248zm-97-143V737h125q154 0 230 80 59 66 59 172 0 99-57 156-76 78-244 78H442z"/><glyph glyph-name="uni20B6" unicode="⃀" horiz-adv-x="1163" d="M539 1366q113 0 202.5-22.5T901 1251q49-49 78-120.5t29-153.5q0-161-103-260-118-115-330-115H442V422h336V307H442V0H291v307H135v115h156v180H135v135h156v629h248zm-97-143V737h125q154 0 230 80 59 66 59 172 0 99-57 156-76 78-244 78H442z"/><glyph glyph-name="uni20B6" unicode="₿" horiz-adv-x="1163" d="M539 1366q113 0 202.5-22.5T901 1251q49-49 78-120.5t29-153.5q0-161-103-260-118-115-330-115H442V422h336V307H442V0H291v307H135v115h156v180H135v135h156v629h248zm-97-143V737h125q154 0 230 80 59 66 59 172 0 99-57 156-76 78-244 78H442z"/><glyph glyph-name="uni20B6" unicode="₾" horiz-adv-x="1163" d="M539 1366q113 0 202.5-22.5T901 1251q49-49 78-120.5t29-153.5q0-161-103-260-118-115-330-115H442V422h336V307H442V0H291v307H135v115h156v180H135v135h156v629h248zm-97-143V737h125q154 0 230 80 59 66 59 172 0 99-57 156-76 78-244 78H442z"/><glyph glyph-name="uni20B6" unicode="₽" horiz-adv-x="1163" d="M539 1366q113 0 202.5-22.5T901 1251q49-49 78-120.5t29-153.5q0-161-103-260-118-115-330-115H442V422h336V307H442V0H291v307H135v115h156v180H135v135h156v629h248zm-97-143V737h125q154 0 230 80 59 66 59 172 0 99-57 156-76 78-244 78H442z"/><glyph glyph-name="uni20B6" unicode="₼" horiz-adv-x="1163" d="M539 1366q113 0 202.5-22.5T901 1251q49-49 78-120.5t29-153.5q0-161-103-260-118-115-330-115H442V422h336V307H442V0H291v307H135v115h156v180H135v135h156v629h248zm-97-143V737h125q154 0 230 80 59 66 59 172 0 99-57 156-76 78-244 78H442z"/><glyph glyph-name="uni20B6" unicode="₻" horiz-adv-x="1163" d="M539 1366q113 0 202.5-22.5T901 1251q49-49 78-120.5t29-153.5q0-161-103-260-118-115-330-115H442V422h336V307H442V0H291v307H135v115h156v180H135v135h156v629h248zm-97-143V737h125q154 0 230 80 59 66 59 172 0 99-57 156-76 78-244 78H442z"/><glyph glyph-name="uni20B6" unicode="₺" horiz-adv-x="1163" d="M539 1366q113 0 202.5-22.5T901 1251q49-49 78-120.5t29-153.5q0-161-103-260-118-115-330-115H442V422h336V307H442V0H291v307H135v115h156v180H135v135h156v629h248zm-97-143V737h125q154 0 230 80 59 66 59 172 0 99-57 156-76 78-244 78H442z"/><glyph glyph-name="uni20B6" unicode="₹" horiz-adv-x="1163" d="M539 1366q113 0 202.5-22.5T901 1251q49-49 78-120.5t29-153.5q0-161-103-260-118-115-330-115H442V422h336V307H442V0H291v307H135v115h156v180H135v135h156v629h248zm-97-143V737h125q154 0 230 80 59 66 59 172 0 99-57 156-76 78-244 78H442z"/><glyph glyph-name="uni20B6" unicode="₷" horiz-adv-x="1163" d="M539 1366q113 0 202.5-22.5T901 1251q49-49 78-120.5t29-153.5q0-161-103-260-118-115-330-115H442V422h336V307H442V0H291v307H135v115h156v180H135v135h156v629h248zm-97-143V737h125q154 0 230 80 59 66 59 172 0 99-57 156-76 78-244 78H442z"/><glyph glyph-name="uni20B8" unicode="₸" horiz-adv-x="1163" d="M989 997H657V0H506v997H174v144h815V997zm0 246H174v123h815v-123z"/><glyph glyph-name="afii61352" unicode="№" horiz-adv-x="2088" d="M328 0H176v1423l954-1083v1026h152V-61L328 1022V0zm1403 1366q125 0 211-86t86-211-86-211-211-86-211 86-86 211 86 211 211 86zm0-481q74 0 124 54t50 130-50 130-124 54q-72 0-123.5-54t-51.5-130 51.5-130 123.5-54zm-256-420v143h512V465h-512z"/><glyph glyph-name="uni2117" unicode="℗" horiz-adv-x="1515" d="M539 1063h151q76 0 131.5-12t93.5-52q58-58 58-157 0-100-58-158-63-63-202-63h-64V297H539v766zm110-98V719h45q96 0 133 35 35 30 35 90 0 54-26 82-35 39-146 39h-41zm815-285q0-282-192-487-90-96-219.5-158T758-27 463.5 35 244 193Q51 399 51 680q0 279 193 485 90 96 219.5 157.5T758 1384t294.5-61.5T1272 1165q192-205 192-485zm-706 590q-111 0-224-45.5T342 1102q-84-81-130-194t-46-228q0-117 45.5-229.5T342 256q79-77 192-122.5T758 88t224 45.5T1174 256q85 82 130.5 194.5T1350 680q0 115-46 228t-130 194q-79 77-192 122.5T758 1270z"/><glyph glyph-name="trademark" unicode="™" horiz-adv-x="1478" d="M479 1272H295V588H193v684H8v94h471v-94zm168-684h-94l133 827 293-645 301 645 125-827h-94l-72 526-260-565-256 565z"/><glyph glyph-name="partialdiff" unicode="∂" horiz-adv-x="1073" d="M170 1237l35 141q119-11 238.5-52T653 1221q72-51 139-128t103-147q92-177 92-436 0-208-84-338-36-57-82.5-97t-96-61-95-30-92.5-9q-200 0-325.5 132T86 434q0 128 53.5 232.5t154 166.5T524 895q175 0 273-98h4q-19 61-52 116t-71 94.5-69 65.5-62 45q-71 45-174 78.5T170 1237zm666-791q0 134-80.5 226T543 764q-135 0-220-93.5T238 430q0-102 45-177.5t112-111T537 106q132 0 215.5 99.5T836 446z"/><glyph glyph-name="product" unicode="∏" horiz-adv-x="1429" d="M74 1401v135h1282v-135h-160V-377h160v-135H877v135h167v1778H385V-377h166v-135H74v135h159v1778H74z"/><glyph glyph-name="summation" unicode="∑" horiz-adv-x="1404" d="M66 1536h1175v-440h-151v305H266l488-846-496-932h848v301h151v-436H66v94l516 975-516 885v94z"/><glyph glyph-name="minus" unicode="−" d="M68 614v136h888V614H68z"/><glyph glyph-name="uni2215" unicode="∕" horiz-adv-x="1212" d="M0-348l1053 1902 118-61L119-406z"/><glyph glyph-name="uni2219" unicode="∙" horiz-adv-x="409" d="M74 696q0 52 39 91.5t92 39.5 92-39.5 39-91.5-39-91.5-92-39.5-92 39.5T74 696z"/><glyph glyph-name="radical" unicode="√" horiz-adv-x="1368" d="M838 1694h530v-135H961L520 0H338L170 614H0v136h289l143-549h4z"/><glyph glyph-name="infinity" unicode="∞" horiz-adv-x="1368" d="M688 598q-52-86-139.5-150.5T350 383q-136 0-223.5 88.5T39 698q0 135 87.5 223.5T350 1010q105 0 191.5-62.5T682 795q52 85 139 150t201 65q134 0 220.5-88.5T1329 694q0-137-86-224t-221-87q-60 0-115 20t-96 53.5-71 68.5-52 73zm313 281q-75 0-138.5-56.5T758 696q42-77 110-129.5t136-52.5q72 0 123 50t51 132q0 76-49.5 129.5T1001 879zM367 514q41 0 81 18t70.5 48 52.5 58 39 58q-39 75-105.5 129T365 879q-78 0-126.5-54T190 694q0-86 54.5-133T367 514z"/><glyph glyph-name="integral" unicode="∫" d="M827 1513l-32-131q-45 23-97 23-55 0-82-31-14-15-20-44t-7-52.5-1-81.5V-172q0-64-1.5-96.5T572-350t-40-82q-29-34-80-57t-118-23-137 23l32 131q45-23 97-23 55 0 82 31 14 15 20 44t7 52.5 1 81.5v1368q0 64 1.5 96.5T452 1374t40 82q29 34 80 57t118 23 137-23z"/><glyph glyph-name="approxequal" unicode="≈" d="M913 999l91-53q-40-89-103-149-80-80-196-80-15 0-30.5 2t-27 4-29.5 7.5-26 8-29 11.5-25.5 11-28 13-26.5 12q-57 27-82 37.5T345 843t-56 9q-60 0-107-41-40-35-71-106l-91 53q49 103 99 160 69 77 178 77 53 0 105-17t126-52q2-1 22.5-11t25.5-12 23.5-10.5 26-11 23.5-8 26-7.5 23.5-4 24.5-2q76 0 125 49 39 36 65 90zm0-340l91-53q-40-89-103-149-80-80-196-80-15 0-30.5 2t-27 4-29.5 7.5-26 8-29 11.5-25.5 11-28 13-26.5 12q-57 27-82 37.5T345 503t-56 9q-60 0-107-41-40-35-71-106l-91 53q49 103 99 160 69 77 178 77 53 0 105-17t126-52q2-1 22.5-11t25.5-12 23.5-10.5 26-11 23.5-8 26-7.5 23.5-4 24.5-2q76 0 125 49 39 36 65 90z"/><glyph glyph-name="notequal" unicode="≠" d="M68 786v136h491l113 233h121L682 922h274V786H616l-86-180h426V471H465L354 238H231l113 233H68v135h340l88 180H68z"/><glyph glyph-name="lessequal" unicode="≤" d="M225 772l731-326V307L68 709v127l888 401v-139zm731-659H68v135h888V113z"/><glyph glyph-name="greaterequal" unicode="≥" d="M799 772L68 1098v139l888-401V709L68 307v139zm157-659H68v135h888V113z"/><glyph glyph-name="dotmath" unicode="⋅" horiz-adv-x="409" d="M74 696q0 52 39 91.5t92 39.5 92-39.5 39-91.5-39-91.5-92-39.5-92 39.5T74 696z"/><glyph glyph-name="lozenge" unicode="◊" horiz-adv-x="1392" d="M152 684l532 737 533-737L684-53zm892 0l-360 498-360-498 360-498z"/><glyph glyph-name="openbullet" unicode="◦" horiz-adv-x="1009" d="M221 1087q0 121 80.5 202t202.5 81q121 0 201.5-80.5T786 1087q0-121-80-201.5T504 805t-202.5 80.5T221 1087zm103 0q0-88 56-138t124-50 124 50 56 138-56 138.5-124 50.5-124-50.5-56-138.5z"/><glyph glyph-name="uniF400" unicode="" horiz-adv-x="4" d="M-381 1364l152-70-275-276-92 49z"/><glyph glyph-name="uniF401" unicode="" horiz-adv-x="4" d="M-483 1806l143-92-313-239-88 65z"/><glyph glyph-name="uniF406" unicode="" d="M694 1722h135q-15-80-63-137-94-108-254-108t-254 108q-48 57-63 137h135q14-44 51-73 52-41 131-41t131 41q37 29 51 73z"/><glyph glyph-name="uniF407" unicode="" d="M541-106l143-62-213-262-102 53z"/><glyph glyph-name="uniF408" unicode="" d="M512 1632l-180-155-107 84 287 243 287-243-107-84z"/><glyph glyph-name="uniF409" unicode="" d="M344-430l115 328 131-50-144-319z"/><glyph glyph-name="uniF40A" unicode="" d="M389 1065l107 328 131-50-144-319z"/><glyph glyph-name="uniF40B" unicode="" d="M399 1606q0 49 31.5 80.5T512 1718t81.5-31.5T625 1606q0-50-31.5-81.5T512 1493t-81.5 31.5T399 1606z"/><glyph glyph-name="uniF40C" unicode="" d="M332 1675q0 73 53 126.5t127 53.5 127-53.5 53-126.5-53-126.5-127-53.5-127 53.5-53 126.5zm94 2q0-34 26-60t60-26 60 26 26 60-26 60-60 26-60-26-26-60z"/><glyph glyph-name="uniF40D" unicode="" d="M741 1724l88-71q-18-49-53-84-61-64-143-64-23 0-47 6.5t-40 14-50 24.5q-84 41-115 41-36 0-62-26-26-29-34-64l-90 74q19 53 61 92 55 55 129 55 51 0 139-43 84-43 115-43 37 0 66 29 24 24 36 59z"/><glyph glyph-name="uniF40E" unicode="" d="M750-240l-17-120q-57-29-121-29-79 0-138.5 48T414-211q0 69 49 131 39 47 98 80h127q-61-39-96-80-47-56-47-104 0-35 24.5-58.5T651-266q56 0 99 26z"/><glyph glyph-name="uniF4C6" unicode="" horiz-adv-x="1208" d="M881 1366h151V-176q0-163-69-232-63-63-179-63-64 0-112 18v148q42-19 86-19 60 0 90 27 33 31 33 117v766q-205-15-283-15-242 0-338 74-41 31-68 72t-38 87-15 81-4 78v403h152V983q0-30 1.5-51t8.5-57 25-66 47-51q34-26 90.5-34.5T606 715q121 0 275 14v637z"/><glyph glyph-name="uniF4C7" unicode="" horiz-adv-x="880" d="M594 850h147v-997q0-59-2-90t-17-79.5-46-82.5q-64-72-187-72-55 0-104 18v144q55-19 96-19 67 0 94 45 19 32 19 123v494q-126-19-201-19-138 0-207 62-71 64-71 209v264h147V606q0-66 19-100 29-55 129-55 90 0 184 18v381z"/><glyph glyph-name="uniF4CC" unicode="" horiz-adv-x="1163" d="M16 1366h185l426-805 356 805h164L530 0H367l174 381zm734 440l143-92-313-239-88 65z"/><glyph glyph-name="uniF4CD" unicode="" horiz-adv-x="942" d="M137-471L408 80 16 850h168l301-608 277 608h164L301-471H137zm461 1835l152-70-275-276-92 49z"/><glyph glyph-name="dollar.fitted" unicode="" horiz-adv-x="905" d="M823 1176l-121-80q-30 61-77 102-39 34-88 43V786q162-63 239-143 96-99 96-248 0-147-89.5-266.5T537-16v-191H414v182Q261-20 152 86q-46 46-79.5 111.5T25 328l147 41q15-107 82-174 69-72 160-76v561q-153 64-226 133-52 49-73 102t-21 121q0 143 92 239.5T414 1384v179h123v-179q87-9 155-57 82-57 131-151zM537 623V127q83 22 131.5 98T717 389q0 96-66 162-45 45-114 72zM414 842v399q-80-13-124-70t-44-133q0-72 51-123 45-45 117-73z"/><glyph glyph-name="Euro.fitted" unicode="" horiz-adv-x="1202" d="M1135 1274l-68-137q-127 108-309 108-81 0-149-25.5t-111-62-77.5-86.5-51-89.5T342 901h653l-53-135H317q-12-79-2-160h576l-53-135H338q30-157 143-254.5T762 119q206 0 373 157V88Q966-25 754-25q-128 0-233.5 40.5T345 125.5t-113.5 157T174 471H37l53 135h70q-9 84 2 160H37l53 135h88q21 96 67.5 181.5t118 155 176 110.5 228.5 41q201 0 367-115z"/><glyph glyph-name="cent.fitted" unicode="" horiz-adv-x="784" d="M528 1341v-198q118-15 215-80V887q-93 111-215 125V385q69 8 126.5 45.5T750 514V338q-97-72-222-86V29H406v227q-156 23-261 125Q25 497 25 694t127 324q101 101 254 121v202h122zM406 387v619q-82-10-142-70-88-88-88-240 0-145 90-235 57-57 140-74z"/><glyph glyph-name="sterling.fitted" unicode="" horiz-adv-x="1077" d="M958 938H809v20q0 144-74 218-65 65-174 65-107 0-170-63-34-32-55-80t-21-101q0-29 5-57t19-63 22-53 32-64.5 31-61.5l29-57h258V526H504q22-59 22-125 0-100-59-192l121-45q108-43 143-43 61 0 109 45 41 41 63 96l125-74q-37-86-100-139-84-72-183-72-84 0-176 37l-80 31Q387 84 336 84q-62 0-109-37-45-35-61-74L49 53q50 76 96 113 73 61 168 61 58 86 58 176 0 62-27 123H115v115h176l-41 76q-46 84-68 147t-22 137q0 167 108 275t295 108q171 0 273-102 54-52 88-137.5T958 956v-18z"/><glyph glyph-name="yen.fitted" unicode="" horiz-adv-x="1118" d="M1038 786H750L645 606h393V492H633V0H481v492H82v114h387L365 786H82v115h217L31 1366h178l348-610 352 610h178L815 901h223V786z"/><glyph glyph-name="florin.fitted" unicode="" horiz-adv-x="985" d="M850 727H629L504 53q-19-107-44.5-178.5T377-252q-99-96-285-96-36 0-86 8l29 131q28-4 51-4 121 0 182 59 63 63 99 263l112 618H332l18 123h152l67 367q29 159 101 231 68 68 188 68 65 0 131-21l-26-137q-53 22-95 22-53 0-90-32-42-42-65-172l-62-326h217z"/><glyph glyph-name="uni20B4.fitted" unicode="" horiz-adv-x="976" d="M229 1096l-120 80q71 91 161 145 113 68 260 68 145 0 230-74 86-72 86-182 0-127-101-232h191V786H653L471 606h465V492H367q-93-86-93-205 0-69 52-117 55-51 151-51 115 0 199 78 63 60 100 151l139-61Q873 172 795 98 726 30 649 2.5T469-25q-151 0-242 68-48 38-78 98t-30 135q0 117 80 216H41v114h250l182 180H41v115h537q116 101 116 195 0 60-45 102-49 47-145 47-52 0-86.5-10.5T346 1200q-69-44-117-104z"/><glyph glyph-name="uni20B6.fitted" unicode="" horiz-adv-x="927" d="M440 1366q113 0 203-22.5t160-92.5q49-49 77.5-120.5T909 977q0-162-102-260-118-115-330-115H344V422h336V307H344V0H193v307H37v115h156v180H37v135h156v629h247zm-96-143V737h125q153 0 229 80 60 67 60 172 0 98-58 156-76 78-243 78H344z"/><glyph glyph-name="uni20B8.fitted" unicode="" horiz-adv-x="835" d="M825 997H494V0H342v997H10v144h815V997zm0 246H10v123h815v-123z"/><glyph glyph-name="uniF639" unicode="" horiz-adv-x="1085" d="M543-25q-91 0-184 49.5T193 180Q55 381 55 682t138 502q73 106 166 155.5t184 49.5 184-49.5T893 1184q137-199 137-502T893 180Q820 74 727 24.5T543-25zm0 1274q-60 0-123-35.5T307 1098Q207 940 207 682t100-416q50-80 113-115.5T543 115t122.5 35.5T778 266q101 160 101 416t-101 416q-50 80-112.5 115.5T543 1249z"/><glyph glyph-name="uniF63A" unicode="" horiz-adv-x="983" d="M930 0H47l498 575q123 144 160 199 75 108 75 209 0 116-75.5 191T508 1249q-148 0-227-121-42-64-45-161H84q8 173 102 282 121 140 324 140 182 0 302-115.5T932 981q0-71-24.5-139.5T823 688q-54-76-186-227L352 139h578V0z"/><glyph glyph-name="uniF63B" unicode="" horiz-adv-x="935" d="M242 1028H90q6 109 64 201 102 160 317 160 93 0 168-31t121.5-83.5 71-117.5 24.5-137q0-88-40.5-171.5T680 717q19-7 39-18t50-38 52.5-61 39-90T877 387q0-187-120-299.5T457-25q-76 0-145.5 21t-135 76.5T76 211q-28 69-31 143h152q10-84 49-137 33-49 89-75.5T457 115q113 0 190.5 80.5T725 391q0 69-32 133.5T590 621q-67 31-156 28v135q89-7 156 29 115 62 115 203 0 100-58 166.5T471 1249q-115 0-176-78-47-61-53-143z"/><glyph glyph-name="uniF63C" unicode="" horiz-adv-x="1064" d="M854 1442V397h168V258H854V0H702v258H2zM270 397h432v604z"/><glyph glyph-name="uniF63D" unicode="" horiz-adv-x="1003" d="M940 1366v-139H502l-88-295q36 8 86 8 202 0 326-135t124-338q0-148-68.5-261.5t-181-172T453-25Q277-25 147 82 75 144 29 221l121 86q31-61 92-110 99-82 221-82 143 0 239.5 102T799 465q0 147-94.5 241.5T463 801q-130 0-264-94l198 659h543z"/><glyph glyph-name="uniF63E" unicode="" horiz-adv-x="1015" d="M610 1399l115-86-313-436q58 18 120 18 194 0 318.5-129T975 444q0-204-132.5-336.5T506-25q-116 0-209 42T148 127.5t-85.5 149T33 440q0 157 112 314zM504 115q140 0 229.5 93T823 440q0 137-91 226.5T502 756q-138 0-228-90.5T184 440q0-138 89.5-231.5T504 115z"/><glyph glyph-name="uniF63F" unicode="" horiz-adv-x="1081" d="M45 47l776 1180H74v139h1003L164-33z"/><glyph glyph-name="uniF640" unicode="" horiz-adv-x="950" d="M686 711q102-45 154.5-133T893 377q0-170-109.5-286T475-25 166.5 91 57 377q0 113 52.5 201T264 711q-81 47-123.5 125T98 1010q0 74 25 141.5t71 121 119 85 162 31.5 162-31.5 119-85 71-121 25-141.5q0-96-42.5-174T686 711zm-211 61q100 0 167 67.5t67 168.5q0 109-68.5 175T475 1249t-165-66-68-175q0-101 66.5-168.5T475 772zm0-657q118 0 192 74.5T741 381q0 115-74.5 187.5T475 641t-191.5-72.5T209 381q0-117 74-191.5T475 115z"/><glyph glyph-name="uniF641" unicode="" horiz-adv-x="1015" d="M406-33L291 51l313 436q-58-18-121-18-194 0-318 129T41 920q0 204 132.5 336.5T510 1389q116 0 209-42t149-110.5 85.5-149T983 924q0-158-113-314zm106 1282q-140 0-229.5-93T193 924q0-137 91-226.5T514 608q138 0 227.5 90.5T831 924q0 139-89 232t-230 93z"/><glyph glyph-name="uniF6BA" unicode="" horiz-adv-x="655" d="M102 618v152h451V618H102z"/><glyph glyph-name="uniF6BB" unicode="" horiz-adv-x="1187" d="M143 629v131h901V629H143z"/><glyph glyph-name="uniF6BC" unicode="" horiz-adv-x="1638" d="M143 629v131h1352V629H143z"/><glyph glyph-name="uniF6C3" unicode="" d="M348-430l115 328 131-50-143-319z"/><glyph glyph-name="uniF6C9" unicode="" d="M680 1806l143-92-313-239-88 65z"/><glyph glyph-name="uniF6CA" unicode="" d="M512 1649l180 155 107-84-287-243-287 243 107 84z"/><glyph glyph-name="uniF6CB" unicode="" d="M213 1606q0 43 30.5 73.5T317 1710t74-30.5 31-73.5-31-74-74-31-73.5 31-30.5 74zm389 0q0 43 31 73.5t74 30.5 73.5-30.5T811 1606t-30.5-74-73.5-31-74 31-31 74z"/><glyph glyph-name="uniF6CE" unicode="" d="M514 1475l-313 239 143 92 258-266z"/><glyph glyph-name="uniF6CF" unicode="" d="M520 1806l144-82-302-249-88 53zm307 0l144-82-301-249-88 53z"/><glyph glyph-name="uniF6D0" unicode="" d="M184 1501v131h656v-131H184z"/><glyph glyph-name="uniF6D1" unicode="" d="M195 1675l143 47q9-32 29.5-55t41-34 45.5-17 36.5-7 21.5-1 21.5 1 36.5 7 45.5 17 41 34 29.5 55l143-47q-5-16-15-34.5t-35-49.5-58-55-88-41.5-121-17.5-121 17.5-88 41.5-58 55-35 49.5-15 34.5z"/><glyph glyph-name="uniF6D4" unicode="" d="M215 1217l123 47q16-55 60.5-89t113.5-34 113.5 34 60.5 89l123-47q-33-92-112-145.5T512 1018t-185 53.5T215 1217z"/><glyph glyph-name="uniF6DC" unicode="" horiz-adv-x="468" d="M233 0v1223H4l80 143h301V0H233z"/><glyph glyph-name="uniF6DE" unicode="" horiz-adv-x="1228" d="M106 371v131h1014V371H106z"/><glyph glyph-name="nbspace" horiz-adv-x="477"/><glyph glyph-name="hyphenminus" horiz-adv-x="655" d="M102 360v152h451V360H102z"/><glyph glyph-name="dotlessi1" horiz-adv-x="425" d="M139 850h148V0H139v850z"/></font>
</defs>
</svg>
