<svg xmlns="http://www.w3.org/2000/svg"><defs><font id="FuturaPT-Heavy" horiz-adv-x="1024"><font-face font-family="Futura PT Heavy" font-weight="600" units-per-em="2048" panose-1="2 11 8 2 2 2 4 2 3 3" ascent="1563" descent="-485" x-height="913" cap-height="1366" bbox="-725 -532 2488 1964" underline-thickness="102" underline-position="-204" unicode-range="U+0020-FB02"/><glyph glyph-name="afii10017.var.accented" unicode="А`" horiz-adv-x="1386" d="M1055 0L952 258H436L332 0H4l551 1366h289L1382 0h-327zM528 500h338L698 958zm279 1394l194-147-335-264-134 108z"/><glyph glyph-name="afii10022.var.accented" unicode="Е`" horiz-adv-x="1028" d="M922 1366v-266H465V836h434V569H465V266h457V0H150v1366h772zm-295 528l194-147-336-264-133 108z"/><glyph glyph-name="afii10026.var.accented" unicode="И`" horiz-adv-x="1525" d="M150 1366h315V473l633 909h278V0h-315v895L428-16H150v1382zm727 528l194-147-336-264-133 108z"/><glyph glyph-name="afii10032.var.accented" unicode="О`" horiz-adv-x="1658" d="M831 1397q324 0 529-199 100-97 156.5-229.5T1573 682q0-142-53-275t-160-237Q1152-31 831-31q-176 0-309 57.5T299 170q-100 94-156.5 226.5T86 678q0 145 58 284t153 234q84 84 216.5 142.5T831 1397zm-2-291q-182 0-299-117-120-116-120-309 0-185 125-307 118-113 292-113 186 0 303 117 119 115 119 305 0 98-34 177t-85 130q-54 52-132.5 84.5T829 1106zm113 788l195-147-336-264-133 108z"/><glyph glyph-name="afii10037.var.accented" unicode="У`" horiz-adv-x="1273" d="M8 1366h352l287-631 275 631h340L637 0H297l199 393zm742 528l194-147-336-264-133 108z"/><glyph glyph-name="afii10045.var.accented" unicode="Ы`" horiz-adv-x="1734" d="M1270 1366h315V0h-315v1366zM150 0v1366h315V834h188q252 0 375-115 115-108 115-303t-111-301q-52-49-128-76.5t-132-33T643 0H150zm315 580V254h139q113 0 164 37 59 38 59 127 0 39-13 70t-24 42.5-20 16.5q-47 33-164 33H465zm516 1314l195-147-336-264-133 108z"/><glyph glyph-name="afii10047.var.accented" unicode="Э`" horiz-adv-x="1275" d="M102 66v331q71-64 140-96 91-45 219-45 171 0 268 80 106 86 129 227H328v254h528q-24 123-115 203-99 90-272 90-123 0-225-51-67-31-142-96v335q191 99 392 99 314 0 499-183 197-193 197-528 0-337-195-536-72-74-159.5-116t-161-53.5T508-31q-241 0-406 97zm588 1828l195-147-336-264-133 108z"/><glyph glyph-name="afii10048.var.accented" unicode="Ю`" horiz-adv-x="2166" d="M465 844h182q41 214 193 362 109 107 236 149t276 42q322 0 522-197 207-203 207-508 0-159-55.5-294.5T1874 168Q1675-31 1350-31q-319 0-519 203-168 170-188 406H465V0H150v1366h315V844zm891 262q-172 0-281-109-125-125-125-315 0-179 111-299 114-123 299-123 159 0 268 102 129 120 129 326 0 186-115 305-109 113-286 113zm-160 788l195-147-336-264-133 108z"/><glyph glyph-name="afii10049.var.accented" unicode="Я`" horiz-adv-x="1232" d="M1083 1366V0H768v498h-41L406 0H41l393 535q-115 21-194 96-115 108-115 303 0 183 111 299 75 78 169.5 105.5T614 1366h469zM768 739v369h-74q-127 0-186-49-59-51-59-137 0-82 53-131 58-52 192-52h74zm-39 1155l195-147-336-264-133 108z"/><glyph glyph-name="afii10023.var.accented" unicode="Ё`" horiz-adv-x="1028" d="M922 1366v-266H465V836h434V569H465V266h457V0H150v1366h772zm-336 528l137-110-289-273-88 80zM80 1692q0 59 44 95t89 36q51 0 94-39t43-92q0-57-43-95t-94-38q-52 0-92.5 37.5T80 1692zm641 0q0 53 43 92t94 39q45 0 89-36t44-95q0-58-40.5-95.5T858 1559q-51 0-94 38t-43 95z"/><glyph glyph-name="afii10065.var.accented" unicode="а`" horiz-adv-x="1224" d="M815 811v102h295V0H815v111Q723-31 545-31 441-31 358 1T203 109Q70 250 70 451q0 112 38 207.5T211 819q125 125 317 125 190 0 287-133zM602 690q-97 0-162-65-67-67-67-166 0-98 61-164 69-72 174-72 90 0 154 64 72 68 72 172 0 103-68 168-66 63-164 63zm135 774l193-133-312-276-133 98z"/><glyph glyph-name="afii10070.var.accented" unicode="е`" horiz-adv-x="1120" d="M379 582h399q-16 65-59 106-54 51-139 51-91 0-150-59-40-44-51-98zm672-146v-30H369q0-40 14.5-83.5T424 250q52-57 151-57 74 0 119 26 4 2 12.5 9t24.5 25.5 27 41.5l278-29Q989 117 860 37 747-31 571-31 457-31 369-2.5T207 100Q70 237 70 453q0 101 36 196t103 164q131 131 350 131 233 0 363-137 129-136 129-371zM686 1464l193-133-312-276-133 98z"/><glyph glyph-name="afii10074.var.accented" unicode="и`" horiz-adv-x="1187" d="M115 913h295V391l389 522h274V0H778v530L389 0H115v913zm604 551l192-133-311-276-133 98z"/><glyph glyph-name="afii10080.var.accented" unicode="о`" horiz-adv-x="1212" d="M1143 457q0-91-35-182t-102-158Q940 51 836.5 10T606-31 376 10 207 117q-67 67-102 158T70 457t35 182 102 158q66 66 169 106.5T606 944t230.5-40.5T1006 797q67-67 102-158t35-182zM606 694q-101 0-166-65-67-67-67-172t67-172q66-66 168-66 98 0 164 66 68 68 68 172t-68 172q-65 65-166 65zm125 770l193-133-312-276-133 98z"/><glyph glyph-name="afii10085.var.accented" unicode="у`" horiz-adv-x="1198" d="M119-469l321 586L4 913h340l258-495 252 495h332L451-469H119zm606 1933l193-133-312-276-133 98z"/><glyph glyph-name="afii10093.var.accented" unicode="ы`" horiz-adv-x="1439" d="M1034 913h291V0h-291v913zM410 600h202q162 0 248-86 76-76 76-209 0-145-82-225-51-49-113.5-64.5T602 0H115v913h295V600zm0-391h120q65 0 91 24 28 25 28 70 0 44-28 66-30 22-89 22H410V209zm436 1255l192-133-311-276-133 98z"/><glyph glyph-name="afii10095.var.accented" unicode="э`" horiz-adv-x="942" d="M78 25v274q102-92 250-92 99 0 155 37 61 38 82 116H217v201h348q-25 71-90 111-57 35-149 35-136 0-248-95v269q141 63 297 63 235 0 366-131 131-137 131-346 0-120-38.5-214.5T733 96q-42-42-90.5-69.5t-100-39-90.5-15-90-3.5Q212-31 78 25zm448 1439l193-133-311-276-134 98z"/><glyph glyph-name="afii10096.var.accented" unicode="ю`" horiz-adv-x="1615" d="M410 584h114q22 121 111 213 143 147 381 147 242 0 391-145 63-62 101-149.5t38-190.5-35.5-195T1409 106q-82-82-177.5-109.5T1026-31Q782-31 649 96q-20 19-40.5 44t-49 83T520 346H410V0H115v913h295V584zm606 110q-97 0-158-57-72-68-72-182 0-99 64-166 67-70 166-70 92 0 155 60 72 69 72 182 0 105-65 170-63 63-162 63zm-82 770l192-133-311-276-133 98z"/><glyph glyph-name="afii10097.var.accented" unicode="я`" horiz-adv-x="1007" d="M37 0l262 330q-94 16-158 80-69 67-69 184 0 141 84 225 96 94 301 94h436V0H598v305h-29L356 0H37zm561 498v207H494q-62 0-93-23-34-27-34-84 0-44 28-72 32-28 105-28h98zm31 966l192-133-311-276-133 98z"/><glyph glyph-name="afii10071.var.accented" unicode="ё`" horiz-adv-x="1120" d="M379 582h399q-16 65-59 106-54 51-139 51-91 0-150-59-40-44-51-98zm672-146v-30H369q0-40 14.5-83.5T424 250q52-57 151-57 74 0 119 26 4 2 12.5 9t24.5 25.5 27 41.5l278-29Q989 117 860 37 747-31 571-31 457-31 369-2.5T207 100Q70 237 70 453q0 101 36 196t103 164q131 131 350 131 233 0 363-137 129-136 129-371zM625 1464l143-102-297-283-98 74zM92 1251q0 64 44 101t95 37q58 0 98-40.5t40-97.5q0-65-45-102t-93-37-93.5 37T92 1251zm664 0q0 64 44 101t95 37q58 0 97.5-40.5t39.5-97.5q0-65-44.5-102t-92.5-37-93.5 37-45.5 102z"/><glyph glyph-name="fi" unicode="fi" horiz-adv-x="1175" d="M668 672H434V0H139v672H33v241h106v144q0 49 2 80t11 81 31.5 95 58.5 84q109 119 344 119 244 0 358-109 36-35 59.5-79.5t33.5-95.5 13-89 3-88v-15H758v17q0 33-1.5 53.5T745 1163t-30 54q-45 45-117 45-69 0-117-48-47-49-47-145V913h234V672zm90 241h295V0H758v913z"/><glyph glyph-name="fl" unicode="fl" horiz-adv-x="1175" d="M668 672H434V0H139v672H33v241h106v164q0 96 20 174.5t83 145.5q115 119 348 119 236 0 352-109 69-65 90-152.5t21-238.5V0H758v1053q0 117-43 164-39 45-117 45-69 0-117-48-47-49-47-145V913h234V672z"/><glyph glyph-name=".notdef" horiz-adv-x="477"/><glyph glyph-name=".null" horiz-adv-x="0"/><glyph glyph-name="nonmarkingreturn" horiz-adv-x="682"/><glyph glyph-name="space" horiz-adv-x="477"/><glyph glyph-name="exclam" unicode="!" horiz-adv-x="569" d="M436 440H133v926h303V440zM98 154q0 78 54.5 132T285 340t132-54 54-132-54-132.5T285-33 152.5 21.5 98 154z"/><glyph glyph-name="quotedbl" unicode="&quot;" horiz-adv-x="833" d="M373 1366l-49-549H133l-47 549h287zm375 0l-48-549H510l-49 549h287z"/><glyph glyph-name="numbersign" unicode="#" horiz-adv-x="1228" d="M965 604h209l-35-227H930L868 0H606l62 377H485L424 0H162l61 377H16l37 227h205l31 189H84l35 225h205l57 348h262l-57-348h182l57 348h262l-57-348h207l-35-225H995zm-263 0l31 189H551l-31-189h182z"/><glyph glyph-name="dollar" unicode="$" horiz-adv-x="1228" d="M539 1587h184v-207q168-11 311-131l-137-219q-106 96-223 96-87 0-129-39-41-36-41-86 0-48 39-79 15-13 34.5-23t54-24 48.5-21l115-49q135-60 192-117 96-99 96-252 0-186-112-305Q874 28 723 4v-233H539V-4Q409 2 293 63q-106 56-184 140l151 225q65-65 133-106 90-56 191-56 87 0 137 43 49 42 49 105 0 68-61 110-12 8-27.5 16T655 552.5 614 568t-47 18l-71 28q-137 55-207 125-92 96-92 226 0 90 30.5 169t85.5 134q90 90 226 112v207z"/><glyph glyph-name="percent" unicode="%" horiz-adv-x="1699" d="M379 4l801 1385 143-31L520-29zm41 1215q-73 0-117-48-45-45-45-118 0-74 45-119 43-47 117-47t117 47q45 45 45 119 0 73-45 118-44 48-117 48zm358-166q0-142-88-230-97-102-270-102T150 823q-89 89-89 230 0 140 89 229 97 102 270 102t270-102q88-88 88-229zm502-574q-74 0-117-47-45-45-45-119 0-73 45-118 44-48 117-48t117 48q45 45 45 118 0 74-45 119-43 47-117 47zm358-166q0-141-88-229-97-102-270-102T1010 84q-88 88-88 229 0 142 88 230 97 102 270 102t270-102q88-88 88-230z"/><glyph glyph-name="ampersand" unicode="&amp;" horiz-adv-x="1523" d="M1221 690l178-174q-85-110-182-197L1507 0h-385L999 133Q914 48 825 10q-97-41-256-41-107 0-191 21T223 78Q106 190 106 360q0 163 107 273 83 86 221 127-66 66-94 121-37 70-37 159 0 150 96 246 115 111 301 111 195 0 306-111 94-94 94-233 0-138-105-240-61-58-147-94l199-219q87 78 174 190zM823 332L588 596q-75-38-111-80-47-52-47-123 0-61 49-106 51-45 133-45 107 0 211 90zm-227 731q0-46 35-100 29-42 78-91 56 27 96 74 43 50 43 113 0 53-35 88-38 33-92 33-52 0-86-29-39-33-39-88z"/><glyph glyph-name="quotesingle" unicode="'" horiz-adv-x="458" d="M373 1366l-49-549H133l-47 549h287z"/><glyph glyph-name="parenleft" unicode="(" horiz-adv-x="686" d="M373 1516l198-111q-86-176-131-358-55-223-55-480 0-252 55-475 45-182 131-358L373-377Q267-184 211 16q-72 247-72 551 0 298 72 555 57 202 162 394z"/><glyph glyph-name="parenright" unicode=")" horiz-adv-x="686" d="M139 1405l199 111q105-192 162-394 71-253 71-555 0-307-71-551-56-200-162-393L139-266Q225-90 270 92q56 227 56 475 0 253-56 480-45 182-131 358z"/><glyph glyph-name="asterisk" unicode="*" horiz-adv-x="1198" d="M301 1350l213-90-16 233h202l-18-233 215 90 64-191-228-53 150-178-160-119-125 199-123-199-160 119 150 176-227 53z"/><glyph glyph-name="plus" unicode="+" d="M68 578v237h315v315h258V815h315V578H641V260H383v318H68z"/><glyph glyph-name="comma" unicode="," horiz-adv-x="718" d="M49-262l225 577 269-14-310-571z"/><glyph glyph-name="hyphen" unicode="-" horiz-adv-x="729" d="M102 389v258h525V389H102z"/><glyph glyph-name="period" unicode="." horiz-adv-x="569" d="M98 154q0 78 54.5 132T285 340t132-54 54-132-54-132.5T285-33 152.5 21.5 98 154z"/><glyph glyph-name="slash" unicode="/" horiz-adv-x="1433" d="M31-377l1079 1911 231-41L262-418z"/><glyph glyph-name="zero" unicode="0" horiz-adv-x="1228" d="M1176 682q0-179-49.5-327T979 111Q833-31 612-31q-216 0-362 142-98 96-147.5 244T53 682q0 181 49.5 329.5T250 1255q146 142 362 142 221 0 367-142 98-95 147.5-243.5T1176 682zm-562 444q-73 0-127-51-46-45-73.5-125.5t-34-141.5-6.5-124q0-65 7.5-129.5t35-142.5T487 291q54-51 127-51t127 51q64 63 89.5 174.5T856 684q0 62-7 124t-34.5 142-73.5 125q-54 51-127 51z"/><glyph glyph-name="one" unicode="1" horiz-adv-x="1228" d="M473 0v1100H279v266h509V0H473z"/><glyph glyph-name="two" unicode="2" horiz-adv-x="1228" d="M1094 266V0H49l410 446q149 166 223 279 82 130 82 231 0 86-53 136-41 38-125 38-79 0-125-49-27-29-42.5-77.5T403 913H88q8 94 44.5 186.5T229 1255q134 142 377 142 221 0 355-129 126-126 126-328 0-87-25-158t-77-143q-62-86-219-236L623 266h471z"/><glyph glyph-name="three" unicode="3" horiz-adv-x="1228" d="M395 956H92q9 87 45.5 171t89.5 139q124 129 346 129 238 0 359-121 104-100 104-279 0-111-55-186-41-58-102-86 100-35 155-111 30-40 47-99t17-116q0-83-34-165.5T961 86Q882 14 793-9.5T600-33Q482-33 383-3.5T201 109Q70 244 49 446h316q3-41 20.5-83.5T430 293q55-55 152-55 87 0 137 47 55 52 55 139 0 83-59 131-54 43-168 43h-25v217h19q90 0 137 39 51 44 51 123 0 68-45 110-45 41-117 41-78 0-123-45-45-48-49-127z"/><glyph glyph-name="four" unicode="4" horiz-adv-x="1228" d="M1010 1366V508h164V258h-164V0H707v258H39v180l602 928h369zM371 508h336v530z"/><glyph glyph-name="five" unicode="5" horiz-adv-x="1228" d="M1010 1366v-266H549l-37-182q58 10 113 10 218 0 348-133 125-125 125-330 0-212-140-352Q872 29 770.5-1T545-31Q425-31 315.5-1T90 119l72 293q64-71 131-113 91-59 207-59 125 0 194 55 80 61 80 172 0 99-69 160-81 71-228 71-148 0-278-71l139 739h672z"/><glyph glyph-name="six" unicode="6" horiz-adv-x="1228" d="M590 1397l338-35-361-449q67 23 144 23 211 0 338-131 118-123 118-316 0-103-32.5-199.5T1038 123Q895-31 618-31q-58 0-105.5 5T403-6.5t-120.5 49T176 129Q57 256 57 461q0 78 16.5 149.5T124 749t67 117.5T276 985zm18-1170q97 0 164 62 72 68 72 180 0 103-72 168-65 57-164 57-104 0-166-59-69-64-69-174 0-106 69-170 67-64 166-64z"/><glyph glyph-name="seven" unicode="7" horiz-adv-x="1228" d="M102 41l619 1059H119v266h1085L395-31z"/><glyph glyph-name="eight" unicode="8" horiz-adv-x="1228" d="M612-31q-57 0-95.5 3T427-14.5t-97.5 35T240 84Q109 202 109 381q0 137 92 233 69 72 170 103-72 29-125 84-84 87-84 217 0 154 100 254 123 125 354 125 228 0 351-125 100-100 100-254 0-130-84-217-53-55-125-84 101-31 170-103 92-96 92-233 0-179-131-297-81-73-168-94T612-31zm2 1194q-70 0-120-45-52-49-52-117t52-116q52-45 120-45 71 0 119 45 51 48 51 116t-51 119q-50 43-119 43zm-4-573q-80 0-129-49-24-24-38.5-61.5T428 406q0-88 53-138 52-49 133-49 82 0 134 49 53 50 53 140 0 83-53 133-49 49-138 49z"/><glyph glyph-name="nine" unicode="9" horiz-adv-x="1228" d="M635-31L297 4l360 447q-71-21-137-21-107 0-196 34t-148 93Q57 676 57 887q0 217 133 356 147 154 428 154 261 0 410-137 59-55 99-142.5t40-204.5q0-141-61-278-49-105-160-254zm-19 1170q-98 0-163-62-72-67-72-172 0-113 70-176 63-57 165-57 100 0 166 59 70 66 70 180 0 99-70 166-66 62-166 62z"/><glyph glyph-name="colon" unicode=":" horiz-adv-x="569" d="M98 156q0 78 54.5 132T285 342t132-54 54-132-54-132.5T285-31 152.5 23.5 98 156zm0 602q0 78 54.5 132T285 944t132-54 54-132-54-132.5T285 571t-132.5 54.5T98 758z"/><glyph glyph-name="semicolon" unicode=";" horiz-adv-x="724" d="M8-262l225 577 269-14-309-571zM172 758q0 78 54 132t132 54 132.5-54T545 758t-54.5-132.5T358 571t-132 54.5T172 758z"/><glyph glyph-name="less" unicode="&lt;" d="M68 795l888 448V989L340 684l616-305V125L68 573v222z"/><glyph glyph-name="equal" unicode="=" d="M68 760v225h888V760H68zm0-352v225h888V408H68z"/><glyph glyph-name="greater" unicode="&gt;" d="M956 795V573L68 125v254l616 305L68 989v254z"/><glyph glyph-name="question" unicode="?" horiz-adv-x="1075" d="M653 438H354v377q66-17 142-6t120 49q62 55 62 141 0 63-39 105-37 39-98 39-66 0-105-39-17-18-27-51t-8-64H86q1 87 33 160.5t80 122.5q120 125 338 125 210 0 337-123 115-112 115-283 0-151-102-260-93-102-234-121V438zM326 156q0 78 54 132t132 54 132-54 54-132-54-132.5T512-31 380 23.5 326 156z"/><glyph glyph-name="at" unicode="@" horiz-adv-x="1503" d="M958 911l17 86h172l-82-415q-8-32-8-70 0-42 18-57 13-13 35-13 31 0 66 31 51 43 79.5 131.5T1284 768q0 94-32.5 176t-86.5 137q-61 65-159 104.5T793 1225q-120 0-222.5-43.5T397 1065q-77-80-119-188.5T236 659q0-119 47-228t129-183q45-40 96.5-67.5t104-40 97-17T807 119q189 0 369 67l38-155q-190-66-401-66-362 0-555 203-92 96-141 229T68 668q0 313 206 512 204 198 521 198 293 0 471-176 170-167 170-422 0-118-39.5-223.5T1288 385q-84-82-190-82-66 0-111 39-34 28-47 76-84-131-250-131-126 0-205 82-86 88-86 239 0 187 113 305 100 105 244 105 47 0 85.5-12t62-32 35.5-34.5 19-28.5zM733 461q64 0 111 47 33 33 51 81t18 95q0 83-45 125-33 31-88 31-67 0-114-47-34-33-53-81t-19-96q0-75 43-118 37-37 96-37z"/><glyph glyph-name="A" unicode="A" horiz-adv-x="1386" d="M1055 0L952 258H436L332 0H4l551 1366h289L1382 0h-327zM528 500h338L698 958z"/><glyph glyph-name="B" unicode="B" horiz-adv-x="1216" d="M150 1366h417q238 0 348-104 99-94 99-258 0-103-45-175-43-69-115-100 113-17 188-92 88-88 88-244 0-170-106-276Q903 0 664 0H150v1366zm311-246V811h51q107 0 160 39 55 38 55 121 0 76-53 114-21 16-52 24.5t-52 9.5-60 1h-49zm0-542V246h76q52 0 85.5 2t77.5 15 70 38q45 42 45 115 0 71-43 110-56 52-225 52h-86z"/><glyph glyph-name="C" unicode="C" horiz-adv-x="1239" d="M1137 406V43Q990-31 836-31q-334 0-537 199-97 94-155 227.5T86 686q0 155 58 287.5T299 1200q95 92 225.5 144.5T809 1397q151 0 328-76V956q-138 146-320 146-168 0-278-107-129-126-129-315 0-187 118-301 16-16 36.5-31t57.5-36.5 89.5-34.5T823 264q170 0 314 142z"/><glyph glyph-name="D" unicode="D" horiz-adv-x="1402" d="M150 1366h432q103 0 184-12t178-55.5 176-120.5q197-190 197-490 0-296-187-483Q927 0 592 0H150v1366zm315-266V266h84q202 0 311 92 59 49 96 135t37 195q0 183-112 295-117 117-332 117h-84z"/><glyph glyph-name="E" unicode="E" horiz-adv-x="1028" d="M922 1366v-266H465V836h434V569H465V266h457V0H150v1366h772z"/><glyph glyph-name="F" unicode="F" horiz-adv-x="989" d="M907 1366v-266H465V836h409V569H465V0H150v1366h757z"/><glyph glyph-name="G" unicode="G" horiz-adv-x="1570" d="M807 492v253h678v-14q0-142-53-304t-158-271Q1170 48 1049.5 8.5T786-31Q640-31 518 8.5T287 160Q86 366 86 680q0 161 53 293.5T283 1198q60 62 130 104t142.5 61.5 133 26.5 130.5 7q227 0 383-103 66-44 124-109t97-134l-284-154q-47 93-121 147-89 66-209 66-178 0-283-111-116-122-116-323 0-200 114-314 103-106 277-106 152 0 237 74 11 9 25 23.5t38 54 36 84.5H807z"/><glyph glyph-name="H" unicode="H" horiz-adv-x="1474" d="M465 1366V846h545v520h315V0h-315v580H465V0H150v1366h315z"/><glyph glyph-name="I" unicode="I" horiz-adv-x="626" d="M156 1366h315V0H156v1366z"/><glyph glyph-name="J" unicode="J" horiz-adv-x="849" d="M385 1366h315V436q0-50-3-86.5T683.5 260t-36-101T582 72Q479-31 293-31 158-31 76 18 4 63-53 133l196 221q23-48 50-75 31-31 77-31t74 28q41 41 41 162v928z"/><glyph glyph-name="K" unicode="K" horiz-adv-x="1372" d="M465 1366V797l467 569h385L764 719 1360 0H954L465 606V0H150v1366h315z"/><glyph glyph-name="L" unicode="L" horiz-adv-x="917" d="M150 1366h315V266h424V0H150v1366z"/><glyph glyph-name="M" unicode="M" horiz-adv-x="1814" d="M401 0H86l219 1366h262l340-817 340 817h262L1729 0h-316l-108 815L963 0H852L510 815z"/><glyph glyph-name="N" unicode="N" horiz-adv-x="1630" d="M465 0H150v1366h274l741-881v881h316V0h-275L465 885V0z"/><glyph glyph-name="O" unicode="O" horiz-adv-x="1658" d="M831 1397q324 0 529-199 100-97 156.5-229.5T1573 682q0-142-53-275t-160-237Q1152-31 831-31q-176 0-309 57.5T299 170q-100 94-156.5 226.5T86 678q0 145 58 284t153 234q84 84 216.5 142.5T831 1397zm-2-291q-182 0-299-117-120-116-120-309 0-185 125-307 118-113 292-113 186 0 303 117 119 115 119 305 0 98-34 177t-85 130q-54 52-132.5 84.5T829 1106z"/><glyph glyph-name="P" unicode="P" horiz-adv-x="1171" d="M150 1366h481q230 0 358-113 133-116 133-331 0-201-116-322-119-121-349-121H465V0H150v1366zm315-258V737h113q117 0 170 51 51 51 51 136t-51 133q-53 51-177 51H465z"/><glyph glyph-name="Q" unicode="Q" horiz-adv-x="1665" d="M1319-63L1186 76Q1038-31 803-31q-158 0-279.5 48T301 164Q189 275 137.5 409.5T86 684q0 148 57 281.5T293 1192q94 94 229.5 149.5T827 1397q156 0 293-52.5t236-144.5q98-92 155.5-225t57.5-295q0-135-58-264-48-110-133-185l238-258zm-277 632l123-131q80 110 80 246 0 184-117 301-58 59-136.5 90T827 1106q-91 0-168.5-33.5T528 985q-57-58-87.5-141T410 678q0-177 114-297 118-121 295-121 90 0 164 35L737 537z"/><glyph glyph-name="R" unicode="R" horiz-adv-x="1243" d="M150 1366h479q219 0 348-119 119-115 119-305 0-173-107-278-83-80-190-105L1219 0H834L465 539V0H150v1366zm315-246V745h72q128 0 188 60 51 51 51 133 0 92-63 139-56 43-174 43h-74z"/><glyph glyph-name="S" unicode="S" horiz-adv-x="1126" d="M995 1262l-141-230q-109 98-229 98-91 0-133-47-35-35-35-86 0-48 30-75 10-9 21-16t28.5-15 30.5-13 42.5-16 49.5-18l103-39q129-50 186-105 101-96 101-254 0-103-32.5-191.5T928 109Q795-31 541-31q-155 0-271 58Q168 78 70 176l163 225q66-66 127-104 79-49 172-49 90 0 144 47 49 42 49 111 0 57-47 98-39 32-160 76l-112 38q-41 15-67.5 26.5T276 678t-61 49q-82 87-82 238 0 185 119 307 122 125 338 125 223 0 405-135z"/><glyph glyph-name="T" unicode="T" horiz-adv-x="942" d="M926 1100H629V0H313v1100H16v266h910v-266z"/><glyph glyph-name="U" unicode="U" horiz-adv-x="1454" d="M1305 1366V557q0-124-30.5-231T1153 125Q1064 33 959.5 1T727-31 494.5 1 301 125q-48 50-80 106t-46.5 114.5-19.5 106-5 105.5v809h315V565q0-155 72-229 67-72 190-72 124 0 191 72 71 73 71 229v801h316z"/><glyph glyph-name="V" unicode="V" horiz-adv-x="1388" d="M8 1366h340l346-874 346 874h340L801 0H588z"/><glyph glyph-name="W" unicode="W" horiz-adv-x="2052" d="M8 1366h328l291-905 291 905h217l290-905 291 905h328L1579 0h-266l-287 829L739 0H473z"/><glyph glyph-name="X" unicode="X" horiz-adv-x="1404" d="M20 0l502 725-424 641h379l225-389 226 389h379L883 725 1384 0h-378L702 473 399 0H20z"/><glyph glyph-name="Y" unicode="Y" horiz-adv-x="1294" d="M489 0v637L0 1366h373l274-424 275 424h372L805 637V0H489z"/><glyph glyph-name="Z" unicode="Z" horiz-adv-x="1261" d="M1217 1366L563 266h586V0H45l655 1100H152v266h1065z"/><glyph glyph-name="bracketleft" unicode="[" horiz-adv-x="724" d="M623 1292H434V-176h189v-201H184v1870h439v-201z"/><glyph glyph-name="backslash" unicode="\" horiz-adv-x="1433" d="M1403-377l-232-41L92 1493l232 41z"/><glyph glyph-name="bracketright" unicode="]" horiz-adv-x="724" d="M102 1292v201h439V-377H102v201h189v1468H102z"/><glyph glyph-name="asciicircum" unicode="^" d="M510 1167L283 682H12l330 684h338l330-684H739z"/><glyph glyph-name="underscore" unicode="_" d="M0-377v242h1024v-242H0z"/><glyph glyph-name="grave" unicode="`" d="M492 1055l-312 276 195 133 250-311z"/><glyph glyph-name="a" unicode="a" horiz-adv-x="1224" d="M815 811v102h295V0H815v111Q723-31 545-31 441-31 358 1T203 109Q70 250 70 451q0 112 38 207.5T211 819q125 125 317 125 190 0 287-133zM602 690q-97 0-162-65-67-67-67-166 0-98 61-164 69-72 174-72 90 0 154 64 72 68 72 172 0 103-68 168-66 63-164 63z"/><glyph glyph-name="b" unicode="b" horiz-adv-x="1232" d="M123 1493h295V811q98 133 284 133 92 0 174.5-32.5T1020 821q143-137 143-360 0-107-36.5-202T1020 94Q898-31 707-31q-192 0-289 142V0H123v1493zm508-803q-102 0-166-67-66-70-66-168 0-100 68-164 34-33 79.5-50.5T635 223q86 0 153 64 72 69 72 168 0 105-72 174-64 61-157 61z"/><glyph glyph-name="c" unicode="c" horiz-adv-x="882" d="M801 893V625q-84 69-193 69-103 0-168-65-67-67-67-172 0-100 61-164 68-74 178-74 103 0 189 72V25Q699-31 567-31q-214 0-354 137Q70 245 70 455q0 216 151 360 137 129 348 129 124 0 232-51z"/><glyph glyph-name="d" unicode="d" horiz-adv-x="1232" d="M1110 1493V0H815v111Q718-31 526-31 335-31 213 94q-70 70-106.5 165T70 461q0 223 143 360 129 123 317 123 187 0 285-133v682h295zM602 690q-94 0-158-61-71-68-71-174 0-100 71-168 67-64 154-64 43 0 88.5 17.5T766 291q68 64 68 164 0 98-66 168-64 67-166 67z"/><glyph glyph-name="e" unicode="e" horiz-adv-x="1120" d="M379 582h399q-16 65-59 106-54 51-139 51-91 0-150-59-40-44-51-98zm672-146v-30H369q0-40 14.5-83.5T424 250q52-57 151-57 74 0 119 26 4 2 12.5 9t24.5 25.5 27 41.5l278-29Q989 117 860 37 747-31 571-31 457-31 369-2.5T207 100Q70 237 70 453q0 101 36 196t103 164q131 131 350 131 233 0 363-137 129-136 129-371z"/><glyph glyph-name="f" unicode="f" horiz-adv-x="667" d="M668 676H434V0H139v676H33v237h106v181q0 95 20.5 173t82.5 144q98 105 256 105 84 0 168-31v-258q-58 35-113 35-58 0-86-37-33-43-33-158V913h234V676z"/><glyph glyph-name="g" unicode="g" horiz-adv-x="1218" d="M809 807v106h295V55q0-125-21-218.5T991-334Q865-469 606-469q-244 0-381 117-112 96-137 241h322q15-58 65-90 46-30 127-30 94 0 148 49 59 57 59 190v105Q724-25 537-25q-205 0-334 129Q70 241 70 449q0 112 37 206.5T205 813q126 131 332 131 180 0 272-137zM604 688q-100 0-162-59-32-31-50.5-78.5T373 459q0-98 63-164t166-66q96 0 160 60 72 69 72 174 0 102-70 168-63 57-160 57z"/><glyph glyph-name="h" unicode="h" horiz-adv-x="1169" d="M123 0v1493h295V805q53 65 110 94 72 39 179 39 168 0 258-92 90-90 90-266V0H760v469q0 41-2 67t-13.5 60-33.5 55q-41 41-115 41-72 0-117-45-61-59-61-190V0H123z"/><glyph glyph-name="i" unicode="i" horiz-adv-x="565" d="M135 913h295V0H135v913zm-24 390q0 72 50 122t122 50 122-50 50-122-50-122.5-122-50.5-122 50.5-50 122.5z"/><glyph glyph-name="j" unicode="j" horiz-adv-x="565" d="M135 913h295V-469H135V913zm-24 390q0 72 50 122t122 50 122-50 50-122-50-122.5-122-50.5-122 50.5-50 122.5z"/><glyph glyph-name="k" unicode="k" horiz-adv-x="1159" d="M123 1493h295V578l332 335h387L702 500 1167 0H770L418 393V0H123v1493z"/><glyph glyph-name="l" unicode="l" horiz-adv-x="540" d="M123 1493h295V0H123v1493z"/><glyph glyph-name="m" unicode="m" horiz-adv-x="1726" d="M115 0v913h295V807q85 129 256 129 104 0 172-41 71-41 110-127 44 72 117 117 82 51 195 51 167 0 256-86 94-90 94-272V0h-295v463q0 129-39 178-40 49-107 49-72 0-114-55-45-57-45-180V0H715v475q0 39-2 64.5t-13 59-32 54.5q-37 37-99 37t-102-37q-57-55-57-186V0H115z"/><glyph glyph-name="n" unicode="n" horiz-adv-x="1161" d="M115 0v913h295V805q104 133 282 133 170 0 262-92 93-93 93-268V0H752v469q0 132-50 182-41 41-112 41-78 0-123-49-57-57-57-174V0H115z"/><glyph glyph-name="o" unicode="o" horiz-adv-x="1212" d="M1143 457q0-91-35-182t-102-158Q940 51 836.5 10T606-31 376 10 207 117q-67 67-102 158T70 457t35 182 102 158q66 66 169 106.5T606 944t230.5-40.5T1006 797q67-67 102-158t35-182zM606 694q-101 0-166-65-67-67-67-172t67-172q66-66 168-66 98 0 164 66 68 68 68 172t-68 172q-65 65-166 65z"/><glyph glyph-name="p" unicode="p" horiz-adv-x="1224" d="M410 104v-573H115V913h295V805q107 139 284 139 195 0 324-129 64-64 100.5-155.5T1155 459q0-222-145-367Q887-31 700-31q-193 0-290 135zm213 586q-97 0-164-67-34-34-52-79.5T389 455q0-93 66-162 70-70 168-70 90 0 157 64 34 33 53 80.5t19 93.5q0 99-70 166-66 63-159 63z"/><glyph glyph-name="q" unicode="q" horiz-adv-x="1224" d="M815-469v573Q708-31 524-31q-94 0-168 28T215 92Q70 237 70 459q0 212 137 356 126 129 319 129 180 0 289-139v108h295V-469H815zM602 690q-94 0-160-63-69-66-69-166 0-46 18.5-93.5T444 287q67-64 158-64 98 0 168 70 66 69 66 162 0 43-18 88.5T766 623q-67 67-164 67z"/><glyph glyph-name="r" unicode="r" horiz-adv-x="786" d="M115 0v913h295V770q45 84 114 127 62 39 158 39 50 0 96-14l-16-277q-64 33-133 33-89 0-148-62-44-47-57.5-107.5T410 371V0H115z"/><glyph glyph-name="s" unicode="s" horiz-adv-x="888" d="M791 866L674 680q-85 51-162 51-58 0-84-26-18-18-18-41 0-25 28-41 9-5 21-9.5t35-11.5 32-10l78-25q98-31 152-80 71-66 71-174 0-145-94-239Q628-31 436-31 211-31 61 100l125 199q55-47 101-68 57-28 123-28 65 0 92 20 30 23 30 60 0 34-32 53-25 15-90 33l-74 22q-92 28-148 84-65 68-65 166 0 130 88 211 99 92 276 92 170 0 304-78z"/><glyph glyph-name="t" unicode="t" horiz-adv-x="612" d="M600 676H418V0H123v676H20v237h103v295h295V913h182V676z"/><glyph glyph-name="u" unicode="u" horiz-adv-x="1167" d="M115 913h295V410q0-101 51-148 48-43 123-43 79 0 125 43 49 47 49 148v503h295V381q0-93-20-162.5T950 88Q829-31 584-31 336-31 215 88q-58 57-79 123t-21 151v551z"/><glyph glyph-name="v" unicode="v" horiz-adv-x="1118" d="M4 913h324l231-489 232 489h323L651 0H467z"/><glyph glyph-name="w" unicode="w" horiz-adv-x="1744" d="M872 520L643 0H459L4 913h324l235-485 232 498h155l232-498 235 485h324L1286 0h-184z"/><glyph glyph-name="x" unicode="x" horiz-adv-x="1269" d="M4 0l447 498L88 913h377l170-211 170 211h377L819 498 1266 0H885L635 295 385 0H4z"/><glyph glyph-name="y" unicode="y" horiz-adv-x="1198" d="M119-469l321 586L4 913h340l258-495 252 495h332L451-469H119z"/><glyph glyph-name="z" unicode="z" horiz-adv-x="1021" d="M997 913L524 246h432V0H25l475 668H96v245h901z"/><glyph glyph-name="braceleft" unicode="{" horiz-adv-x="1032" d="M496 557q65-25 94-86 28-58 28-172V-29q0-67 25-92 14-14 39-20.5t45.5-7.5 60.5-1h39v-223q-70-4-149-4t-135.5 12.5T440-311q-35 32-52 74.5t-19 71-2 83.5v387q0 80-35 115-32 32-78 35v217q46 3 78 35 35 35 35 114v377q0 55 2 83.5t19 71 52 74.5q46 41 102.5 53.5T678 1493t149-4v-223h-39q-40 0-60.5-1t-45.5-7.5-39-20.5q-25-25-25-92V815q0-114-28-172-29-61-94-86z"/><glyph glyph-name="bar" unicode="|" horiz-adv-x="1032" d="M387-512v2048h258V-512H387z"/><glyph glyph-name="braceright" unicode="}" horiz-adv-x="1032" d="M414-29v328q0 114 28 172 29 60 95 86-66 26-95 86-28 58-28 172v330q0 67-25 92-14 14-39 20.5t-45.5 7.5-60.5 1h-39v223q70 4 149 4t135.5-12.5T592 1427q35-32 52-74t19.5-71.5 2.5-83.5V821q0-80 34-114 32-32 78-35V455q-46-3-78-35-34-34-34-115V-82q0-54-2.5-83.5T644-237t-52-74q-46-41-102.5-53.5T354-377t-149 4v223h39q40 0 60.5 1t45.5 7.5 39 20.5q25 25 25 92z"/><glyph glyph-name="asciitilde" unicode="~" d="M520 461l-74 28q-5 2-26 10.5T389 511t-31 7-43 4q-63 0-100-37t-57-88L12 485l11 23q63 139 114 190 74 74 185 74 71 0 178-41l78-29q84-32 139-32 58 0 98 37 36 36 49 69l148-86-8-16q-57-112-109-166-44-47-89.5-67.5T698 420q-73 0-178 41z"/><glyph glyph-name="uni00A0" horiz-adv-x="477"/><glyph glyph-name="exclamdown" unicode="¡" horiz-adv-x="569" d="M436 455v-926H133v926h303zM98 741q0 78 54.5 132.5T285 928t132-54.5T471 741t-54-132-132-54-132.5 54T98 741z"/><glyph glyph-name="cent" unicode="¢" horiz-adv-x="1228" d="M633 1352h184v-193q71-6 129-39V848q-72 78-176 78-44 0-89.5-17.5T602 860q-70-67-70-176 0-110 70-176 30-27 75-42t89-15q112 0 180 75V252q-67-30-129-35V27H633v182q-155 20-266 129-138 135-138 336 0 218 142 360 105 105 262 133v185z"/><glyph glyph-name="sterling" unicode="£" horiz-adv-x="1228" d="M326 508H96v188h140q-62 106-62 234 0 197 129 323 145 142 385 142 117 0 209-33t150-90q61-59 94-149t33-189q0-25-3-49H858q0 141-51 194-54 54-133 54-78 0-129-48-66-62-66-163 0-86 68-226h305V508H596q16-58 16-96 0-51-20-121l119-39q112-37 170-37 53 0 80 29 22 22 30 69l201-24q-8-63-35-129t-65-107q-80-84-211-84-95 0-236 47l-80 27q-89 29-155 29-68 0-101-27-27-20-39-55L57 8q14 59 44 118.5t67 96.5q72 72 170 88 16 54 16 95 0 55-28 102z"/><glyph glyph-name="currency" unicode="¤" horiz-adv-x="1366" d="M182 137L43 276l211 211q-90 116-90 283 0 159 92 283L43 1266l139 139 213-211q120 90 287 90 171 0 285-90l211 211 139-139-209-211q92-114 92-285 0-175-90-283l211-211-139-139-211 211q-115-92-289-92-177 0-289 90zm500 348q121 0 199 78 82 82 82 207t-80 205-201 80q-125 0-201-80-80-80-80-205 0-120 78-201 78-84 203-84z"/><glyph glyph-name="yen" unicode="¥" horiz-adv-x="1228" d="M414 711H127v198h168L20 1366h357l239-434 234 434h360L928 909h176V711H805l-47-72v-57h346V383H758V0H459v383H127v199h332v57z"/><glyph glyph-name="brokenbar" unicode="¦" horiz-adv-x="1032" d="M387 748v788h258V748H387zm0-1260v791h258v-791H387z"/><glyph glyph-name="section" unicode="§" horiz-adv-x="1175" d="M985 1116H719q0 34-10.5 68.5T680 1237q-37 37-96 37-53 0-88-31t-35-80q0-64 63-108 21-15 44.5-27t66-30.5T690 973l64-29q124-56 182-119 90-94 90-233 0-128-68-223-61-85-155-123 77-39 121-103 49-70 49-161 0-160-103-258-103-101-276-101-193 0-301 115-48 52-78 126T182 18h267q0-77 36-122 35-48 103-48 57 0 90 33 41 38 41 105 0 56-43 96-8 7-16 13t-20.5 12-19.5 10-25 11-25.5 10-32 12-33.5 12q-92 33-153.5 63.5T246 301q-96 98-96 264 0 123 57 203 56 81 160 121-72 38-113 94-53 69-53 170 0 144 90 238 100 102 284 102 201 0 299-102 44-46 74.5-123t36.5-152zM590 729q-72 0-117-45t-45-117q0-73 45-118 46-46 117-46 66 0 112 46t46 118q0 71-46 117-45 45-112 45z"/><glyph glyph-name="dieresis" unicode="¨" d="M573 1227q0 66 48 114t114 48 114-48 48-114-48-114-114-48-114 48-48 114zm-446 0q0 66 48 114t114 48 114-48 48-114-48-114-114-48-114 48-48 114z"/><glyph glyph-name="copyright" unicode="©" horiz-adv-x="1560" d="M1038 1061V811q-90 102-209 102-99 0-163-61-32-31-49-78t-17-94q0-100 57-160 66-69 174-69 112 0 207 100V305q-116-51-227-51-205 0-322 121-54 55-86 134t-32 169q0 184 121 305 123 127 327 127 115 0 219-49zm-258 209q-99 0-207-43.5T389 1110q-78-76-127-190.5T213 684q0-122 49-237.5T389 256q76-73 184-116.5T780 96t207 43.5T1171 256q78 75 127.5 190.5T1348 684q0 120-49.5 235T1171 1110q-76 73-184 116.5T780 1270zm711-588q0-145-55-277t-156-233q-95-94-223-148.5T780-31 504 23.5 281 172Q180 273 125 405T70 682q0 148 55 279.5T281 1194q96 94 223 148.5t276 54.5 277-54.5 223-148.5q101-101 156-232.5t55-279.5z"/><glyph glyph-name="ordfeminine" unicode="ª" horiz-adv-x="720" d="M483 1288v62h172V809H483v65q-56-83-168-83-115 0-186 71-84 79-84 217 0 134 84 215 76 72 184 72 109 0 170-78zM66 596v135h589V596H66zm290 618q-60 0-100-43-35-38-35-96 0-57 35-92 41-41 100-41 60 0 101 41 35 38 35 92 0 64-35 99-40 40-101 40z"/><glyph glyph-name="guillemotleft" unicode="«" horiz-adv-x="1093" d="M324 459l241-326L399 16 82 459l317 440 162-113zm426 0l241-326L825 16 508 459l317 440 162-113z"/><glyph glyph-name="logicalnot" unicode="¬" d="M958 0H700v305H66v242h892V0z"/><glyph glyph-name="uni00AD" unicode="­" horiz-adv-x="729" d="M102 389v258h525V389H102z"/><glyph glyph-name="registered" unicode="®" horiz-adv-x="1558" d="M465 1083h291q168 0 245-79 64-67 64-168 0-94-59-156-46-49-111-62l219-311H842L686 569V307H465v776zm221-163V739h31q61 0 92 19 39 24 39 76 0 44-29 65-30 21-104 21h-29zm92 350q-99 0-207-43.5T387 1110q-78-76-127-190.5T211 684q0-122 49-237.5T387 256q76-73 184-116.5T778 96t207 43.5T1169 256q78 75 127.5 190.5T1346 684q0 120-49.5 235T1169 1110q-76 73-184 116.5T778 1270zm711-588q0-145-55-277t-156-233q-95-94-223-148.5T778-31 502 23.5 279 172Q178 273 123 405T68 682q0 148 55 279.5T279 1194q96 94 223 148.5t276 54.5 277-54.5 223-148.5q101-101 156-232.5t55-279.5z"/><glyph glyph-name="macron" unicode="¯" d="M123 1112v184h778v-184H123z"/><glyph glyph-name="degree" unicode="°" horiz-adv-x="1028" d="M358 1055q0-62 46-107t110-45 110 45 46 107-46 106.5-110 44.5-110-44.5-46-106.5zm-159 0q0 131 91 221t224 90 224-90 91-221-91-221.5T514 743t-224 90.5-91 221.5z"/><glyph glyph-name="plusminus" unicode="±" d="M68 729v238h315v317h258V967h315V729H641V412H383v317H68zm0-625v238h888V104H68z"/><glyph glyph-name="twosuperior" unicode="²" horiz-adv-x="808" d="M59 563l215 244q17 19 40 45.5t34 39 26.5 30.5 23 27.5 16.5 21 14.5 19.5 9.5 16q33 53 33 112 0 46-27 80-26 29-75 29-48 0-74-37-24-34-27-86H76q5 58 28 115t60 94q78 78 219 78 138 0 219-78 74-71 74-189 0-97-49-176-8-13-17.5-26T593 900t-19.5-22.5-18-19l-21-21L514 817l-98-94h268V563H59z"/><glyph glyph-name="threesuperior" unicode="³" horiz-adv-x="808" d="M61 813h193q3-52 37-82 29-29 84-29 50 0 84 27 35 28 35 80 0 48-35 74-6 5-13 9t-13 6.5-14.5 4T405 905t-15 1.5-13 .5h-47v144h20q56 0 84 20 33 26 33 74 0 42-31 69-28 21-65 21-43 0-72-29-25-28-25-69H82q13 108 78 176 73 78 213 78 146 0 221-68 65-60 65-160 0-66-26-106-27-41-66-62 46-19 74-47 57-57 57-145 0-112-73-185-48-48-104-63.5T397 539q-161 0-245 82-80 76-91 192z"/><glyph glyph-name="acute" unicode="´" d="M649 1464l193-133-312-276-133 98z"/><glyph glyph-name="mu" unicode="µ" horiz-adv-x="1159" d="M459-469H170V913h295V473q0-187 72-248 37-32 98-32t98 32q72 61 72 248v440h295V0H811v119q-24-67-63-103-41-36-113-36T522 16q-43 37-63 103v-588z"/><glyph glyph-name="mu" unicode="μ" horiz-adv-x="1159" d="M459-469H170V913h295V473q0-187 72-248 37-32 98-32t98 32q72 61 72 248v440h295V0H811v119q-24-67-63-103-41-36-113-36T522 16q-43 37-63 103v-588z"/><glyph glyph-name="paragraph" unicode="¶" horiz-adv-x="1349" d="M664-193H442v850h-16q-183 0-283 105-90 92-90 244 0 156 101 254 65 64 148 85t222 21h678v-201h-147V-193H834v1358H664V-193z"/><glyph glyph-name="periodcentered" unicode="·" horiz-adv-x="524" d="M41 684q0 94 63.5 157.5T262 905t157.5-63.5T483 684t-63.5-157.5T262 463t-157.5 63.5T41 684z"/><glyph glyph-name="cedilla" unicode="¸" d="M541-94l192-90-241-299-152 82z"/><glyph glyph-name="onesuperior" unicode="¹" horiz-adv-x="808" d="M334 563v643H197v160h325V563H334z"/><glyph glyph-name="ordmasculine" unicode="º" horiz-adv-x="708" d="M59 596v135h590V596H59zm295 618q-65 0-100-40t-35-97q0-59 35-94 41-41 100-41 63 0 101 41 34 39 34 94 0 58-34 97-35 40-101 40zm312-135q0-117-80-200-88-88-232-88-143 0-231 88-80 83-80 200 0 119 80 199 88 88 231 88 144 0 232-88 80-80 80-199z"/><glyph glyph-name="guillemotright" unicode="»" horiz-adv-x="1093" d="M344 459L106 786l162 113 318-440L268 16 102 133zm426 0L532 786l162 113 318-440L694 16 528 133z"/><glyph glyph-name="onequarter" unicode="¼" horiz-adv-x="1761" d="M1503 819V307h94V156h-94V0h-180v156H930v102l356 561h217zm-373-512h193v303zM313 547v659H176v160h326V547H313zm41-527l799 1369 139-48L494-29z"/><glyph glyph-name="onehalf" unicode="½" horiz-adv-x="1761" d="M291 563v643H156v160h323V563H291zm41-543l798 1369 140-48L471-29zm672-20l213 244q21 24 53.5 60.5T1318 358t32.5 40.5T1380 442q33 53 33 113 0 46-27 80-29 29-69 29-52 0-78-37-25-35-29-86h-192q5 58 28 115t60 94q80 77 213 77 141 0 223-75 76-70 76-191 0-97-53-180-18-29-39.5-55t-30.5-34.5-39-37.5l-98-94h268V0h-622z"/><glyph glyph-name="threequarters" unicode="¾" horiz-adv-x="1759" d="M57 817h193q3-52 37-82 28-28 84-28 58 0 84 26 34 31 34 78 0 54-34 78-32 24-107 24h-22v144h20q56 0 84 20 33 26 33 74 0 43-31 70-27 20-65 20-43 0-72-29-25-28-25-69H86q13 108 78 176 73 78 213 78 138 0 213-68 65-60 65-160 0-66-26-106-27-41-66-62 46-19 74-47 57-57 57-149 0-109-73-182-80-80-228-80-162 0-246 82-79 75-90 192zM455 20l798 1369 140-48L594-29zm776 287h192v303zm373 512V307h94V156h-94V0h-181v156h-393v102l356 561h218z"/><glyph glyph-name="questiondown" unicode="¿" horiz-adv-x="1075" d="M422 463h299V86q-48 10-88 10-112 0-174-53-62-55-62-141 0-63 39-105 37-39 99-39 65 0 104 39 35 38 35 115h315q-1-88-33-161t-79-122Q757-496 539-496q-211 0-338 123Q86-261 86-90q0 151 102 260 93 102 234 121v172zm328 278q0-78-54.5-132T563 555t-132 54-54 132 54 132.5T563 928t132.5-54.5T750 741z"/><glyph glyph-name="Agrave" unicode="À" horiz-adv-x="1386" d="M1055 0L952 258H436L332 0H4l551 1366h289L1382 0h-327zM528 500h338L698 958zm197 983l-336 264 197 147 272-303z"/><glyph glyph-name="Aacute" unicode="Á" horiz-adv-x="1386" d="M1055 0L952 258H436L332 0H4l551 1366h289L1382 0h-327zM528 500h338L698 958zm279 1394l194-147-335-264-134 108z"/><glyph glyph-name="Acircumflex" unicode="Â" horiz-adv-x="1386" d="M1055 0L952 258H436L332 0H4l551 1366h289L1382 0h-327zM528 500h338L698 958zm-90 987l-131 145 385 287 387-287-135-145-252 190z"/><glyph glyph-name="Atilde" unicode="Ã" horiz-adv-x="1386" d="M1055 0L952 258H436L332 0H4l551 1366h289L1382 0h-327zM528 500h338L698 958zm422 1276l146-103q-34-67-86-119-63-63-146-63-44 0-127 33l-84 32q-63 23-75 23-63 0-95-80l-145 103q34 75 76 120 59 62 149 62 51 0 123-29l82-33q4-1 22.5-9t32.5-11.5 29-3.5q66 0 98 78z"/><glyph glyph-name="Adieresis" unicode="Ä" horiz-adv-x="1386" d="M1055 0L952 258H436L332 0H4l551 1366h289L1382 0h-327zM528 500h338L698 958zM307 1661q0 66 48 114t114 48 114-48 48-114-48-114-114-48-114 48-48 114zm447 0q0 66 47.5 114t113.5 48 114-48 48-114-48-114-114-48-113.5 48-47.5 114z"/><glyph glyph-name="Aring" unicode="Å" horiz-adv-x="1386" d="M1055 0L952 258H436L332 0H4l551 1366h289L1382 0h-327zM528 500h338L698 958zm402 1194q0-79-56-135-69-66-182-66t-182 66q-55 55-55 135t55 135q68 65 182 65t182-65q56-56 56-135zm-238 80q-44 0-69-25t-25-55q0-31 25-56 24-24 69-24 46 0 70 24t24 56q0 31-24 55-25 25-70 25z"/><glyph glyph-name="AE" unicode="Æ" horiz-adv-x="1884" d="M1069 0L965 264H442L340 0H12l559 1366h777l98-266H971l104-264h471l103-267h-473l120-303h476L1872 0h-803zM535 506h344L711 954z"/><glyph glyph-name="Ccedilla" unicode="Ç" horiz-adv-x="1239" d="M1137 406V43Q990-31 836-31q-334 0-537 199-97 94-155 227.5T86 686q0 155 58 287.5T299 1200q95 92 225.5 144.5T809 1397q151 0 328-76V956q-138 146-320 146-168 0-278-107-129-126-129-315 0-187 118-301 16-16 36.5-31t57.5-36.5 89.5-34.5T823 264q170 0 314 142zM788-94l205-90-229-299-164 82z"/><glyph glyph-name="Egrave" unicode="È" horiz-adv-x="1028" d="M922 1366v-266H465V836h434V569H465V266h457V0H150v1366h772zm-338 117l-336 264 196 147 273-303z"/><glyph glyph-name="Eacute" unicode="É" horiz-adv-x="1028" d="M922 1366v-266H465V836h434V569H465V266h457V0H150v1366h772zm-256 528l194-147-336-264-133 108z"/><glyph glyph-name="Ecircumflex" unicode="Ê" horiz-adv-x="1028" d="M922 1366v-266H465V836h434V569H465V266h457V0H150v1366h772zm-656 121l-131 145 385 287 387-287-135-145-252 190z"/><glyph glyph-name="Edieresis" unicode="Ë" horiz-adv-x="1028" d="M922 1366v-266H465V836h434V569H465V266h457V0H150v1366h772zm-785 295q0 66 48 114t114 48 114-48 48-114-48-114-114-48-114 48-48 114zm447 0q0 66 47.5 114t113.5 48 114-48 48-114-48-114-114-48-113.5 48-47.5 114z"/><glyph glyph-name="Igrave" unicode="Ì" horiz-adv-x="626" d="M156 1366h315V0H156v1366zm190 117L10 1747l197 147 272-303z"/><glyph glyph-name="Iacute" unicode="Í" horiz-adv-x="626" d="M156 1366h315V0H156v1366zm272 528l195-147-336-264-133 108z"/><glyph glyph-name="Icircumflex" unicode="Î" horiz-adv-x="626" d="M156 1366h315V0H156v1366zm-97 121l-131 145 385 287 387-287-135-145-252 190z"/><glyph glyph-name="Idieresis" unicode="Ï" horiz-adv-x="626" d="M156 1366h315V0H156v1366zm-228 295q0 66 48 114t114 48 114-48 48-114-48-114-114-48-114 48-48 114zm447 0q0 66 48 114t114 48 113.5-48 47.5-114-47.5-114-113.5-48-114 48-48 114z"/><glyph glyph-name="Eth" unicode="Ð" horiz-adv-x="1458" d="M205 846v520h432q76 0 138.5-7t133.5-26 139-58 128-97q196-190 196-490 0-297-186-483Q983 0 647 0H205v621H20v225h185zm315 254V846h246V621H520V266h84q202 0 311 92 59 49 96.5 135t37.5 195q0 182-113 295-117 117-332 117h-84z"/><glyph glyph-name="Ntilde" unicode="Ñ" horiz-adv-x="1630" d="M465 0H150v1366h274l741-881v881h316V0h-275L465 885V0zm598 1776l145-103q-34-67-86-119-63-63-145-63-45 0-127 33l-84 32q-63 23-76 23-62 0-94-80l-145 103q35 77 75 120 59 62 150 62 50 0 123-29l82-33q4-1 22.5-9t32.5-11.5 29-3.5q66 0 98 78z"/><glyph glyph-name="Ograve" unicode="Ò" horiz-adv-x="1658" d="M831 1397q324 0 529-199 100-97 156.5-229.5T1573 682q0-142-53-275t-160-237Q1152-31 831-31q-176 0-309 57.5T299 170q-100 94-156.5 226.5T86 678q0 145 58 284t153 234q84 84 216.5 142.5T831 1397zm-2-291q-182 0-299-117-120-116-120-309 0-185 125-307 118-113 292-113 186 0 303 117 119 115 119 305 0 98-34 177t-85 130q-54 52-132.5 84.5T829 1106zm31 377l-336 264 197 147 272-303z"/><glyph glyph-name="Oacute" unicode="Ó" horiz-adv-x="1658" d="M831 1397q324 0 529-199 100-97 156.5-229.5T1573 682q0-142-53-275t-160-237Q1152-31 831-31q-176 0-309 57.5T299 170q-100 94-156.5 226.5T86 678q0 145 58 284t153 234q84 84 216.5 142.5T831 1397zm-2-291q-182 0-299-117-120-116-120-309 0-185 125-307 118-113 292-113 186 0 303 117 119 115 119 305 0 98-34 177t-85 130q-54 52-132.5 84.5T829 1106zm113 788l195-147-336-264-133 108z"/><glyph glyph-name="Ocircumflex" unicode="Ô" horiz-adv-x="1658" d="M831 1397q324 0 529-199 100-97 156.5-229.5T1573 682q0-142-53-275t-160-237Q1152-31 831-31q-176 0-309 57.5T299 170q-100 94-156.5 226.5T86 678q0 145 58 284t153 234q84 84 216.5 142.5T831 1397zm-2-291q-182 0-299-117-120-116-120-309 0-185 125-307 118-113 292-113 186 0 303 117 119 115 119 305 0 98-34 177t-85 130q-54 52-132.5 84.5T829 1106zm-254 381l-131 145 385 287 388-287-136-145-252 190z"/><glyph glyph-name="Otilde" unicode="Õ" horiz-adv-x="1658" d="M831 1397q324 0 529-199 100-97 156.5-229.5T1573 682q0-142-53-275t-160-237Q1152-31 831-31q-176 0-309 57.5T299 170q-100 94-156.5 226.5T86 678q0 145 58 284t153 234q84 84 216.5 142.5T831 1397zm-2-291q-182 0-299-117-120-116-120-309 0-185 125-307 118-113 292-113 186 0 303 117 119 115 119 305 0 98-34 177t-85 130q-54 52-132.5 84.5T829 1106zm234 670l145-103q-34-67-86-119-63-63-145-63-45 0-127 33l-84 32q-63 23-76 23-62 0-94-80l-145 103q35 77 75 120 59 62 150 62 50 0 123-29l82-33q4-1 22.5-9t32.5-11.5 29-3.5q66 0 98 78z"/><glyph glyph-name="Odieresis" unicode="Ö" horiz-adv-x="1658" d="M831 1397q324 0 529-199 100-97 156.5-229.5T1573 682q0-142-53-275t-160-237Q1152-31 831-31q-176 0-309 57.5T299 170q-100 94-156.5 226.5T86 678q0 145 58 284t153 234q84 84 216.5 142.5T831 1397zm-2-291q-182 0-299-117-120-116-120-309 0-185 125-307 118-113 292-113 186 0 303 117 119 115 119 305 0 98-34 177t-85 130q-54 52-132.5 84.5T829 1106zm-385 555q0 66 48 114t114 48 114-48 48-114-48-114-114-48-114 48-48 114zm447 0q0 66 48 114t114 48 113.5-48 47.5-114-47.5-114-113.5-48-114 48-48 114z"/><glyph glyph-name="multiply" unicode="×" d="M96 446l242 242L96 932l178 178 242-244 242 244 172-172-242-242 242-243-178-179-242 244-244-242z"/><glyph glyph-name="Oslash" unicode="Ø" horiz-adv-x="1683" d="M61 72l181 178Q98 433 98 670q0 152 58 291.5T309 1196q201 201 535 201 123 0 225.5-27t202.5-92l180 180 170-164-178-178q141-190 141-428 0-160-57.5-291.5T1372 170Q1164-31 844-31 604-31 414 90L231-92zm408 405l580 580q-100 49-207 49-182 0-299-117-121-121-121-313 0-110 47-199zm745 412L633 309q96-49 207-49 186 0 303 117 119 116 119 317 0 107-48 195z"/><glyph glyph-name="Ugrave" unicode="Ù" horiz-adv-x="1454" d="M1305 1366V557q0-124-30.5-231T1153 125Q1064 33 959.5 1T727-31 494.5 1 301 125q-48 50-80 106t-46.5 114.5-19.5 106-5 105.5v809h315V565q0-155 72-229 67-72 190-72 124 0 191 72 71 73 71 229v801h316zm-547 117l-336 264 196 147 273-303z"/><glyph glyph-name="Uacute" unicode="Ú" horiz-adv-x="1454" d="M1305 1366V557q0-124-30.5-231T1153 125Q1064 33 959.5 1T727-31 494.5 1 301 125q-48 50-80 106t-46.5 114.5-19.5 106-5 105.5v809h315V565q0-155 72-229 67-72 190-72 124 0 191 72 71 73 71 229v801h316zm-465 528l194-147-336-264-133 108z"/><glyph glyph-name="Ucircumflex" unicode="Û" horiz-adv-x="1454" d="M1305 1366V557q0-124-30.5-231T1153 125Q1064 33 959.5 1T727-31 494.5 1 301 125q-48 50-80 106t-46.5 114.5-19.5 106-5 105.5v809h315V565q0-155 72-229 67-72 190-72 124 0 191 72 71 73 71 229v801h316zm-832 121l-131 145 385 287 387-287-135-145-252 190z"/><glyph glyph-name="Udieresis" unicode="Ü" horiz-adv-x="1454" d="M1305 1366V557q0-124-30.5-231T1153 125Q1064 33 959.5 1T727-31 494.5 1 301 125q-48 50-80 106t-46.5 114.5-19.5 106-5 105.5v809h315V565q0-155 72-229 67-72 190-72 124 0 191 72 71 73 71 229v801h316zm-963 295q0 66 48 114t114 48 114-48 48-114-48-114-114-48-114 48-48 114zm446 0q0 66 48 114t114 48 114-48 48-114-48-114-114-48-114 48-48 114z"/><glyph glyph-name="Yacute" unicode="Ý" horiz-adv-x="1294" d="M489 0v637L0 1366h373l274-424 275 424h372L805 637V0H489zm291 1894l195-147-336-264-133 108z"/><glyph glyph-name="Thorn" unicode="Þ" horiz-adv-x="1171" d="M150 1366h315v-188h162q234 0 362-113 133-116 133-326 0-211-116-327-121-121-353-121H465V0H150v1366zm315-446V549h108q122 0 175 51 51 51 51 135 0 85-51 133-54 52-181 52H465z"/><glyph glyph-name="germandbls" unicode="ß" horiz-adv-x="1198" d="M418 0H123v1044q0 103 23 191t90 158q118 123 337 123t338-115q109-105 109-279 0-110-55-192-44-63-113-94 125-40 199-138 77-104 77-256 0-91-34.5-182T993 104q-46-45-102.5-74t-119-40.5-107-15T559-29h-12v254q52 0 109 15.5t92 46.5q30 27 49.5 72t19.5 94q0 98-61 159-37 37-94.5 56.5T547 688v250q95 0 143 43 51 44 51 123 0 70-43 113-45 45-116 45-70 0-117-50-47-51-47-168V0z"/><glyph glyph-name="agrave" unicode="à" horiz-adv-x="1224" d="M815 811v102h295V0H815v111Q723-31 545-31 441-31 358 1T203 109Q70 250 70 451q0 112 38 207.5T211 819q125 125 317 125 190 0 287-133zM602 690q-97 0-162-65-67-67-67-166 0-98 61-164 69-72 174-72 90 0 154 64 72 68 72 172 0 103-68 168-66 63-164 63zm43 365l-311 276 194 133 250-311z"/><glyph glyph-name="aacute" unicode="á" horiz-adv-x="1224" d="M815 811v102h295V0H815v111Q723-31 545-31 441-31 358 1T203 109Q70 250 70 451q0 112 38 207.5T211 819q125 125 317 125 190 0 287-133zM602 690q-97 0-162-65-67-67-67-166 0-98 61-164 69-72 174-72 90 0 154 64 72 68 72 172 0 103-68 168-66 63-164 63zm109 774l192-133-311-276-133 98z"/><glyph glyph-name="acircumflex" unicode="â" horiz-adv-x="1224" d="M815 811v102h295V0H815v111Q723-31 545-31 441-31 358 1T203 109Q70 250 70 451q0 112 38 207.5T211 819q125 125 317 125 190 0 287-133zM602 690q-97 0-162-65-67-67-67-166 0-98 61-164 69-72 174-72 90 0 154 64 72 68 72 172 0 103-68 168-66 63-164 63zm10 559l-243-194-131 141 374 291 377-291-135-141z"/><glyph glyph-name="atilde" unicode="ã" horiz-adv-x="1224" d="M815 811v102h295V0H815v111Q723-31 545-31 441-31 358 1T203 109Q70 250 70 451q0 112 38 207.5T211 819q125 125 317 125 190 0 287-133zM602 690q-97 0-162-65-67-67-67-166 0-98 61-164 69-72 174-72 90 0 154 64 72 68 72 172 0 103-68 168-66 63-164 63zm225 656l136-91q-12-31-35-68.5t-45-60.5q-61-61-144-61-40 0-121 29l-71 26q-71 27-101 27-60 0-88-76l-133 90q23 79 70 129 56 62 145 62 56 0 127-27l70-27q73-28 108-28 36 0 56 24t26 52z"/><glyph glyph-name="adieresis" unicode="ä" horiz-adv-x="1224" d="M815 811v102h295V0H815v111Q723-31 545-31 441-31 358 1T203 109Q70 250 70 451q0 112 38 207.5T211 819q125 125 317 125 190 0 287-133zM602 690q-97 0-162-65-67-67-67-166 0-98 61-164 69-72 174-72 90 0 154 64 72 68 72 172 0 103-68 168-66 63-164 63zm72 537q0 66 48 114t114 48 113.5-48 47.5-114-47.5-114-113.5-48-114 48-48 114zm-447 0q0 66 48 114t114 48 114-48 48-114-48-114-114-48-114 48-48 114z"/><glyph glyph-name="aring" unicode="å" horiz-adv-x="1224" d="M815 811v102h295V0H815v111Q723-31 545-31 441-31 358 1T203 109Q70 250 70 451q0 112 38 207.5T211 819q125 125 317 125 190 0 287-133zM602 690q-97 0-162-65-67-67-67-166 0-98 61-164 69-72 174-72 90 0 154 64 72 68 72 172 0 103-68 168-66 63-164 63zm244 567q0-78-55-133-67-63-179-63-111 0-178 63-55 55-55 133 0 79 55 134 67 63 178 63 112 0 179-63 55-55 55-134zm-234 74q-39 0-63-18-27-23-27-56 0-32 27-55 24-18 63-18 40 0 64 18 26 22 26 55 0 34-26 56-24 18-64 18z"/><glyph glyph-name="ae" unicode="æ" horiz-adv-x="1720" d="M1364 295l276-19q-50-153-178-237-108-70-278-70-141 0-223 41-68 33-132 109Q770 40 676 2q-84-33-219-33-206 0-307 101-80 80-80 204 0 116 75 191 106 106 322 106 125 0 215-55v19q0 38-14.5 74.5T629 670q-57 57-178 57-103 0-236-45v225q129 37 268 37 94 0 163.5-22T754 867t67-81q47 62 116 99.5t123.5 48T1171 944q228 0 357-139 123-134 123-371v-28H983q3-97 61-158 53-58 150-58 64 0 104 25 47 28 66 80zm-858 96q-91 0-135-47-27-27-27-63 0-34 27-64 47-47 133-47 96 0 143 47 27 27 27 64 0 33-27 63-47 47-141 47zm485 191h383q-12 67-59 110-52 47-131 47-82 0-127-43-47-42-66-114z"/><glyph glyph-name="ccedilla" unicode="ç" horiz-adv-x="882" d="M801 893V625q-84 69-193 69-103 0-168-65-67-67-67-172 0-100 61-164 68-74 178-74 103 0 189 72V25Q699-31 567-31q-214 0-354 137Q70 245 70 455q0 216 151 360 137 129 348 129 124 0 232-51zM522-94l193-90-242-299-151 82z"/><glyph glyph-name="egrave" unicode="è" horiz-adv-x="1120" d="M379 582h399q-16 65-59 106-54 51-139 51-91 0-150-59-40-44-51-98zm672-146v-30H369q0-40 14.5-83.5T424 250q52-57 151-57 74 0 119 26 4 2 12.5 9t24.5 25.5 27 41.5l278-29Q989 117 860 37 747-31 571-31 457-31 369-2.5T207 100Q70 237 70 453q0 101 36 196t103 164q131 131 350 131 233 0 363-137 129-136 129-371zm-426 619l-312 276 195 133 250-311z"/><glyph glyph-name="eacute" unicode="é" horiz-adv-x="1120" d="M379 582h399q-16 65-59 106-54 51-139 51-91 0-150-59-40-44-51-98zm672-146v-30H369q0-40 14.5-83.5T424 250q52-57 151-57 74 0 119 26 4 2 12.5 9t24.5 25.5 27 41.5l278-29Q989 117 860 37 747-31 571-31 457-31 369-2.5T207 100Q70 237 70 453q0 101 36 196t103 164q131 131 350 131 233 0 363-137 129-136 129-371zM670 1464l192-133-311-276-133 98z"/><glyph glyph-name="ecircumflex" unicode="ê" horiz-adv-x="1120" d="M379 582h399q-16 65-59 106-54 51-139 51-91 0-150-59-40-44-51-98zm672-146v-30H369q0-40 14.5-83.5T424 250q52-57 151-57 74 0 119 26 4 2 12.5 9t24.5 25.5 27 41.5l278-29Q989 117 860 37 747-31 571-31 457-31 369-2.5T207 100Q70 237 70 453q0 101 36 196t103 164q131 131 350 131 233 0 363-137 129-136 129-371zm-492 813l-244-194-131 141 375 291 377-291-135-141z"/><glyph glyph-name="edieresis" unicode="ë" horiz-adv-x="1120" d="M379 582h399q-16 65-59 106-54 51-139 51-91 0-150-59-40-44-51-98zm672-146v-30H369q0-40 14.5-83.5T424 250q52-57 151-57 74 0 119 26 4 2 12.5 9t24.5 25.5 27 41.5l278-29Q989 117 860 37 747-31 571-31 457-31 369-2.5T207 100Q70 237 70 453q0 101 36 196t103 164q131 131 350 131 233 0 363-137 129-136 129-371zm-430 791q0 66 47.5 114t113.5 48 114-48 48-114-48-114-114-48-113.5 48-47.5 114zm-447 0q0 66 48 114t114 48 114-48 48-114-48-114-114-48-114 48-48 114z"/><glyph glyph-name="igrave" unicode="ì" horiz-adv-x="565" d="M135 913h295V0H135v913zm150 142L12 1331l197 133 209-311z"/><glyph glyph-name="iacute" unicode="í" horiz-adv-x="565" d="M135 913h295V0H135v913zm223 551l193-133-270-276-134 98z"/><glyph glyph-name="icircumflex" unicode="î" horiz-adv-x="565" d="M135 913h295V0H135v913zm148 320L90 1055l-133 141 326 291 325-291-135-141z"/><glyph glyph-name="idieresis" unicode="ï" horiz-adv-x="565" d="M135 913h295V0H135v913zm195 314q0 74 45 118t100 44q60 0 103-48t43-114-43-114-103-48q-55 0-100 44t-45 118zm-385 0q0 66 42.5 114T90 1389q55 0 100.5-44t45.5-118-45.5-118T90 1065q-60 0-102.5 48T-55 1227z"/><glyph glyph-name="eth" unicode="ð" horiz-adv-x="1187" d="M145 1221l74 196q168-4 277-33.5t194-74.5l309 123 72-148-223-88q128-106 192-262 66-160 66-354 0-318-164-480Q809-31 586-31q-225 0-369 135Q70 244 70 457q0 99 33.5 180.5T190 774q126 133 347 133 89 0 151-22.5T807 811q-18 101-76 172-52 65-129 109L199 918l-66 141 293 123q-131 42-281 39zm441-551q-90 0-150-60-63-63-63-166 0-102 63-165 60-60 150-60 89 0 149 60 64 64 64 165 0 102-64 166-60 60-149 60z"/><glyph glyph-name="ntilde" unicode="ñ" horiz-adv-x="1161" d="M115 0v913h295V805q104 133 282 133 170 0 262-92 93-93 93-268V0H752v469q0 132-50 182-41 41-112 41-78 0-123-49-57-57-57-174V0H115zm712 1346l136-91q-12-31-35-68.5t-45-60.5q-61-61-144-61-40 0-121 29l-71 26q-71 27-101 27-60 0-88-76l-133 90q23 79 70 129 56 62 145 62 56 0 127-27l70-27q73-28 108-28 36 0 56 24t26 52z"/><glyph glyph-name="ograve" unicode="ò" horiz-adv-x="1212" d="M1143 457q0-91-35-182t-102-158Q940 51 836.5 10T606-31 376 10 207 117q-67 67-102 158T70 457t35 182 102 158q66 66 169 106.5T606 944t230.5-40.5T1006 797q67-67 102-158t35-182zM606 694q-101 0-166-65-67-67-67-172t67-172q66-66 168-66 98 0 164 66 68 68 68 172t-68 172q-65 65-166 65zm-33 361l-311 276 195 133 250-311z"/><glyph glyph-name="oacute" unicode="ó" horiz-adv-x="1212" d="M1143 457q0-91-35-182t-102-158Q940 51 836.5 10T606-31 376 10 207 117q-67 67-102 158T70 457t35 182 102 158q66 66 169 106.5T606 944t230.5-40.5T1006 797q67-67 102-158t35-182zM606 694q-101 0-166-65-67-67-67-172t67-172q66-66 168-66 98 0 164 66 68 68 68 172t-68 172q-65 65-166 65zm105 770l192-133-311-276-133 98z"/><glyph glyph-name="ocircumflex" unicode="ô" horiz-adv-x="1212" d="M1143 457q0-91-35-182t-102-158Q940 51 836.5 10T606-31 376 10 207 117q-67 67-102 158T70 457t35 182 102 158q66 66 169 106.5T606 944t230.5-40.5T1006 797q67-67 102-158t35-182zM606 694q-101 0-166-65-67-67-67-172t67-172q66-66 168-66 98 0 164 66 68 68 68 172t-68 172q-65 65-166 65zm0 555l-244-194-131 141 375 291 377-291-135-141z"/><glyph glyph-name="otilde" unicode="õ" horiz-adv-x="1212" d="M1143 457q0-91-35-182t-102-158Q940 51 836.5 10T606-31 376 10 207 117q-67 67-102 158T70 457t35 182 102 158q66 66 169 106.5T606 944t230.5-40.5T1006 797q67-67 102-158t35-182zM606 694q-101 0-166-65-67-67-67-172t67-172q66-66 168-66 98 0 164 66 68 68 68 172t-68 172q-65 65-166 65zm238 652l135-91q-12-31-35-68.5t-45-60.5q-61-61-143-61-40 0-121 29l-72 26q-70 27-100 27-60 0-88-76l-133 90q24 81 69 129 56 62 146 62 56 0 127-27l69-27q73-28 109-28t56 24 26 52z"/><glyph glyph-name="odieresis" unicode="ö" horiz-adv-x="1212" d="M1143 457q0-91-35-182t-102-158Q940 51 836.5 10T606-31 376 10 207 117q-67 67-102 158T70 457t35 182 102 158q66 66 169 106.5T606 944t230.5-40.5T1006 797q67-67 102-158t35-182zM606 694q-101 0-166-65-67-67-67-172t67-172q66-66 168-66 98 0 164 66 68 68 68 172t-68 172q-65 65-166 65zm62 533q0 66 47.5 114t113.5 48 114-48 48-114-48-114-114-48-113.5 48-47.5 114zm-447 0q0 66 48 114t114 48 114-48 48-114-48-114-114-48-114 48-48 114z"/><glyph glyph-name="divide" unicode="÷" d="M68 578v237h888V578H68zm294 466q0 62 44 106t106 44 106-44 44-106q0-61-44-105t-106-44-106 44-44 105zm0-700q0 62 44 106t106 44 106-44 44-106q0-61-44-105t-106-44-106 44-44 105z"/><glyph glyph-name="oslash" unicode="ø" horiz-adv-x="1261" d="M1192 901l-129-129q115-136 115-311 0-102-37.5-191.5T1040 117Q973 50 871 9.5T637-31q-168 0-301 76L178-113 70-10l151 151Q104 271 104 453q0 206 138 344 150 147 399 147 163 0 305-76l137 138zM430 350l320 320q-49 24-109 24-104 0-166-65-67-67-67-172 0-58 22-107zm422 211L535 244q54-25 108-25 95 0 164 66 67 67 67 172 0 61-22 104z"/><glyph glyph-name="ugrave" unicode="ù" horiz-adv-x="1167" d="M115 913h295V410q0-101 51-148 48-43 123-43 79 0 125 43 49 47 49 148v503h295V381q0-93-20-162.5T950 88Q829-31 584-31 336-31 215 88q-58 57-79 123t-21 151v551zm436 142l-311 276 194 133 250-311z"/><glyph glyph-name="uacute" unicode="ú" horiz-adv-x="1167" d="M115 913h295V410q0-101 51-148 48-43 123-43 79 0 125 43 49 47 49 148v503h295V381q0-93-20-162.5T950 88Q829-31 584-31 336-31 215 88q-58 57-79 123t-21 151v551zm594 551l192-133-311-276-133 98z"/><glyph glyph-name="ucircumflex" unicode="û" horiz-adv-x="1167" d="M115 913h295V410q0-101 51-148 48-43 123-43 79 0 125 43 49 47 49 148v503h295V381q0-93-20-162.5T950 88Q829-31 584-31 336-31 215 88q-58 57-79 123t-21 151v551zm469 336l-244-194-131 141 375 291 377-291-136-141z"/><glyph glyph-name="udieresis" unicode="ü" horiz-adv-x="1167" d="M115 913h295V410q0-101 51-148 48-43 123-43 79 0 125 43 49 47 49 148v503h295V381q0-93-20-162.5T950 88Q829-31 584-31 336-31 215 88q-58 57-79 123t-21 151v551zm530 314q0 66 48 114t114 48 114-48 48-114-48-114-114-48-114 48-48 114zm-446 0q0 66 47.5 114t113.5 48 114-48 48-114-48-114-114-48-113.5 48-47.5 114z"/><glyph glyph-name="yacute" unicode="ý" horiz-adv-x="1198" d="M119-469l321 586L4 913h340l258-495 252 495h332L451-469H119zm606 1933l193-133-312-276-133 98z"/><glyph glyph-name="thorn" unicode="þ" horiz-adv-x="1224" d="M410 104v-573H115v1962h295V805q107 139 284 139 195 0 324-129 64-64 100.5-155.5T1155 459q0-222-145-367Q887-31 700-31q-193 0-290 135zm213 586q-97 0-164-67-34-34-52-79.5T389 455q0-93 66-162 70-70 168-70 90 0 157 64 34 33 53 80.5t19 93.5q0 99-70 166-66 63-159 63z"/><glyph glyph-name="ydieresis" unicode="ÿ" horiz-adv-x="1198" d="M119-469l321 586L4 913h340l258-495 252 495h332L451-469H119zm540 1696q0 66 48 114t114 48 114-48 48-114-48-114-114-48-114 48-48 114zm-446 0q0 66 48 114t114 48 114-48 48-114-48-114-114-48-114 48-48 114z"/><glyph glyph-name="Amacron" unicode="Ā" horiz-adv-x="1386" d="M1055 0L952 258H436L332 0H4l551 1366h289L1382 0h-327zM528 500h338L698 958zM299 1542v189h795v-189H299z"/><glyph glyph-name="amacron" unicode="ā" horiz-adv-x="1224" d="M815 811v102h295V0H815v111Q723-31 545-31 441-31 358 1T203 109Q70 250 70 451q0 112 38 207.5T211 819q125 125 317 125 190 0 287-133zM602 690q-97 0-162-65-67-67-67-166 0-98 61-164 69-72 174-72 90 0 154 64 72 68 72 172 0 103-68 168-66 63-164 63zm-379 422v184h778v-184H223z"/><glyph glyph-name="Abreve" unicode="Ă" horiz-adv-x="1386" d="M1055 0L952 258H436L332 0H4l551 1366h289L1382 0h-327zM528 500h338L698 958zm320 1290h196q-15-136-94-215-90-90-258-90t-258 90q-79 79-94 215h197q6-51 38-86 40-43 117-43t117 43q33 37 39 86z"/><glyph glyph-name="abreve" unicode="ă" horiz-adv-x="1224" d="M815 811v102h295V0H815v111Q723-31 545-31 441-31 358 1T203 109Q70 250 70 451q0 112 38 207.5T211 819q125 125 317 125 190 0 287-133zM602 690q-97 0-162-65-67-67-67-166 0-98 61-164 69-72 174-72 90 0 154 64 72 68 72 172 0 103-68 168-66 63-164 63zm164 670h192q-9-125-90-209-90-92-256-92t-256 92q-81 84-90 209h193q8-51 43-86 41-39 110-39 70 0 111 39 35 35 43 86z"/><glyph glyph-name="Aogonek" unicode="Ą" horiz-adv-x="1386" d="M555 1366h289L1382 0h-184q-36-31-63-72-35-50-35-94 0-30 22-49 21-18 58-18 57 0 102 30l-37-157q-59-35-133-35-88 0-141 49-47 44-47 115 0 63 41 129 37 58 90 102L952 258H436L332 0H4zm-27-866h338L698 958z"/><glyph glyph-name="aogonek" unicode="ą" horiz-adv-x="1224" d="M815 811v102h295V0h-82q-43-43-55-57-39-45-39-90 0-37 24-58 23-20 60-20 47 0 102 30l-37-157q-59-35-135-35-90 0-139 49-47 47-47 115 0 63 43 125 26 40 88 98h-78v119Q726-31 530-31T203 109Q70 250 70 451q0 112 38 207.5T211 819q125 125 317 125 190 0 287-133zM602 690q-97 0-162-65-67-67-67-166 0-98 61-164 69-72 174-72 90 0 154 64 72 68 72 172 0 103-68 168-66 63-164 63z"/><glyph glyph-name="Cacute" unicode="Ć" horiz-adv-x="1239" d="M1137 406V43Q990-31 836-31q-334 0-537 199-97 94-155 227.5T86 686q0 155 58 287.5T299 1200q95 92 225.5 144.5T809 1397q151 0 328-76V956q-138 146-320 146-168 0-278-107-129-126-129-315 0-187 118-301 16-16 36.5-31t57.5-36.5 89.5-34.5T823 264q170 0 314 142zM932 1894l194-147-335-264-134 108z"/><glyph glyph-name="cacute" unicode="ć" horiz-adv-x="882" d="M801 893V625q-84 69-193 69-103 0-168-65-67-67-67-172 0-100 61-164 68-74 178-74 103 0 189 72V25Q699-31 567-31q-214 0-354 137Q70 245 70 455q0 216 151 360 137 129 348 129 124 0 232-51zm-121 571l192-133-311-276-133 98z"/><glyph glyph-name="Ccircumflex" unicode="Ĉ" horiz-adv-x="1239" d="M1137 406V43Q990-31 836-31q-334 0-537 199-97 94-155 227.5T86 686q0 155 58 287.5T299 1200q95 92 225.5 144.5T809 1397q151 0 328-76V956q-138 146-320 146-168 0-278-107-129-126-129-315 0-187 118-301 16-16 36.5-31t57.5-36.5 89.5-34.5T823 264q170 0 314 142zM512 1487l-131 145 385 287 387-287-135-145-252 190z"/><glyph glyph-name="ccircumflex" unicode="ĉ" horiz-adv-x="882" d="M801 893V625q-84 69-193 69-103 0-168-65-67-67-67-172 0-100 61-164 68-74 178-74 103 0 189 72V25Q699-31 567-31q-214 0-354 137Q70 245 70 455q0 216 151 360 137 129 348 129 124 0 232-51zm-264 356l-244-194-131 141 375 291 376-291-135-141z"/><glyph glyph-name="Cdotaccent" unicode="Ċ" horiz-adv-x="1239" d="M1137 406V43Q990-31 836-31q-334 0-537 199-97 94-155 227.5T86 686q0 155 58 287.5T299 1200q95 92 225.5 144.5T809 1397q151 0 328-76V956q-138 146-320 146-168 0-278-107-129-126-129-315 0-187 118-301 16-16 36.5-31t57.5-36.5 89.5-34.5T823 264q170 0 314 142zM602 1669q0 73 50 123.5t124 50.5 124-50.5 50-123.5-50-123.5-124-50.5-124 50.5-50 123.5z"/><glyph glyph-name="cdotaccent" unicode="ċ" horiz-adv-x="882" d="M801 893V625q-84 69-193 69-103 0-168-65-67-67-67-172 0-100 61-164 68-74 178-74 103 0 189 72V25Q699-31 567-31q-214 0-354 137Q70 245 70 455q0 216 151 360 137 129 348 129 124 0 232-51zm-418 342q0 72 49 121t121 49 121-49 49-121-49-121-121-49-121 49-49 121z"/><glyph glyph-name="Ccaron" unicode="Č" horiz-adv-x="1239" d="M1137 406V43Q990-31 836-31q-334 0-537 199-97 94-155 227.5T86 686q0 155 58 287.5T299 1200q95 92 225.5 144.5T809 1397q151 0 328-76V956q-138 146-320 146-168 0-278-107-129-126-129-315 0-187 118-301 16-16 36.5-31t57.5-36.5 89.5-34.5T823 264q170 0 314 142zM776 1729l252 190 135-143-387-289-385 289 131 143z"/><glyph glyph-name="ccaron" unicode="č" horiz-adv-x="882" d="M801 893V625q-84 69-193 69-103 0-168-65-67-67-67-172 0-100 61-164 68-74 178-74 103 0 189 72V25Q699-31 567-31q-214 0-354 137Q70 245 70 455q0 216 151 360 137 129 348 129 124 0 232-51zm-260 399l241 195 136-139-377-293-375 293 131 139z"/><glyph glyph-name="Dcaron" unicode="Ď" horiz-adv-x="1402" d="M150 1366h432q103 0 184-12t178-55.5 176-120.5q197-190 197-490 0-296-187-483Q927 0 592 0H150v1366zm315-266V266h84q202 0 311 92 59 49 96 135t37 195q0 183-112 295-117 117-332 117h-84zm156 629l251 190 136-143-387-289-385 289 131 143z"/><glyph glyph-name="dcaron" unicode="ď" horiz-adv-x="1599" d="M1110 1493V0H815v111Q718-31 526-31 335-31 213 94q-70 70-106.5 165T70 461q0 223 143 360 129 123 317 123 187 0 285-133v682h295zM602 690q-94 0-158-61-71-68-71-174 0-100 71-168 67-64 154-64 43 0 88.5 17.5T766 291q68 64 68 164 0 98-66 168-64 67-166 67zm606 318l144 426 266-62-229-405z"/><glyph glyph-name="Dcroat" unicode="Đ" horiz-adv-x="1458" d="M205 846v520h432q76 0 138.5-7t133.5-26 139-58 128-97q196-190 196-490 0-297-186-483Q983 0 647 0H205v621H20v225h185zm315 254V846h246V621H520V266h84q202 0 311 92 59 49 96.5 135t37.5 195q0 182-113 295-117 117-332 117h-84z"/><glyph glyph-name="dcroat" unicode="đ" horiz-adv-x="1253" d="M1110 1493v-190h164v-193h-164V0H815v111Q718-31 526-31 335-31 213 94q-70 70-106.5 165T70 461q0 223 143 360 129 123 317 123 187 0 285-133v299H422v193h393v190h295zM602 690q-94 0-158-61-71-68-71-174 0-100 71-168 67-64 154-64 43 0 88.5 17.5T766 291q68 64 68 164 0 98-66 168-64 67-166 67z"/><glyph glyph-name="Emacron" unicode="Ē" horiz-adv-x="1028" d="M922 1366v-266H465V836h434V569H465V266h457V0H150v1366h772zm-797 176v189h795v-189H125z"/><glyph glyph-name="emacron" unicode="ē" horiz-adv-x="1120" d="M379 582h399q-16 65-59 106-54 51-139 51-91 0-150-59-40-44-51-98zm672-146v-30H369q0-40 14.5-83.5T424 250q52-57 151-57 74 0 119 26 4 2 12.5 9t24.5 25.5 27 41.5l278-29Q989 117 860 37 747-31 571-31 457-31 369-2.5T207 100Q70 237 70 453q0 101 36 196t103 164q131 131 350 131 233 0 363-137 129-136 129-371zm-881 676v184h778v-184H170z"/><glyph glyph-name="Edotaccent" unicode="Ė" horiz-adv-x="1028" d="M922 1366v-266H465V836h434V569H465V266h457V0H150v1366h772zm-574 303q0 73 50 123.5t124 50.5 124-50.5 50-123.5-50-123.5-124-50.5-124 50.5-50 123.5z"/><glyph glyph-name="edotaccent" unicode="ė" horiz-adv-x="1120" d="M379 582h399q-16 65-59 106-54 51-139 51-91 0-150-59-40-44-51-98zm672-146v-30H369q0-40 14.5-83.5T424 250q52-57 151-57 74 0 119 26 4 2 12.5 9t24.5 25.5 27 41.5l278-29Q989 117 860 37 747-31 571-31 457-31 369-2.5T207 100Q70 237 70 453q0 101 36 196t103 164q131 131 350 131 233 0 363-137 129-136 129-371zm-676 799q0 72 49 121t121 49 121-49 49-121-49-121-121-49-121 49-49 121z"/><glyph glyph-name="Eogonek" unicode="Ę" horiz-adv-x="1028" d="M922 1366v-266H465V836h434V569H465V266h457V0h-82q-38-33-64-72-35-50-35-94 0-29 23-49 21-18 57-18 58 0 103 30l-37-157q-59-35-133-35-89 0-142 49-47 44-47 115 0 63 41 129 37 58 90 102H150v1366h772z"/><glyph glyph-name="eogonek" unicode="ę" horiz-adv-x="1120" d="M379 582h399q-16 65-59 106-54 51-139 51-91 0-150-59-40-44-51-98zm672-146v-30H369q2-43 17-86.5t38-69.5q53-57 156-57 79 0 114 26 4 2 12.5 9t24.5 25.5 27 41.5l278-29q-20-87-88-155-45-45-127-91-95-53-121-81-36-39-36-86 0-37 24-58 23-20 60-20 47 0 102 30l-37-157q-59-35-135-35-90 0-139 49-47 44-47 115 0 56 34 112 25 44 68 80-130 0-221.5 28.5T207 100q-63 65-100 154T70 446q0 105 36 202.5T209 813q131 131 354 131 227 0 359-137 129-136 129-371z"/><glyph glyph-name="Ecaron" unicode="Ě" horiz-adv-x="1028" d="M922 1366v-266H465V836h434V569H465V266h457V0H150v1366h772zm-402 363l252 190 135-143-387-289-385 289 131 143z"/><glyph glyph-name="ecaron" unicode="ě" horiz-adv-x="1120" d="M379 582h399q-16 65-59 106-54 51-139 51-91 0-150-59-40-44-51-98zm672-146v-30H369q0-40 14.5-83.5T424 250q52-57 151-57 74 0 119 26 4 2 12.5 9t24.5 25.5 27 41.5l278-29Q989 117 860 37 747-31 571-31 457-31 369-2.5T207 100Q70 237 70 453q0 101 36 196t103 164q131 131 350 131 233 0 363-137 129-136 129-371zm-492 856l242 195 135-139-377-293-375 293 131 139z"/><glyph glyph-name="Gcircumflex" unicode="Ĝ" horiz-adv-x="1570" d="M807 492v253h678v-14q0-142-53-304t-158-271Q1170 48 1049.5 8.5T786-31Q640-31 518 8.5T287 160Q86 366 86 680q0 161 53 293.5T283 1198q60 62 130 104t142.5 61.5 133 26.5 130.5 7q227 0 383-103 66-44 124-109t97-134l-284-154q-47 93-121 147-89 66-209 66-178 0-283-111-116-122-116-323 0-200 114-314 103-106 277-106 152 0 237 74 11 9 25 23.5t38 54 36 84.5H807zm-277 995l-131 145 385 287 387-287-135-145-252 190z"/><glyph glyph-name="gcircumflex" unicode="ĝ" horiz-adv-x="1218" d="M809 807v106h295V55q0-125-21-218.5T991-334Q865-469 606-469q-244 0-381 117-112 96-137 241h322q15-58 65-90 46-30 127-30 94 0 148 49 59 57 59 190v105Q724-25 537-25q-205 0-334 129Q70 241 70 449q0 112 37 206.5T205 813q126 131 332 131 180 0 272-137zM604 688q-100 0-162-59-32-31-50.5-78.5T373 459q0-98 63-164t166-66q96 0 160 60 72 69 72 174 0 102-70 168-63 57-160 57zm4 561l-243-194-132 141 375 291 377-291-135-141z"/><glyph glyph-name="Gbreve" unicode="Ğ" horiz-adv-x="1570" d="M807 492v253h678v-14q0-142-53-304t-158-271Q1170 48 1049.5 8.5T786-31Q640-31 518 8.5T287 160Q86 366 86 680q0 161 53 293.5T283 1198q60 62 130 104t142.5 61.5 133 26.5 130.5 7q227 0 383-103 66-44 124-109t97-134l-284-154q-47 93-121 147-89 66-209 66-178 0-283-111-116-122-116-323 0-200 114-314 103-106 277-106 152 0 237 74 11 9 25 23.5t38 54 36 84.5H807zm133 1298h197q-15-135-95-215-90-90-258-90t-258 90q-79 79-94 215h197q6-49 39-86 40-43 116-43 77 0 117 43 33 37 39 86z"/><glyph glyph-name="gbreve" unicode="ğ" horiz-adv-x="1218" d="M809 807v106h295V55q0-125-21-218.5T991-334Q865-469 606-469q-244 0-381 117-112 96-137 241h322q15-58 65-90 46-30 127-30 94 0 148 49 59 57 59 190v105Q724-25 537-25q-205 0-334 129Q70 241 70 449q0 112 37 206.5T205 813q126 131 332 131 180 0 272-137zM604 688q-100 0-162-59-32-31-50.5-78.5T373 459q0-98 63-164t166-66q96 0 160 60 72 69 72 174 0 102-70 168-63 57-160 57zm158 672h192q-9-125-90-209-90-92-256-92t-256 92q-81 84-90 209h193q8-51 43-86 41-39 110-39 70 0 111 39 35 35 43 86z"/><glyph glyph-name="Gdotaccent" unicode="Ġ" horiz-adv-x="1570" d="M807 492v253h678v-14q0-142-53-304t-158-271Q1170 48 1049.5 8.5T786-31Q640-31 518 8.5T287 160Q86 366 86 680q0 161 53 293.5T283 1198q60 62 130 104t142.5 61.5 133 26.5 130.5 7q227 0 383-103 66-44 124-109t97-134l-284-154q-47 93-121 147-89 66-209 66-178 0-283-111-116-122-116-323 0-200 114-314 103-106 277-106 152 0 237 74 11 9 25 23.5t38 54 36 84.5H807zM610 1669q0 73 50 123.5t124 50.5 124-50.5 50-123.5-50-123.5-124-50.5-124 50.5-50 123.5z"/><glyph glyph-name="gdotaccent" unicode="ġ" horiz-adv-x="1218" d="M809 807v106h295V55q0-125-21-218.5T991-334Q865-469 606-469q-244 0-381 117-112 96-137 241h322q15-58 65-90 46-30 127-30 94 0 148 49 59 57 59 190v105Q724-25 537-25q-205 0-334 129Q70 241 70 449q0 112 37 206.5T205 813q126 131 332 131 180 0 272-137zM604 688q-100 0-162-59-32-31-50.5-78.5T373 459q0-98 63-164t166-66q96 0 160 60 72 69 72 174 0 102-70 168-63 57-160 57zm-205 547q0 72 49 121t121 49 121-49 49-121-49-121-121-49-121 49-49 121z"/><glyph glyph-name="Gcommaaccent" unicode="Ģ" horiz-adv-x="1570" d="M807 492v253h678v-14q0-142-53-304t-158-271Q1170 48 1049.5 8.5T786-31Q640-31 518 8.5T287 160Q86 366 86 680q0 161 53 293.5T283 1198q60 62 130 104t142.5 61.5 133 26.5 130.5 7q227 0 383-103 66-44 124-109t97-134l-284-154q-47 93-121 147-89 66-209 66-178 0-283-111-116-122-116-323 0-200 114-314 103-106 277-106 152 0 237 74 11 9 25 23.5t38 54 36 84.5H807zM532-508l115 406 275-33-201-397z"/><glyph glyph-name="gcommaaccent" unicode="ģ" horiz-adv-x="1218" d="M809 807v106h295V55q0-125-21-218.5T991-334Q865-469 606-469q-244 0-381 117-112 96-137 241h322q15-58 65-90 46-30 127-30 94 0 148 49 59 57 59 190v105Q724-25 537-25q-205 0-334 129Q70 241 70 449q0 112 37 206.5T205 813q126 131 332 131 180 0 272-137zM604 688q-100 0-162-59-32-31-50.5-78.5T373 459q0-98 63-164t166-66q96 0 160 60 72 69 72 174 0 102-70 168-63 57-160 57zm211 725l-115-385-274 33 201 377z"/><glyph glyph-name="Hcircumflex" unicode="Ĥ" horiz-adv-x="1474" d="M465 1366V846h545v520h315V0h-315v580H465V0H150v1366h315zm18 121l-131 145 385 287 387-287-135-145-252 190z"/><glyph glyph-name="hcircumflex" unicode="ĥ" horiz-adv-x="1169" d="M123 0v1493h295V805q53 65 110 94 72 39 179 39 168 0 258-92 90-90 90-266V0H760v469q0 41-2 67t-13.5 60-33.5 55q-41 41-115 41-72 0-117-45-61-59-61-190V0H123zm147 1726L27 1532l-131 141 374 291 377-291-135-141z"/><glyph glyph-name="Hbar" unicode="Ħ" horiz-adv-x="1474" d="M465 1366v-109h545v109h315v-109h123v-217h-123V0h-315v580H465V0H150v1040H27v217h123v109h315zm545-326H465V846h545v194z"/><glyph glyph-name="hbar" unicode="ħ" horiz-adv-x="1189" d="M143 0v1110H-20v193h163v190h295v-190h393v-193H438V805q53 64 111 94 72 39 178 39 168 0 258-92 90-90 90-266V0H780v469q0 41-2 67t-13.5 60-33.5 55q-41 41-115 41-71 0-116-45-62-60-62-190V0H143z"/><glyph glyph-name="Imacron" unicode="Ī" horiz-adv-x="626" d="M156 1366h315V0H156v1366zm-248 176v189h794v-189H-92z"/><glyph glyph-name="imacron" unicode="ī" horiz-adv-x="565" d="M135 913h295V0H135v913zM0 1112v184h565v-184H0z"/><glyph glyph-name="Iogonek" unicode="Į" horiz-adv-x="626" d="M156 1366h315V0q-36-31-63-72-35-50-35-94 0-30 22-49 21-18 58-18 57 0 102 30l-37-157q-59-35-133-35-88 0-141 49-47 44-47 115 0 63 41 129 37 58 90 102H156v1366z"/><glyph glyph-name="iogonek" unicode="į" horiz-adv-x="565" d="M135 913h295V0q-43-43-55-57-39-45-39-90 0-37 24-58 23-20 60-20 47 0 102 30l-37-157q-59-35-135-35-90 0-139 49-47 47-47 115 0 63 43 125 35 49 88 98H135v913zm-24 390q0 72 50 122t122 50 122-50 50-122-50-122.5-122-50.5-122 50.5-50 122.5z"/><glyph glyph-name="Idotaccent" unicode="İ" horiz-adv-x="626" d="M156 1366h315V0H156v1366zm-17 303q0 73 50.5 123.5T313 1843t123.5-50.5T487 1669t-50.5-123.5T313 1495t-123.5 50.5T139 1669z"/><glyph glyph-name="dotlessi" unicode="ı" horiz-adv-x="565" d="M135 913h295V0H135v913z"/><glyph glyph-name="Jcircumflex" unicode="Ĵ" horiz-adv-x="849" d="M385 1366h315V436q0-50-3-86.5T683.5 260t-36-101T582 72Q479-31 293-31 158-31 76 18 4 63-53 133l196 221q23-48 50-75 31-31 77-31t74 28q41 41 41 162v928zm-92 121l-131 145 385 287 387-287-135-145-252 190z"/><glyph glyph-name="jcircumflex" unicode="ĵ" horiz-adv-x="565" d="M135 913h295V-469H135V913zm148 320L90 1055l-133 141 326 291 325-291-135-141z"/><glyph glyph-name="Kcommaaccent" unicode="Ķ" horiz-adv-x="1372" d="M465 1366V797l467 569h385L764 719 1360 0H954L465 606V0H150v1366h315zM451-508l114 406 275-33-201-397z"/><glyph glyph-name="kcommaaccent" unicode="ķ" horiz-adv-x="1159" d="M123 1493h295V578l332 335h387L702 500 1167 0H770L418 393V0H123v1493zM389-487l115 385 274-33-200-377z"/><glyph glyph-name="Lacute" unicode="Ĺ" horiz-adv-x="917" d="M150 1366h315V266h424V0H150v1366zm270 528l194-147-335-264-134 108z"/><glyph glyph-name="lacute" unicode="ĺ" horiz-adv-x="540" d="M123 1493h295V0H123v1493zm280 463l193-133-311-277-133 99z"/><glyph glyph-name="Lcommaaccent" unicode="Ļ" horiz-adv-x="917" d="M150 1366h315V266h424V0H150v1366zM266-508l115 406 274-33-200-397z"/><glyph glyph-name="lcommaaccent" unicode="ļ" horiz-adv-x="540" d="M123 1493h295V0H123v1493zM41-487l115 385 274-33-201-377z"/><glyph glyph-name="Lcaron" unicode="Ľ" horiz-adv-x="917" d="M150 1366h315V266h424V0H150v1366zm423-399l144 426 266-62-229-405z"/><glyph glyph-name="lcaron" unicode="ľ" horiz-adv-x="903" d="M123 1493h295V0H123v1493zm389-485l143 426 267-62-230-405z"/><glyph glyph-name="Ldot" unicode="Ŀ" horiz-adv-x="917" d="M150 1366h315V266h424V0H150v1366zm450-682q0 74 50 124t124 50 124-50 50-124-50-124-124-50-124 50-50 124z"/><glyph glyph-name="ldot" unicode="ŀ" horiz-adv-x="888" d="M123 1493h295V0H123v1493zm422-748q0 72 49 121t121 49 121-49 49-121-49-121-121-49-121 49-49 121z"/><glyph glyph-name="Lslash" unicode="Ł" horiz-adv-x="964" d="M197 0v528L20 416v246l177 112v592h315V903l209 133V791L512 657V266h424V0H197z"/><glyph glyph-name="lslash" unicode="ł" horiz-adv-x="557" d="M131 920v573h295v-436l164 110V950L426 840V0H131v702L-33 592v217z"/><glyph glyph-name="Nacute" unicode="Ń" horiz-adv-x="1630" d="M465 0H150v1366h274l741-881v881h316V0h-275L465 885V0zm463 1894l194-147-336-264-133 108z"/><glyph glyph-name="nacute" unicode="ń" horiz-adv-x="1161" d="M115 0v913h295V805q104 133 282 133 170 0 262-92 93-93 93-268V0H752v469q0 132-50 182-41 41-112 41-78 0-123-49-57-57-57-174V0H115zm616 1464l193-133-312-276-133 98z"/><glyph glyph-name="Ncommaaccent" unicode="Ņ" horiz-adv-x="1630" d="M465 0H150v1366h274l741-881v881h316V0h-275L465 885V0zm117-508l114 406 275-33-201-397z"/><glyph glyph-name="ncommaaccent" unicode="ņ" horiz-adv-x="1161" d="M115 0v913h295V805q104 133 282 133 170 0 262-92 93-93 93-268V0H752v469q0 132-50 182-41 41-112 41-78 0-123-49-57-57-57-174V0H115zm264-487l115 385 274-33-201-377z"/><glyph glyph-name="Ncaron" unicode="Ň" horiz-adv-x="1630" d="M465 0H150v1366h274l741-881v881h316V0h-275L465 885V0zm330 1729l252 190 135-143-387-289-385 289 131 143z"/><glyph glyph-name="ncaron" unicode="ň" horiz-adv-x="1161" d="M115 0v913h295V805q104 133 282 133 170 0 262-92 93-93 93-268V0H752v469q0 132-50 182-41 41-112 41-78 0-123-49-57-57-57-174V0H115zm456 1292l242 195 135-139-377-293-374 293 131 139z"/><glyph glyph-name="Omacron" unicode="Ō" horiz-adv-x="1658" d="M831 1397q324 0 529-199 100-97 156.5-229.5T1573 682q0-142-53-275t-160-237Q1152-31 831-31q-176 0-309 57.5T299 170q-100 94-156.5 226.5T86 678q0 145 58 284t153 234q84 84 216.5 142.5T831 1397zm-2-291q-182 0-299-117-120-116-120-309 0-185 125-307 118-113 292-113 186 0 303 117 119 115 119 305 0 98-34 177t-85 130q-54 52-132.5 84.5T829 1106zm-405 436v189h795v-189H424z"/><glyph glyph-name="omacron" unicode="ō" horiz-adv-x="1212" d="M1143 457q0-91-35-182t-102-158Q940 51 836.5 10T606-31 376 10 207 117q-67 67-102 158T70 457t35 182 102 158q66 66 169 106.5T606 944t230.5-40.5T1006 797q67-67 102-158t35-182zM606 694q-101 0-166-65-67-67-67-172t67-172q66-66 168-66 98 0 164 66 68 68 68 172t-68 172q-65 65-166 65zm-405 418v184h778v-184H201z"/><glyph glyph-name="Obreve" unicode="Ŏ" horiz-adv-x="1658" d="M831 1397q324 0 529-199 100-97 156.5-229.5T1573 682q0-142-53-275t-160-237Q1152-31 831-31q-176 0-309 57.5T299 170q-100 94-156.5 226.5T86 678q0 145 58 284t153 234q84 84 216.5 142.5T831 1397zm-2-291q-182 0-299-117-120-116-120-309 0-185 125-307 118-113 292-113 186 0 303 117 119 115 119 305 0 98-34 177t-85 130q-54 52-132.5 84.5T829 1106zm156 684h197q-15-135-95-215-90-90-258-90t-258 90q-79 79-94 215h197q6-49 39-86 40-43 116-43 77 0 117 43 33 37 39 86z"/><glyph glyph-name="obreve" unicode="ŏ" horiz-adv-x="1212" d="M1143 457q0-91-35-182t-102-158Q940 51 836.5 10T606-31 376 10 207 117q-67 67-102 158T70 457t35 182 102 158q66 66 169 106.5T606 944t230.5-40.5T1006 797q67-67 102-158t35-182zM606 694q-101 0-166-65-67-67-67-172t67-172q66-66 168-66 98 0 164 66 68 68 68 172t-68 172q-65 65-166 65zm154 666h192q-9-125-90-209-90-92-256-92t-256 92q-81 84-90 209h193q8-51 43-86 41-39 110-39 70 0 111 39 35 35 43 86z"/><glyph glyph-name="Ohungarumlaut" unicode="Ő" horiz-adv-x="1658" d="M831 1397q324 0 529-199 100-97 156.5-229.5T1573 682q0-142-53-275t-160-237Q1152-31 831-31q-176 0-309 57.5T299 170q-100 94-156.5 226.5T86 678q0 145 58 284t153 234q84 84 216.5 142.5T831 1397zm-2-291q-182 0-299-117-120-116-120-309 0-185 125-307 118-113 292-113 186 0 303 117 119 115 119 305 0 98-34 177t-85 130q-54 52-132.5 84.5T829 1106zm-92 788l176-135-286-276-113 98zm381 0l178-135-286-276-115 98z"/><glyph glyph-name="ohungarumlaut" unicode="ő" horiz-adv-x="1212" d="M1143 457q0-91-35-182t-102-158Q940 51 836.5 10T606-31 376 10 207 117q-67 67-102 158T70 457t35 182 102 158q66 66 169 106.5T606 944t230.5-40.5T1006 797q67-67 102-158t35-182zM606 694q-101 0-166-65-67-67-67-172t67-172q66-66 168-66 98 0 164 66 68 68 68 172t-68 172q-65 65-166 65zm-94 760l168-135-274-277-107 99zm369-2l170-133-275-277-108 99z"/><glyph glyph-name="OE" unicode="Œ" horiz-adv-x="2113" d="M2007 1366v-266h-444V836h422V569h-422V266h444V0h-756v168Q1078-31 793-31q-156 0-272 45T305 156q-63 62-108 132.5t-68 140-33 130T86 678q0 147 55.5 285T307 1206q201 191 506 191 279 0 438-195v164h756zM819 1106q-164 0-284-113-125-119-125-311 0-188 125-309 120-113 284-113 165 0 285 113 125 121 125 309 0 192-125 311-120 113-285 113z"/><glyph glyph-name="oe" unicode="œ" horiz-adv-x="1851" d="M1499 295l270-19q-38-148-159-229-112-78-295-78-257 0-371 168-40-53-89-89T754.5-4 661-25.5 571-31Q465-31 378-4T211 100Q70 235 70 446q0 115 37 208.5T207 809q65 65 162 100t213 35q241 0 372-149 120 149 349 149 227 0 350-127 129-131 129-387v-24h-676q3-43 19.5-86.5T1165 250q53-57 152-57 139 0 182 102zM592 694q-87 0-148-57-71-67-71-180 0-112 69-181 61-57 150-57 88 0 149 57 70 70 70 181 0 112-72 180-61 57-147 57zm522-112h399q-16 65-59 106-54 51-139 51-91 0-150-59-40-44-51-98z"/><glyph glyph-name="Racute" unicode="Ŕ" horiz-adv-x="1243" d="M150 1366h479q219 0 348-119 119-115 119-305 0-173-107-278-83-80-190-105L1219 0H834L465 539V0H150v1366zm315-246V745h72q128 0 188 60 51 51 51 133 0 92-63 139-56 43-174 43h-74zm250 774l194-147-336-264-133 108z"/><glyph glyph-name="racute" unicode="ŕ" horiz-adv-x="786" d="M115 0v913h295V770q45 84 114 127 62 39 158 39 50 0 96-14l-16-277q-64 33-133 33-89 0-148-62-44-47-57.5-107.5T410 371V0H115zm432 1464l192-133-311-276-133 98z"/><glyph glyph-name="Rcommaaccent" unicode="Ŗ" horiz-adv-x="1243" d="M150 1366h479q219 0 348-119 119-115 119-305 0-173-107-278-83-80-190-105L1219 0H834L465 539V0H150v1366zm315-246V745h72q128 0 188 60 51 51 51 133 0 92-63 139-56 43-174 43h-74zM410-508l114 406 275-33-201-397z"/><glyph glyph-name="rcommaaccent" unicode="ŗ" horiz-adv-x="786" d="M115 0v913h295V770q45 84 114 127 62 39 158 39 50 0 96-14l-16-277q-64 33-133 33-89 0-148-62-44-47-57.5-107.5T410 371V0H115zm69-487l115 385 274-33-200-377z"/><glyph glyph-name="Rcaron" unicode="Ř" horiz-adv-x="1243" d="M150 1366h479q219 0 348-119 119-115 119-305 0-173-107-278-83-80-190-105L1219 0H834L465 539V0H150v1366zm315-246V745h72q128 0 188 60 51 51 51 133 0 92-63 139-56 43-174 43h-74zm117 609l252 190 135-143-387-289-385 289 131 143z"/><glyph glyph-name="rcaron" unicode="ř" horiz-adv-x="786" d="M115 0v913h295V770q45 84 114 127 62 39 158 39 50 0 96-14l-16-277q-64 33-133 33-89 0-148-62-44-47-57.5-107.5T410 371V0H115zm311 1292l242 195 135-139-377-293-375 293 131 139z"/><glyph glyph-name="Sacute" unicode="Ś" horiz-adv-x="1126" d="M995 1262l-141-230q-109 98-229 98-91 0-133-47-35-35-35-86 0-48 30-75 10-9 21-16t28.5-15 30.5-13 42.5-16 49.5-18l103-39q129-50 186-105 101-96 101-254 0-103-32.5-191.5T928 109Q795-31 541-31q-155 0-271 58Q168 78 70 176l163 225q66-66 127-104 79-49 172-49 90 0 144 47 49 42 49 111 0 57-47 98-39 32-160 76l-112 38q-41 15-67.5 26.5T276 678t-61 49q-82 87-82 238 0 185 119 307 122 125 338 125 223 0 405-135zm-258 632l195-147-336-264-133 108z"/><glyph glyph-name="sacute" unicode="ś" horiz-adv-x="888" d="M791 866L674 680q-85 51-162 51-58 0-84-26-18-18-18-41 0-25 28-41 9-5 21-9.5t35-11.5 32-10l78-25q98-31 152-80 71-66 71-174 0-145-94-239Q628-31 436-31 211-31 61 100l125 199q55-47 101-68 57-28 123-28 65 0 92 20 30 23 30 60 0 34-32 53-25 15-90 33l-74 22q-92 28-148 84-65 68-65 166 0 130 88 211 99 92 276 92 170 0 304-78zm-203 598l192-133-311-276-133 98z"/><glyph glyph-name="Scircumflex" unicode="Ŝ" horiz-adv-x="1126" d="M995 1262l-141-230q-109 98-229 98-91 0-133-47-35-35-35-86 0-48 30-75 10-9 21-16t28.5-15 30.5-13 42.5-16 49.5-18l103-39q129-50 186-105 101-96 101-254 0-103-32.5-191.5T928 109Q795-31 541-31q-155 0-271 58Q168 78 70 176l163 225q66-66 127-104 79-49 172-49 90 0 144 47 49 42 49 111 0 57-47 98-39 32-160 76l-112 38q-41 15-67.5 26.5T276 678t-61 49q-82 87-82 238 0 185 119 307 122 125 338 125 223 0 405-135zm-678 225l-131 145 385 287 387-287-135-145-252 190z"/><glyph glyph-name="scircumflex" unicode="ŝ" horiz-adv-x="888" d="M791 866L674 680q-85 51-162 51-58 0-84-26-18-18-18-41 0-25 28-41 9-5 21-9.5t35-11.5 32-10l78-25q98-31 152-80 71-66 71-174 0-145-94-239Q628-31 436-31 211-31 61 100l125 199q55-47 101-68 57-28 123-28 65 0 92 20 30 23 30 60 0 34-32 53-25 15-90 33l-74 22q-92 28-148 84-65 68-65 166 0 130 88 211 99 92 276 92 170 0 304-78zm-322 383l-244-194-131 141 375 291 377-291-135-141z"/><glyph glyph-name="Scedilla" unicode="Ş" horiz-adv-x="1126" d="M995 1262l-141-230q-109 98-229 98-91 0-133-47-35-35-35-86 0-48 30-75 10-9 21-16t28.5-15 30.5-13 42.5-16 49.5-18l103-39q129-50 186-105 101-96 101-254 0-103-32.5-191.5T928 109Q795-31 541-31q-155 0-271 58Q168 78 70 176l163 225q66-66 127-104 79-49 172-49 90 0 144 47 49 42 49 111 0 57-47 98-39 32-160 76l-112 38q-41 15-67.5 26.5T276 678t-61 49q-82 87-82 238 0 185 119 307 122 125 338 125 223 0 405-135zM496-94l204-90-229-299-164 82z"/><glyph glyph-name="scedilla" unicode="ş" horiz-adv-x="888" d="M791 866L674 680q-85 51-162 51-58 0-84-26-18-18-18-41 0-25 28-41 9-5 21-9.5t35-11.5 32-10l78-25q98-31 152-80 71-66 71-174 0-145-94-239Q628-31 436-31 211-31 61 100l125 199q55-47 101-68 57-28 123-28 65 0 92 20 30 23 30 60 0 34-32 53-25 15-90 33l-74 22q-92 28-148 84-65 68-65 166 0 130 88 211 99 92 276 92 170 0 304-78zM399-94l193-90-242-299-151 82z"/><glyph glyph-name="Scaron" unicode="Š" horiz-adv-x="1126" d="M995 1262l-141-230q-109 98-229 98-91 0-133-47-35-35-35-86 0-48 30-75 10-9 21-16t28.5-15 30.5-13 42.5-16 49.5-18l103-39q129-50 186-105 101-96 101-254 0-103-32.5-191.5T928 109Q795-31 541-31q-155 0-271 58Q168 78 70 176l163 225q66-66 127-104 79-49 172-49 90 0 144 47 49 42 49 111 0 57-47 98-39 32-160 76l-112 38q-41 15-67.5 26.5T276 678t-61 49q-82 87-82 238 0 185 119 307 122 125 338 125 223 0 405-135zm-424 467l252 190 135-143-387-289-385 289 131 143z"/><glyph glyph-name="scaron" unicode="š" horiz-adv-x="888" d="M791 866L674 680q-85 51-162 51-58 0-84-26-18-18-18-41 0-25 28-41 9-5 21-9.5t35-11.5 32-10l78-25q98-31 152-80 71-66 71-174 0-145-94-239Q628-31 436-31 211-31 61 100l125 199q55-47 101-68 57-28 123-28 65 0 92 20 30 23 30 60 0 34-32 53-25 15-90 33l-74 22q-92 28-148 84-65 68-65 166 0 130 88 211 99 92 276 92 170 0 304-78zm-322 426l242 195 135-139-377-293-375 293 131 139z"/><glyph glyph-name="Tcedilla" unicode="Ţ" horiz-adv-x="942" d="M926 1100H629V0H313v1100H16v266h910v-266zM418-94l205-90-230-299-164 82z"/><glyph glyph-name="tcedilla" unicode="ţ" horiz-adv-x="612" d="M600 676H418V0H123v676H20v237h103v295h295V913h182V676zM236-94l192-90-242-299-151 82z"/><glyph glyph-name="Tcaron" unicode="Ť" horiz-adv-x="942" d="M629 1100h297v266H16v-266h297V0h316v1100zm-158 629l252 190 135-143-387-289-385 289 131 143z"/><glyph glyph-name="tcaron" unicode="ť" horiz-adv-x="903" d="M600 676H418V0H123v676H20v237h103v295h295V913h182V676zm-88 332l143 426 267-62-230-405z"/><glyph glyph-name="Utilde" unicode="Ũ" horiz-adv-x="1454" d="M1305 1366V557q0-124-30.5-231T1153 125Q1064 33 959.5 1T727-31 494.5 1 301 125q-48 50-80 106t-46.5 114.5-19.5 106-5 105.5v809h315V565q0-155 72-229 67-72 190-72 124 0 191 72 71 73 71 229v801h316zm-330 410l145-103q-34-67-86-119-63-63-145-63-45 0-127 33l-84 32q-63 23-76 23-62 0-94-80l-146 103q34 75 76 120 59 62 150 62 50 0 123-29l82-33q4-1 22.5-9t32.5-11.5 29-3.5q66 0 98 78z"/><glyph glyph-name="utilde" unicode="ũ" horiz-adv-x="1167" d="M115 913h295V410q0-101 51-148 48-43 123-43 79 0 125 43 49 47 49 148v503h295V381q0-93-20-162.5T950 88Q829-31 584-31 336-31 215 88q-58 57-79 123t-21 151v551zm706 433l135-91q-30-76-79-129-61-61-144-61-40 0-121 29l-71 26q-70 27-101 27-60 0-88-76l-133 90q23 79 70 129 56 62 145 62 56 0 127-27l70-27q73-28 108-28 36 0 56 24t26 52z"/><glyph glyph-name="Umacron" unicode="Ū" horiz-adv-x="1454" d="M1305 1366V557q0-124-30.5-231T1153 125Q1064 33 959.5 1T727-31 494.5 1 301 125q-48 50-80 106t-46.5 114.5-19.5 106-5 105.5v809h315V565q0-155 72-229 67-72 190-72 124 0 191 72 71 73 71 229v801h316zm-983 176v189h794v-189H322z"/><glyph glyph-name="umacron" unicode="ū" horiz-adv-x="1167" d="M115 913h295V410q0-101 51-148 48-43 123-43 79 0 125 43 49 47 49 148v503h295V381q0-93-20-162.5T950 88Q829-31 584-31 336-31 215 88q-58 57-79 123t-21 151v551zm63 199v184h778v-184H178z"/><glyph glyph-name="Ubreve" unicode="Ŭ" horiz-adv-x="1454" d="M1305 1366V557q0-124-30.5-231T1153 125Q1064 33 959.5 1T727-31 494.5 1 301 125q-48 50-80 106t-46.5 114.5-19.5 106-5 105.5v809h315V565q0-155 72-229 67-72 190-72 124 0 191 72 71 73 71 229v801h316zm-422 424h196q-15-136-94-215-90-90-258-90t-258 90q-79 79-94 215h196q6-49 39-86 40-43 117-43t117 43q33 37 39 86z"/><glyph glyph-name="ubreve" unicode="ŭ" horiz-adv-x="1167" d="M115 913h295V410q0-101 51-148 48-43 123-43 79 0 125 43 49 47 49 148v503h295V381q0-93-20-162.5T950 88Q829-31 584-31 336-31 215 88q-58 57-79 123t-21 151v551zm622 447h193q-9-125-90-209-90-92-256-92t-256 92q-81 84-90 209h192q8-51 43-86 41-39 111-39 69 0 110 39 35 35 43 86z"/><glyph glyph-name="Uring" unicode="Ů" horiz-adv-x="1454" d="M1305 1366V557q0-124-30.5-231T1153 125Q1064 33 959.5 1T727-31 494.5 1 301 125q-48 50-80 106t-46.5 114.5-19.5 106-5 105.5v809h315V565q0-155 72-229 67-72 190-72 124 0 191 72 71 73 71 229v801h316zm-340 328q0-79-56-135-69-66-182-66t-182 66q-56 56-56 135t56 135q68 65 182 65t182-65q56-56 56-135zm-238 80q-45 0-70-25-24-24-24-55 0-32 24-56t70-24 70 24 24 56q0 31-24 55-25 25-70 25z"/><glyph glyph-name="uring" unicode="ů" horiz-adv-x="1167" d="M115 913h295V410q0-101 51-148 48-43 123-43 79 0 125 43 49 47 49 148v503h295V381q0-93-20-162.5T950 88Q829-31 584-31 336-31 215 88q-58 57-79 123t-21 151v551zm702 344q0-78-55-133-67-63-178-63t-178 63q-56 56-56 133 0 78 56 134 67 63 178 63t178-63q55-55 55-134zm-233 74q-40 0-64-18-26-22-26-56 0-33 26-55 24-18 64-18 39 0 63 18 27 23 27 55 0 33-27 56-24 18-63 18z"/><glyph glyph-name="Uhungarumlaut" unicode="Ű" horiz-adv-x="1454" d="M1305 1366V557q0-124-30.5-231T1153 125Q1064 33 959.5 1T727-31 494.5 1 301 125q-48 50-80 106t-46.5 114.5-19.5 106-5 105.5v809h315V565q0-155 72-229 67-72 190-72 124 0 191 72 71 73 71 229v801h316zm-650 528l176-135-286-276-113 98zm381 0l178-135-286-276-115 98z"/><glyph glyph-name="uhungarumlaut" unicode="ű" horiz-adv-x="1167" d="M115 913h295V410q0-101 51-148 48-43 123-43 79 0 125 43 49 47 49 148v503h295V381q0-93-20-162.5T950 88Q829-31 584-31 336-31 215 88q-58 57-79 123t-21 151v551zm348 541l168-135-275-277-106 99zm368-2l170-133-274-277-109 99z"/><glyph glyph-name="Uogonek" unicode="Ų" horiz-adv-x="1454" d="M1305 1366V557q0-198-64-317-59-113-209-205-8-5-33-20T960-9t-35.5-26.5T887-72q-39-45-39-94 0-30 22-49 21-18 58-18 57 0 102 30l-37-157q-59-35-133-35-88 0-141 49-47 44-47 115 0 58 33 114 24 41 67 88-23-2-65-2-250 0-406 156-91 95-121 201t-30 231v809h315V565q0-155 72-229 67-72 190-72 124 0 191 72 71 73 71 229v801h316z"/><glyph glyph-name="uogonek" unicode="ų" horiz-adv-x="1167" d="M115 913h295V410q0-101 51-148 48-43 123-43 79 0 125 43 49 47 49 148v503h295V381q0-39-2.5-65.5t-11-66T1009 172t-57-74q-28-30-104-84-69-42-109-84-41-41-41-77t25-58q20-20 59-20 48 0 103 30l-37-157q-59-35-137-35-89 0-138 49-47 47-47 117 0 46 31 102 24 47 70 90-18-2-60-2-228 0-352 119-58 57-79 123t-21 151v551z"/><glyph glyph-name="Ydieresis" unicode="Ÿ" horiz-adv-x="1294" d="M489 0v637L0 1366h373l274-424 275 424h372L805 637V0H489zM262 1661q0 66 48 114t114 48 114-48 48-114-48-114-114-48-114 48-48 114zm447 0q0 66 47.5 114t113.5 48 114-48 48-114-48-114-114-48-113.5 48-47.5 114z"/><glyph glyph-name="Zacute" unicode="Ź" horiz-adv-x="1261" d="M1217 1366L563 266h586V0H45l655 1100H152v266h1065zm-453 528l194-147-335-264-134 108z"/><glyph glyph-name="zacute" unicode="ź" horiz-adv-x="1021" d="M997 913L524 246h432V0H25l475 668H96v245h901zm-360 551l192-133-311-276-133 98z"/><glyph glyph-name="Zdotaccent" unicode="Ż" horiz-adv-x="1261" d="M1217 1366L563 266h586V0H45l655 1100H152v266h1065zm-736 303q0 73 50.5 123.5T655 1843t123.5-50.5T829 1669t-50.5-123.5T655 1495t-123.5 50.5T481 1669z"/><glyph glyph-name="zdotaccent" unicode="ż" horiz-adv-x="1021" d="M997 913L524 246h432V0H25l475 668H96v245h901zm-669 322q0 72 49 121t121 49 121-49 49-121-49-121-121-49-121 49-49 121z"/><glyph glyph-name="Zcaron" unicode="Ž" horiz-adv-x="1261" d="M1217 1366L563 266h586V0H45l655 1100H152v266h1065zm-574 363l252 190 135-143-387-289-385 289 131 143z"/><glyph glyph-name="zcaron" unicode="ž" horiz-adv-x="1021" d="M997 913L524 246h432V0H25l475 668H96v245h901zm-487 379l242 195 135-139-377-293-375 293 131 139z"/><glyph glyph-name="uni018F" unicode="Ə" horiz-adv-x="1566" d="M86 768h1065q-2 22-8.5 51.5t-32.5 87-66 97.5q-100 102-274 102-121 0-205-47-82-45-135-133l-291 112q95 162 236 250 170 109 422 109 298 0 485-185 199-194 199-522 0-339-209-543Q1166 45 1048 7T782-31Q632-31 523 7.5T317 143Q198 264 142 434.5T86 760v8zm1059-221H436q15-121 90-199 92-96 260-96 155 0 250 86 90 82 109 209z"/><glyph glyph-name="florin" unicode="ƒ" horiz-adv-x="1228" d="M375 242l88 487H324l30 184h142l41 236q13 73 45 146t77 120q96 101 263 101 115 0 202-41l-47-252q-52 34-119 34-55 0-88-30-43-40-61-156l-27-158h209l-33-184H750l-99-549q-10-51-16.5-83T612 7.5 578.5-91t-46-87.5T469-258Q342-377 109-377q-57 0-125 15l47 262q42-11 84-11 106 0 157 58 63 70 103 295z"/><glyph glyph-name="uni01CF" unicode="Ǐ" horiz-adv-x="626" d="M156 1366h315V0H156v1366zm157 363l252 190 135-143-387-289-385 289 131 143z"/><glyph glyph-name="uni01D0" unicode="ǐ" horiz-adv-x="565" d="M135 913h295V0H135v913zm148 396l190 178 135-141-325-291-326 291 133 141z"/><glyph glyph-name="uni01DD" unicode="ǝ" horiz-adv-x="1120" d="M741 344H342q12-70 59-113 55-51 142-51 89 0 147 60 41 48 51 104zM70 477v37h680q0 87-54 148-52 59-147 59-82 0-123-27-4-2-12.5-9T389 659.5 362 618L84 647q48 150 176 230 108 67 291 67 112 0 200-28.5T913 813q138-141 138-348 0-105-36-201T911 100Q780-31 557-31q-229 0-358 137Q70 242 70 477z"/><glyph glyph-name="Gcaron" unicode="Ǧ" horiz-adv-x="1570" d="M807 492v253h678v-14q0-142-53-304t-158-271Q1170 48 1049.5 8.5T786-31Q640-31 518 8.5T287 160Q86 366 86 680q0 161 53 293.5T283 1198q60 62 130 104t142.5 61.5 133 26.5 130.5 7q227 0 383-103 66-44 124-109t97-134l-284-154q-47 93-121 147-89 66-209 66-178 0-283-111-116-122-116-323 0-200 114-314 103-106 277-106 152 0 237 74 11 9 25 23.5t38 54 36 84.5H807zm-21 1237l252 190 136-143-388-289-385 289 131 143z"/><glyph glyph-name="gcaron" unicode="ǧ" horiz-adv-x="1218" d="M809 807v106h295V55q0-125-21-218.5T991-334Q865-469 606-469q-244 0-381 117-112 96-137 241h322q15-58 65-90 46-30 127-30 94 0 148 49 59 57 59 190v105Q724-25 537-25q-205 0-334 129Q70 241 70 449q0 112 37 206.5T205 813q126 131 332 131 180 0 272-137zM604 688q-100 0-162-59-32-31-50.5-78.5T373 459q0-98 63-164t166-66q96 0 160 60 72 69 72 174 0 102-70 168-63 57-160 57zm-45 604l242 195 135-139-377-293-375 293 131 139z"/><glyph glyph-name="AEacute" unicode="Ǽ" horiz-adv-x="1884" d="M1069 0L965 264H442L340 0H12l559 1366h777l98-266H971l104-264h471l103-267h-473l120-303h476L1872 0h-803zM535 506h344L711 954zm520 1388l194-147-336-264-133 108z"/><glyph glyph-name="aeacute" unicode="ǽ" horiz-adv-x="1720" d="M1364 295l276-19q-50-153-178-237-108-70-278-70-141 0-223 41-68 33-132 109Q770 40 676 2q-84-33-219-33-206 0-307 101-80 80-80 204 0 116 75 191 106 106 322 106 125 0 215-55v19q0 38-14.5 74.5T629 670q-57 57-178 57-103 0-236-45v225q129 37 268 37 94 0 163.5-22T754 867t67-81q47 62 116 99.5t123.5 48T1171 944q228 0 357-139 123-134 123-371v-28H983q3-97 61-158 53-58 150-58 64 0 104 25 47 28 66 80zm-858 96q-91 0-135-47-27-27-27-63 0-34 27-64 47-47 133-47 96 0 143 47 27 27 27 64 0 33-27 63-47 47-141 47zm485 191h383q-12 67-59 110-52 47-131 47-82 0-127-43-47-42-66-114zm6 882l193-133-311-276-134 98z"/><glyph glyph-name="Scommaaccent" unicode="Ș" horiz-adv-x="1126" d="M995 1262l-141-230q-109 98-229 98-91 0-133-47-35-35-35-86 0-48 30-75 10-9 21-16t28.5-15 30.5-13 42.5-16 49.5-18l103-39q129-50 186-105 101-96 101-254 0-103-32.5-191.5T928 109Q795-31 541-31q-155 0-271 58Q168 78 70 176l163 225q66-66 127-104 79-49 172-49 90 0 144 47 49 42 49 111 0 57-47 98-39 32-160 76l-112 38q-41 15-67.5 26.5T276 678t-61 49q-82 87-82 238 0 185 119 307 122 125 338 125 223 0 405-135zM289-508l114 406 275-33-201-397z"/><glyph glyph-name="scommaaccent" unicode="ș" horiz-adv-x="888" d="M791 866L674 680q-85 51-162 51-58 0-84-26-18-18-18-41 0-25 28-41 9-5 21-9.5t35-11.5 32-10l78-25q98-31 152-80 71-66 71-174 0-145-94-239Q628-31 436-31 211-31 61 100l125 199q55-47 101-68 57-28 123-28 65 0 92 20 30 23 30 60 0 34-32 53-25 15-90 33l-74 22q-92 28-148 84-65 68-65 166 0 130 88 211 99 92 276 92 170 0 304-78zM233-487l115 385 275-33-201-377z"/><glyph glyph-name="Tcommaaccent" unicode="Ț" horiz-adv-x="942" d="M926 1100H629V0H313v1100H16v266h910v-266zM225-508l115 406 274-33-200-397z"/><glyph glyph-name="tcommaaccent" unicode="ț" horiz-adv-x="612" d="M600 676H418V0H123v676H20v237h103v295h295V913h182V676zM72-487l114 385 275-33-201-377z"/><glyph glyph-name="uni0228" unicode="Ȩ" horiz-adv-x="1028" d="M922 1366v-266H465V836h434V569H465V266h457V0H150v1366h772zM520-94l205-90-229-299-164 82z"/><glyph glyph-name="uni0229" unicode="ȩ" horiz-adv-x="1120" d="M379 582h399q-16 65-59 106-54 51-139 51-91 0-150-59-40-44-51-98zm672-146v-30H369q0-40 14.5-83.5T424 250q52-57 151-57 74 0 119 26 4 2 12.5 9t24.5 25.5 27 41.5l278-29Q989 117 860 37 747-31 571-31 457-31 369-2.5T207 100Q70 237 70 453q0 101 36 196t103 164q131 131 350 131 233 0 363-137 129-136 129-371zM535-94l192-90-242-299-151 82z"/><glyph glyph-name="uni0237" unicode="ȷ" horiz-adv-x="565" d="M135 913h295V-469H135V913z"/><glyph glyph-name="uni0259" unicode="ə" horiz-adv-x="1120" d="M741 344H342q12-70 59-113 55-51 142-51 89 0 147 60 41 48 51 104zM70 477v37h680q0 87-54 148-52 59-147 59-82 0-123-27-4-2-12.5-9T389 659.5 362 618L84 647q48 150 176 230 108 67 291 67 112 0 200-28.5T913 813q138-141 138-348 0-105-36-201T911 100Q780-31 557-31q-229 0-358 137Q70 242 70 477z"/><glyph glyph-name="afii57929" unicode="ʼ" d="M246 1008l143 426 266-62-229-405z"/><glyph glyph-name="circumflex" unicode="ˆ" d="M510 1249l-244-194-131 141 375 291 377-291-135-141z"/><glyph glyph-name="caron" unicode="ˇ" d="M510 1292l242 195 135-139-377-293-375 293 131 139z"/><glyph glyph-name="uni02C9" unicode="ˉ" d="M123 1112v184h778v-184H123z"/><glyph glyph-name="breve" unicode="˘" d="M666 1360h192q-9-125-90-209-90-92-256-92t-256 92q-81 84-90 209h192q8-51 43-86 41-39 111-39t111 39q35 35 43 86z"/><glyph glyph-name="dotaccent" unicode="˙" d="M342 1235q0 72 49 121t121 49 121-49 49-121-49-121-121-49-121 49-49 121z"/><glyph glyph-name="ring" unicode="˚" d="M745 1257q0-78-55-133-67-63-178-63t-178 63q-55 55-55 133 0 79 55 134 67 63 178 63t178-63q55-55 55-134zm-233 74q-39 0-63-18-27-23-27-56 0-32 27-55 24-18 63-18t63 18q27 23 27 55 0 33-27 56-24 18-63 18z"/><glyph glyph-name="ogonek" unicode="˛" d="M772-195l-37-157q-59-35-135-35-90 0-139 49-47 47-47 115 0 63 43 125 35 49 88 98h135q-43-43-55-57-39-45-39-90 0-37 24-58 23-20 60-20 47 0 102 30z"/><glyph glyph-name="tilde" unicode="˜" d="M745 1346l136-91q-12-31-35-68.5t-45-60.5q-61-61-144-61-39 0-120 29l-72 26q-71 27-100 27-61 0-89-76l-133 90q23 79 70 129 56 62 145 62 56 0 127-27l70-27q73-28 109-28t55.5 23.5T745 1346z"/><glyph glyph-name="hungarumlaut" unicode="˝" d="M430 1454l168-135-274-277-107 99zm369-2l170-133-275-277-108 99z"/><glyph glyph-name="acutecomb" unicode="́" horiz-adv-x="4" d="M-414 1464l193-133-311-276-134 98z"/><glyph glyph-name="uni0394" unicode="Δ" horiz-adv-x="1370" d="M1333 0H37l506 1366h278zM684 991L420 238h526z"/><glyph glyph-name="uni0394" unicode="∆" horiz-adv-x="1370" d="M1333 0H37l506 1366h278zM684 991L420 238h526z"/><glyph glyph-name="uni03A9" unicode="Ω" horiz-adv-x="1409" d="M780 0v221q130 58 201 193 68 128 68 297 0 225-121 342-42 41-101.5 63.5T705 1139t-122-22.5-102-63.5Q360 936 360 711q0-169 68-297 71-135 201-193V0H80v238h272q-62 35-114 84-90 89-127 204T74 748q0 144 48 265.5T254 1219q178 178 451 178 272 0 450-178 84-84 132-205.5t48-265.5q0-107-37-222t-127-204q-52-49-114-84h272V0H780z"/><glyph glyph-name="uni03A9" unicode="Ω" horiz-adv-x="1409" d="M780 0v221q130 58 201 193 68 128 68 297 0 225-121 342-42 41-101.5 63.5T705 1139t-122-22.5-102-63.5Q360 936 360 711q0-169 68-297 71-135 201-193V0H80v238h272q-62 35-114 84-90 89-127 204T74 748q0 144 48 265.5T254 1219q178 178 451 178 272 0 450-178 84-84 132-205.5t48-265.5q0-107-37-222t-127-204q-52-49-114-84h272V0H780z"/><glyph glyph-name="pi" unicode="π" horiz-adv-x="1384" d="M586 0H291v676H135v237h1237V676h-155V0H922v676H586V0z"/><glyph glyph-name="afii10023" unicode="Ё" horiz-adv-x="1028" d="M922 1366v-266H465V836h434V569H465V266h457V0H150v1366h772zm-752 270q0 64 45 109t109 45 108.5-44.5T477 1636q0-64-44.5-108.5T324 1483q-65 0-109.5 44.5T170 1636zm428 0q0 64 45 109t109 45 108.5-44.5T905 1636q0-64-44.5-108.5T752 1483q-65 0-109.5 44.5T598 1636z"/><glyph glyph-name="afii10051" unicode="Ђ" horiz-adv-x="1384" d="M283 0v1100H16v266h1033v-266H598V803q123 47 246 47 170 0 289-64 198-109 198-370 0-134-48-220.5T1165 63q-58-37-145.5-56T846-12q-43 0-117 12v250q55-12 111-12 73 0 114 32 54 43 54 136 0 112-76 153-45 25-129 25-99 0-205-47V0H283z"/><glyph glyph-name="afii10052" unicode="Ѓ" horiz-adv-x="940" d="M915 1366v-266H465V0H150v1366h765zm-249 528l194-147-336-264-133 108z"/><glyph glyph-name="afii10053" unicode="Є" horiz-adv-x="1275" d="M1174 397V66q-165-97-406-97-93 0-166.5 11.5T440.5 34 281 150Q86 349 86 686q0 335 197 528 185 183 499 183 201 0 392-99V963q-75 65-142 96-102 51-225 51-173 0-272-90-87-77-111-203h524V563H422q17-141 125-227 97-80 268-80 128 0 219 45 69 32 140 96z"/><glyph glyph-name="afii10054" unicode="Ѕ" horiz-adv-x="1126" d="M995 1262l-141-230q-109 98-229 98-91 0-133-47-35-35-35-86 0-48 30-75 10-9 21-16t28.5-15 30.5-13 42.5-16 49.5-18l103-39q129-50 186-105 101-96 101-254 0-103-32.5-191.5T928 109Q795-31 541-31q-155 0-271 58Q168 78 70 176l163 225q66-66 127-104 79-49 172-49 90 0 144 47 49 42 49 111 0 57-47 98-39 32-160 76l-112 38q-41 15-67.5 26.5T276 678t-61 49q-82 87-82 238 0 185 119 307 122 125 338 125 223 0 405-135z"/><glyph glyph-name="afii10055" unicode="І" horiz-adv-x="626" d="M156 1366h315V0H156v1366z"/><glyph glyph-name="afii10056" unicode="Ї" horiz-adv-x="690" d="M188 1366h316V0H188v1366zm197 295q0 66 42.5 114t100.5 48q59 0 101.5-48t42.5-114-42.5-114-101.5-48q-58 0-100.5 48T385 1661zm-367 0q0 66 42.5 114t101.5 48q58 0 100.5-48t42.5-114-42.5-114-100.5-48q-59 0-101.5 48T18 1661z"/><glyph glyph-name="afii10057" unicode="Ј" horiz-adv-x="849" d="M385 1366h315V436q0-50-3-86.5T683.5 260t-36-101T582 72Q479-31 293-31 158-31 76 18 4 63-53 133l196 221q23-48 50-75 31-31 77-31t74 28q41 41 41 162v928z"/><glyph glyph-name="afii10058" unicode="Љ" horiz-adv-x="2013" d="M963 0v1100H592V631q0-192-30-326.5T455 92Q347-16 147-16 82-16 20 0v283q37-13 78-13 80 0 125 45 38 38 50 110.5T285 602v764h993V834h192q252 0 375-115 115-108 115-303t-111-301q-52-49-128-76.5t-132-33T1460 0H963zm315 580V254h139q113 0 164 37 59 38 59 127 0 39-13 70t-24 42.5-20 16.5q-47 33-164 33h-141z"/><glyph glyph-name="afii10059" unicode="Њ" horiz-adv-x="2060" d="M1010 0v580H465V0H150v1366h315V846h545v520h315V834h193q251 0 374-115 115-108 115-303t-111-301q-52-49-128-76.5t-132-33T1507 0h-497zm315 580V254h139q113 0 164 37 60 38 60 127 0 39-13.5 70t-24.5 42.5-20 16.5q-47 33-164 33h-141z"/><glyph glyph-name="afii10060" unicode="Ћ" horiz-adv-x="1476" d="M283 0v1100H16v266h1033v-266H598V829q155 21 272 21 286 0 406-115 102-95 102-278V0h-315v360q0 121-49 168-56 56-215 56-102 0-201-17V0H283z"/><glyph glyph-name="afii10061" unicode="Ќ" horiz-adv-x="1372" d="M465 1366V797l467 569h385L764 719 1360 0H954L465 606V0H150v1366h315zm334 528l194-147-336-264-133 108z"/><glyph glyph-name="afii10062" unicode="Ў" horiz-adv-x="1273" d="M8 1366h352l287-631 275 631h340L637 0H297l199 393zm813 451l217-93q-50-117-155-184-95-57-252-57-155 0-250 57-107 68-156 184l217 93q26-68 68-99 47-35 125-35 75 0 121 35 46 37 65 99z"/><glyph glyph-name="afii10145" unicode="Џ" horiz-adv-x="1435" d="M150 0v1366h315V266h506v1100h315V0H860v-340H578V0H150z"/><glyph glyph-name="afii10017" unicode="А" horiz-adv-x="1386" d="M1055 0L952 258H436L332 0H4l551 1366h289L1382 0h-327zM528 500h338L698 958z"/><glyph glyph-name="afii10018" unicode="Б" horiz-adv-x="1222" d="M150 0v1366h843v-266H465V827h176q52 0 95.5-4.5T833 806t102.5-39 90.5-67q111-111 111-284 0-182-111-293-70-70-171.5-96.5T614 0H150zm315 254h125q116 0 170 43 53 46 53 121 0 85-61 127-52 37-162 37H465V254z"/><glyph glyph-name="afii10019" unicode="В" horiz-adv-x="1216" d="M150 1366h417q238 0 348-104 99-94 99-258 0-103-45-175-43-69-115-100 113-17 188-92 88-88 88-244 0-170-106-276Q903 0 664 0H150v1366zm311-246V811h51q107 0 160 39 55 38 55 121 0 76-53 114-21 16-52 24.5t-52 9.5-60 1h-49zm0-542V246h76q52 0 85.5 2t77.5 15 70 38q45 42 45 115 0 71-43 110-56 52-225 52h-86z"/><glyph glyph-name="afii10020" unicode="Г" horiz-adv-x="940" d="M915 1366v-266H465V0H150v1366h765z"/><glyph glyph-name="afii10021" unicode="Д" horiz-adv-x="1435" d="M283 1366h979V262h153v-569h-282V0H295v-307H12v569q95 17 154 76 41 38 66.5 90.5T268 550t12.5 116 2.5 122v578zm303-262V799q0-221-27-320-34-126-123-217h514v842H586z"/><glyph glyph-name="afii10022" unicode="Е" horiz-adv-x="1028" d="M922 1366v-266H465V836h434V569H465V266h457V0H150v1366h772z"/><glyph glyph-name="afii10024" unicode="Ж" horiz-adv-x="1927" d="M805 0v612L393 0H12l512 709-483 657h360l404-586v586h315V780l404 586h360l-483-657L1915 0h-381l-414 612V0H805z"/><glyph glyph-name="afii10025" unicode="З" horiz-adv-x="1208" d="M262 1001l-139 242q83 67 186 105 128 49 266 49 240 0 367-125 105-102 105-268 0-103-54-179-49-68-131-100 104-29 168-96 92-92 92-244 0-161-110-274Q872-31 600-31q-195 0-328 60Q164 75 61 172l177 231q61-71 139-112 82-43 186-43 99 0 158 41 65 47 65 127 0 69-49 108-65 51-260 51h-51v254h47q166 0 225 54 39 35 39 92 0 64-55 106-48 37-143 37-79 0-154-35-60-26-123-82z"/><glyph glyph-name="afii10026" unicode="И" horiz-adv-x="1525" d="M150 1366h315V473l633 909h278V0h-315v895L428-16H150v1382z"/><glyph glyph-name="afii10027" unicode="Й" horiz-adv-x="1525" d="M150 1366h315V473l633 909h278V0h-315v895L428-16H150v1382zm802 451l217-93q-50-117-155-184-95-57-252-57-155 0-250 57-107 68-156 184l217 93q26-68 68-99 47-35 125-35 75 0 121 35 46 37 65 99z"/><glyph glyph-name="afii10028" unicode="К" horiz-adv-x="1372" d="M465 1366V797l467 569h385L764 719 1360 0H954L465 606V0H150v1366h315z"/><glyph glyph-name="afii10029" unicode="Л" horiz-adv-x="1427" d="M285 1366h993V0H963v1100H592V631q0-192-30-326.5T455 92Q347-16 147-16 82-16 20 0v283q37-13 78-13 80 0 125 45 38 38 50 110.5T285 602v764z"/><glyph glyph-name="afii10030" unicode="М" horiz-adv-x="1814" d="M401 0H86l219 1366h262l340-817 340 817h262L1729 0h-316l-108 815L963 0H852L510 815z"/><glyph glyph-name="afii10031" unicode="Н" horiz-adv-x="1474" d="M465 1366V846h545v520h315V0h-315v580H465V0H150v1366h315z"/><glyph glyph-name="afii10032" unicode="О" horiz-adv-x="1658" d="M831 1397q324 0 529-199 100-97 156.5-229.5T1573 682q0-142-53-275t-160-237Q1152-31 831-31q-176 0-309 57.5T299 170q-100 94-156.5 226.5T86 678q0 145 58 284t153 234q84 84 216.5 142.5T831 1397zm-2-291q-182 0-299-117-120-116-120-309 0-185 125-307 118-113 292-113 186 0 303 117 119 115 119 305 0 98-34 177t-85 130q-54 52-132.5 84.5T829 1106z"/><glyph glyph-name="afii10033" unicode="П" horiz-adv-x="1447" d="M150 1366h1148V0H983v1100H465V0H150v1366z"/><glyph glyph-name="afii10034" unicode="Р" horiz-adv-x="1171" d="M150 1366h481q230 0 358-113 133-116 133-331 0-201-116-322-119-121-349-121H465V0H150v1366zm315-258V737h113q117 0 170 51 51 51 51 136t-51 133q-53 51-177 51H465z"/><glyph glyph-name="afii10035" unicode="С" horiz-adv-x="1239" d="M1137 406V43Q990-31 836-31q-334 0-537 199-97 94-155 227.5T86 686q0 155 58 287.5T299 1200q95 92 225.5 144.5T809 1397q151 0 328-76V956q-138 146-320 146-168 0-278-107-129-126-129-315 0-187 118-301 16-16 36.5-31t57.5-36.5 89.5-34.5T823 264q170 0 314 142z"/><glyph glyph-name="afii10036" unicode="Т" horiz-adv-x="942" d="M926 1100H629V0H313v1100H16v266h910v-266z"/><glyph glyph-name="afii10037" unicode="У" horiz-adv-x="1273" d="M8 1366h352l287-631 275 631h340L637 0H297l199 393z"/><glyph glyph-name="afii10038" unicode="Ф" horiz-adv-x="1744" d="M715 0v190h-17q-45 0-94.5 5.5T481 216t-144 52-122 92Q86 499 86 735q0 226 133 367 51 55 122 92t142.5 53 121 21.5 93.5 5.5h17v188h315v-188h17q44 0 93.5-5.5t121-21.5 142.5-53 122-92q133-141 133-367 0-236-129-375-51-55-122-92t-144-52-122.5-20.5-94.5-5.5h-17V0H715zm12 1020h-12q-160 0-240-80-74-74-74-209 0-133 74-207 80-80 240-80h12v576zm291 0V444h12q160 0 240 80 73 73 73 207 0 136-73 209-80 80-240 80h-12z"/><glyph glyph-name="afii10039" unicode="Х" horiz-adv-x="1404" d="M20 0l502 725-424 641h379l225-389 226 389h379L883 725 1384 0h-378L702 473 399 0H20z"/><glyph glyph-name="afii10040" unicode="Ц" horiz-adv-x="1490" d="M150 0v1366h315V266h506v1100h315V266h184v-573h-282V0H150z"/><glyph glyph-name="afii10041" unicode="Ч" horiz-adv-x="1323" d="M858 0v545q-126-21-231-21-295 0-424 121-64 61-84.5 134T98 946v420h316v-356q0-33 1.5-52.5T431 902t42-58q56-45 199-45 98 0 186 16v551h316V0H858z"/><glyph glyph-name="afii10042" unicode="Ш" horiz-adv-x="2019" d="M150 0v1366h315V266h387v1100h315V266h387v1100h316V0H150z"/><glyph glyph-name="afii10043" unicode="Щ" horiz-adv-x="2074" d="M1772 0H150v1366h315V266h387v1100h315V266h387v1100h316V266h184v-573h-282V0z"/><glyph glyph-name="afii10044" unicode="Ъ" horiz-adv-x="1351" d="M301 0v1100H16v266h600V834h193q252 0 375-115 114-107 114-301 0-195-110-303-52-49-128-76.5t-132-33T799 0H301zm315 580V254h140q113 0 164 37 59 38 59 127 0 39-13 70t-24 42.5-20 16.5q-47 33-164 33H616z"/><glyph glyph-name="afii10045" unicode="Ы" horiz-adv-x="1734" d="M1270 1366h315V0h-315v1366zM150 0v1366h315V834h188q252 0 375-115 115-108 115-303t-111-301q-52-49-128-76.5t-132-33T643 0H150zm315 580V254h139q113 0 164 37 59 38 59 127 0 39-13 70t-24 42.5-20 16.5q-47 33-164 33H465z"/><glyph glyph-name="afii10046" unicode="Ь" horiz-adv-x="1200" d="M150 0v1366h315V834h192q252 0 375-115 115-108 115-303t-111-301q-52-49-128-76.5t-132-33T647 0H150zm315 580V254h139q113 0 164 37 59 38 59 127 0 39-13 70t-24 42.5-20 16.5q-47 33-164 33H465z"/><glyph glyph-name="afii10047" unicode="Э" horiz-adv-x="1275" d="M102 66v331q71-64 140-96 91-45 219-45 171 0 268 80 106 86 129 227H328v254h528q-24 123-115 203-99 90-272 90-123 0-225-51-67-31-142-96v335q191 99 392 99 314 0 499-183 197-193 197-528 0-337-195-536-72-74-159.5-116t-161-53.5T508-31q-241 0-406 97z"/><glyph glyph-name="afii10048" unicode="Ю" horiz-adv-x="2166" d="M465 844h182q41 214 193 362 109 107 236 149t276 42q322 0 522-197 207-203 207-508 0-159-55.5-294.5T1874 168Q1675-31 1350-31q-319 0-519 203-168 170-188 406H465V0H150v1366h315V844zm891 262q-172 0-281-109-125-125-125-315 0-179 111-299 114-123 299-123 159 0 268 102 129 120 129 326 0 186-115 305-109 113-286 113z"/><glyph glyph-name="afii10049" unicode="Я" horiz-adv-x="1232" d="M1083 1366V0H768v498h-41L406 0H41l393 535q-115 21-194 96-115 108-115 303 0 183 111 299 75 78 169.5 105.5T614 1366h469zM768 739v369h-74q-127 0-186-49-59-51-59-137 0-82 53-131 58-52 192-52h74z"/><glyph glyph-name="afii10065" unicode="а" horiz-adv-x="1224" d="M815 811v102h295V0H815v111Q723-31 545-31 441-31 358 1T203 109Q70 250 70 451q0 112 38 207.5T211 819q125 125 317 125 190 0 287-133zM602 690q-97 0-162-65-67-67-67-166 0-98 61-164 69-72 174-72 90 0 154 64 72 68 72 172 0 103-68 168-66 63-164 63z"/><glyph glyph-name="afii10066" unicode="б" horiz-adv-x="1230" d="M864 1495h258q-6-65-35-131t-73-109q-66-66-221-110l-103-29q-4-1-34-9.5t-39.5-11.5-36-11.5T541 1069t-33.5-15.5-36-20.5-29.5-23q-83-76-94-193h10q115 125 314 125 222 0 354-129 61-60 98-147t37-189q0-106-37.5-201T1014 111Q870-31 625-31q-236 0-377 135Q86 264 86 575q0 106 12.5 206t55 218.5T266 1192q36 39 77.5 67.5T433 1306t79.5 27 81.5 21l55 12q62 14 87 20t57 20 49 32q22 25 22 57zM623 692q-99 0-164-65-70-70-70-172 0-98 68-166 66-66 170-66 86 0 153 60 78 71 78 180 0 92-67 162-67 67-168 67z"/><glyph glyph-name="afii10067" unicode="в" horiz-adv-x="1028" d="M115 913h489q157 0 227-59 74-64 74-178 0-93-55-148-29-33-76-49 81-16 133-65 60-60 60-156 0-108-68-176Q817 0 672 0H115v913zm295-364h120q46 0 74 18 31 22 31 68 0 41-27 63-24 19-82 19H410V549zm0-352h133q62 0 88 24 28 25 28 72 0 39-28 63-29 25-101 25H410V197z"/><glyph glyph-name="afii10068" unicode="г" horiz-adv-x="749" d="M115 0v913h614V672H410V0H115z"/><glyph glyph-name="afii10069" unicode="д" horiz-adv-x="1173" d="M213 913h809V225h135v-483H895V0H270v-258H8v483q70 7 125 58 36 33 54.5 82.5t22 89.5 3.5 104v354zm514-688v463H483V514q0-100-20-168-20-65-82-121h346z"/><glyph glyph-name="afii10070" unicode="е" horiz-adv-x="1120" d="M379 582h399q-16 65-59 106-54 51-139 51-91 0-150-59-40-44-51-98zm672-146v-30H369q0-40 14.5-83.5T424 250q52-57 151-57 74 0 119 26 4 2 12.5 9t24.5 25.5 27 41.5l278-29Q989 117 860 37 747-31 571-31 457-31 369-2.5T207 100Q70 237 70 453q0 101 36 196t103 164q131 131 350 131 233 0 363-137 129-136 129-371z"/><glyph glyph-name="afii10072" unicode="ж" horiz-adv-x="1560" d="M637 913h287V547l260 366h336l-332-428L1556 0h-360L924 395V0H637v395L365 0H4l369 485L41 913h336l260-366v366z"/><glyph glyph-name="afii10073" unicode="з" horiz-adv-x="948" d="M197 639L84 836q70 45 152 75 92 33 215 33 213 0 309-94 67-64 67-168 0-99-55-156-37-37-78-51 76-18 123-65 62-59 62-152 0-110-80-190-56-55-136-77T463-31q-142 0-250 41-85 33-164 96l125 195q56-49 113-74 68-28 141-28 67 0 107 22 40 23 40 70 0 42-43 61-43 17-106 17H315v200h84q70 0 111 17 43 20 43 61t-45 60q-37 16-92 16-60 0-121-25-56-23-98-59z"/><glyph glyph-name="afii10074" unicode="и" horiz-adv-x="1187" d="M115 913h295V391l389 522h274V0H778v530L389 0H115v913z"/><glyph glyph-name="afii10075" unicode="й" horiz-adv-x="1187" d="M115 913h295V391l389 522h274V0H778v530L389 0H115v913zm645 449l205-80q-38-114-131-174-87-57-240-57t-240 57q-93 60-131 174l205 80q12-61 53-94 43-37 113-37t113 37q41 33 53 94z"/><glyph glyph-name="afii10076" unicode="к" horiz-adv-x="1105" d="M115 0v913h295V551l299 362h366L684 489 1102 0H721L410 406V0H115z"/><glyph glyph-name="afii10077" unicode="л" horiz-adv-x="1122" d="M1008 913V0H713v676H473V395q0-209-90-311-53-58-115-77T131-12Q71-12 16 2v234q22-6 45.5-7.5T113 235t45 27q37 49 37 146v505h813z"/><glyph glyph-name="afii10078" unicode="м" horiz-adv-x="1359" d="M49 0l160 913h233l238-507 238 507h233L1311 0h-283l-74 485L729 0h-98L406 485 332 0H49z"/><glyph glyph-name="afii10079" unicode="н" horiz-adv-x="1148" d="M115 0v913h295V596h329v317h295V0H739v358H410V0H115z"/><glyph glyph-name="afii10080" unicode="о" horiz-adv-x="1212" d="M1143 457q0-91-35-182t-102-158Q940 51 836.5 10T606-31 376 10 207 117q-67 67-102 158T70 457t35 182 102 158q66 66 169 106.5T606 944t230.5-40.5T1006 797q67-67 102-158t35-182zM606 694q-101 0-166-65-67-67-67-172t67-172q66-66 168-66 98 0 164 66 68 68 68 172t-68 172q-65 65-166 65z"/><glyph glyph-name="afii10081" unicode="п" horiz-adv-x="1136" d="M115 0v913h907V0H727v676H410V0H115z"/><glyph glyph-name="afii10082" unicode="р" horiz-adv-x="1224" d="M410 104v-573H115V913h295V805q107 139 284 139 195 0 324-129 64-64 100.5-155.5T1155 459q0-222-145-367Q887-31 700-31q-193 0-290 135zm213 586q-97 0-164-67-34-34-52-79.5T389 455q0-93 66-162 70-70 168-70 90 0 157 64 34 33 53 80.5t19 93.5q0 99-70 166-66 63-159 63z"/><glyph glyph-name="afii10083" unicode="с" horiz-adv-x="882" d="M801 893V625q-84 69-193 69-103 0-168-65-67-67-67-172 0-100 61-164 68-74 178-74 103 0 189 72V25Q699-31 567-31q-214 0-354 137Q70 245 70 455q0 216 151 360 137 129 348 129 124 0 232-51z"/><glyph glyph-name="afii10084" unicode="т" horiz-adv-x="819" d="M803 676H557V0H262v676H16v237h787V676z"/><glyph glyph-name="afii10085" unicode="у" horiz-adv-x="1198" d="M119-469l321 586L4 913h340l258-495 252 495h332L451-469H119z"/><glyph glyph-name="afii10086" unicode="ф" horiz-adv-x="1470" d="M883-469H588v455h-13q-232 0-374 137Q70 248 70 461q0 124 45 213.5T227 817q66 53 159.5 82T573 928h15v438h295V928h14q93 0 186.5-29t159.5-82q67-54 112.5-143t45.5-213q0-213-131-338Q1128-14 895-14h-12v-455zM868 690V223q56-1 105.5 18t79.5 52q59 62 59 168 0 107-59 166-32 32-82 49t-103 14zM602 223v467q-53 3-102.5-14T418 627q-60-60-60-166 0-105 60-168 30-33 79-52t105-18z"/><glyph glyph-name="afii10087" unicode="х" horiz-adv-x="1269" d="M4 0l447 498L88 913h377l170-211 170 211h377L819 498 1266 0H885L635 295 385 0H4z"/><glyph glyph-name="afii10088" unicode="ц" horiz-adv-x="1177" d="M115 0v913h295V238h311v675h295V238h149v-496H903V0H115z"/><glyph glyph-name="afii10089" unicode="ч" horiz-adv-x="1060" d="M651 0v307q-91-22-184-22-208 0-301 88-84 80-84 235v305h291V649q0-67 37-100 36-31 118-31 67 0 123 19v376h295V0H651z"/><glyph glyph-name="afii10090" unicode="ш" horiz-adv-x="1646" d="M115 0v913h295V238h266v675h295V238h266v675h295V0H115z"/><glyph glyph-name="afii10091" unicode="щ" horiz-adv-x="1693" d="M1419 0H115v913h295V238h266v675h295V238h266v675h295V238h149v-496h-262V0z"/><glyph glyph-name="afii10092" unicode="ъ" horiz-adv-x="1130" d="M543 600h213q166 0 252-86 73-73 73-207 0-147-82-227-51-49-114-64.5T743 0H248v676H12v237h531V600zm0-391h121q64 0 90 24 28 25 28 70 0 44-28 66-30 22-88 22H543V209z"/><glyph glyph-name="afii10093" unicode="ы" horiz-adv-x="1439" d="M1034 913h291V0h-291v913zM410 600h202q162 0 248-86 76-76 76-209 0-145-82-225-51-49-113.5-64.5T602 0H115v913h295V600zm0-391h120q65 0 91 24 28 25 28 70 0 44-28 66-30 22-89 22H410V209z"/><glyph glyph-name="afii10094" unicode="ь" horiz-adv-x="997" d="M410 600h217q161 0 247-86 74-74 74-207 0-147-82-227-51-49-113.5-64.5T614 0H115v913h295V600zm0-391h120q65 0 91 24 28 25 28 70 0 44-28 66-30 22-89 22H410V209z"/><glyph glyph-name="afii10095" unicode="э" horiz-adv-x="942" d="M78 25v274q102-92 250-92 99 0 155 37 61 38 82 116H217v201h348q-25 71-90 111-57 35-149 35-136 0-248-95v269q141 63 297 63 235 0 366-131 131-137 131-346 0-120-38.5-214.5T733 96q-42-42-90.5-69.5t-100-39-90.5-15-90-3.5Q212-31 78 25z"/><glyph glyph-name="afii10096" unicode="ю" horiz-adv-x="1615" d="M410 584h114q22 121 111 213 143 147 381 147 242 0 391-145 63-62 101-149.5t38-190.5-35.5-195T1409 106q-82-82-177.5-109.5T1026-31Q782-31 649 96q-20 19-40.5 44t-49 83T520 346H410V0H115v913h295V584zm606 110q-97 0-158-57-72-68-72-182 0-99 64-166 67-70 166-70 92 0 155 60 72 69 72 182 0 105-65 170-63 63-162 63z"/><glyph glyph-name="afii10097" unicode="я" horiz-adv-x="1007" d="M37 0l262 330q-94 16-158 80-69 67-69 184 0 141 84 225 96 94 301 94h436V0H598v305h-29L356 0H37zm561 498v207H494q-62 0-93-23-34-27-34-84 0-44 28-72 32-28 105-28h98z"/><glyph glyph-name="afii10071" unicode="ё" horiz-adv-x="1120" d="M1051 436v-30H369q0-40 14.5-83.5T424 250q52-57 151-57 74 0 119 26 4 2 12.5 9t24.5 25.5 27 41.5l278-29Q989 117 860 37 747-31 571-31 457-31 369-2.5T207 100Q70 237 70 453q0 101 36 196t103 164q131 131 350 131 233 0 363-137 129-136 129-371zM379 582h399q-16 65-59 106-54 51-139 51-91 0-150-59-40-44-51-98zm-199 647q0 67 46 113.5t114 46.5 114-46.5 46-113.5-46-113.5-114-46.5-114 46.5-46 113.5zm438 0q0 67 46 113.5t114 46.5 114-46.5 46-113.5-46-113.5-114-46.5-114 46.5-46 113.5z"/><glyph glyph-name="afii10099" unicode="ђ" horiz-adv-x="1193" d="M143 0v1028H-20v193h163v272h295v-272h393v-193H438V723q53 64 111 94 72 39 178 39 168 0 258-92 90-90 90-266v-600q0-201-76-281-81-86-258-86-73 0-163 20v234q28-12 75-12 60 0 92 32 16 16 24.5 45t9.5 49.5 1 55.5v432q0 41-2 67t-13.5 60-33.5 55q-41 41-115 41-71 0-116-45-62-60-62-190V0H143z"/><glyph glyph-name="afii10100" unicode="ѓ" horiz-adv-x="749" d="M115 0v913h614V672H410V0H115zm407 1464l193-133-312-276-133 98z"/><glyph glyph-name="afii10101" unicode="є" horiz-adv-x="942" d="M864 299V25Q730-31 580-31q-51 0-90 3.5t-90.5 15-100 39T209 96q-62 62-100.5 156.5T70 467q0 209 131 346 131 131 366 131 156 0 297-63V612q-112 95-248 95-92 0-149-35-65-40-90-111h348V360H377q21-78 82-116 56-37 155-37 148 0 250 92z"/><glyph glyph-name="afii10102" unicode="ѕ" horiz-adv-x="888" d="M791 866L674 680q-85 51-162 51-58 0-84-26-18-18-18-41 0-25 28-41 9-5 21-9.5t35-11.5 32-10l78-25q98-31 152-80 71-66 71-174 0-145-94-239Q628-31 436-31 211-31 61 100l125 199q55-47 101-68 57-28 123-28 65 0 92 20 30 23 30 60 0 34-32 53-25 15-90 33l-74 22q-92 28-148 84-65 68-65 166 0 130 88 211 99 92 276 92 170 0 304-78z"/><glyph glyph-name="afii10103" unicode="і" horiz-adv-x="565" d="M135 913h295V0H135v913zm-24 390q0 72 50 122t122 50 122-50 50-122-50-122.5-122-50.5-122 50.5-50 122.5z"/><glyph glyph-name="afii10104" unicode="ї" horiz-adv-x="696" d="M199 913h295V0H199v913zm321 562q54 0 94.5-43.5T655 1313t-40.5-118.5T520 1151t-94.5 43.5T385 1313t40.5 118.5T520 1475zm-344 0q54 0 94.5-43.5T311 1313t-40.5-118.5T176 1151t-94.5 43.5T41 1313t40.5 118.5T176 1475z"/><glyph glyph-name="afii10105" unicode="ј" horiz-adv-x="565" d="M135 913h295V-469H135V913zm-24 390q0 72 50 122t122 50 122-50 50-122-50-122.5-122-50.5-122 50.5-50 122.5z"/><glyph glyph-name="afii10106" unicode="љ" horiz-adv-x="1595" d="M1008 600h217q162 0 248-86 73-73 73-207 0-147-82-227-51-49-113.5-64.5T1212 0H713v676H473V395q0-209-90-311-53-58-115-77T131-12Q71-12 16 2v234q22-6 45.5-7.5T113 235t45 27q37 49 37 146v505h813V600zm0-391h120q65 0 91 24 28 25 28 70 0 44-28 66-30 22-89 22h-122V209z"/><glyph glyph-name="afii10107" unicode="њ" horiz-adv-x="1622" d="M1034 600h217q162 0 248-86 74-74 74-207 0-147-82-227-51-49-113.5-64.5T1239 0H739v391H410V0H115v913h295V600h329v313h295V600zm0-391h121q64 0 90 24 29 26 29 70 0 43-29 66-30 22-88 22h-123V209z"/><glyph glyph-name="afii10108" unicode="ћ" horiz-adv-x="1189" d="M143 0v1028H-20v193h163v272h295v-272h393v-193H438V723q53 64 111 94 72 39 178 39 168 0 258-92 90-90 90-266V0H780v387q0 41-2 67t-13.5 60-33.5 55q-41 41-115 41-71 0-116-45-62-60-62-190V0H143z"/><glyph glyph-name="afii10109" unicode="ќ" horiz-adv-x="1105" d="M115 0v913h295V551l299 362h366L684 489 1102 0H721L410 406V0H115zm563 1464l192-133-311-276-133 98z"/><glyph glyph-name="afii10110" unicode="ў" horiz-adv-x="1198" d="M119-469l321 586L4 913h340l258-495 252 495h332L451-469H119zm672 1831l204-80q-38-114-131-174-87-57-239-57-153 0-240 57-93 60-131 174l205 80q12-61 53-94 43-37 113-37 69 0 112 37 42 34 54 94z"/><glyph glyph-name="afii10193" unicode="џ" horiz-adv-x="1130" d="M115 0v913h295V238h311v675h295V0H696v-279H434V0H115z"/><glyph glyph-name="afii10146" unicode="Ѣ" horiz-adv-x="1312" d="M262 0v985H16v246h246v231h316v-231h340V985H578V834h192q252 0 375-115 115-108 115-303t-111-301q-52-49-128-76.5t-132-33T760 0H262zm316 580V254h139q113 0 164 37 59 38 59 127 0 39-13 70t-24 42.5-20 16.5q-47 33-164 33H578z"/><glyph glyph-name="afii10194" unicode="ѣ" horiz-adv-x="1091" d="M504 721V588h217q162 0 248-86 73-73 73-207 0-136-81-215-51-49-113.5-64.5T709 0H209v721H12v192h197v453h295V913h315V721H504zm0-512h121q64 0 90 24 28 25 28 70 0 44-28 66-30 22-88 22H504V209z"/><glyph glyph-name="afii10147" unicode="Ѳ" horiz-adv-x="1658" d="M831 1397q324 0 529-199 100-97 156.5-229.5T1573 682q0-142-53-275t-160-237Q1152-31 831-31q-176 0-309 57.5T299 170q-100 94-156.5 226.5T86 678q0 145 58 284t153 234q84 84 216.5 142.5T831 1397zM430 817h799q-33 134-142 213-102 76-260 76-155 0-264-88-94-76-133-201zm801-266H426q37-135 135-209 103-82 270-82 164 0 265 78 104 80 135 213z"/><glyph glyph-name="afii10195" unicode="ѳ" horiz-adv-x="1212" d="M1143 457q0-91-35-182t-102-158Q940 51 836.5 10T606-31 376 10 207 117q-67 67-102 158T70 457t35 182 102 158q66 66 169 106.5T606 944t230.5-40.5T1006 797q67-67 102-158t35-182zm-756 88h438q-22 74-73 117-57 45-146 45-102 0-162-60-39-39-57-102zm442-160H383q15-76 68-125 57-53 155-53 92 0 148 47 57 48 75 131z"/><glyph glyph-name="afii10148" unicode="Ѵ" horiz-adv-x="1388" d="M8 1366h340l346-874 346 874h340L801 0H588z"/><glyph glyph-name="afii10196" unicode="ѵ" horiz-adv-x="1118" d="M4 913h324l231-489 232 489h323L651 0H467z"/><glyph glyph-name="afii10050" unicode="Ґ" horiz-adv-x="987" d="M150 1366h524v307h282v-573H465V0H150v1366z"/><glyph glyph-name="afii10098" unicode="ґ" horiz-adv-x="841" d="M115 0v913h434v258h262V672H410V0H115z"/><glyph glyph-name="uni0492" unicode="Ғ" horiz-adv-x="1028" d="M967 1366v-266H516V836h332V582H516V0H201v582H0v254h201v530h766z"/><glyph glyph-name="uni0493" unicode="ғ" horiz-adv-x="794" d="M160 0v291H10v196h150v426h614V672H455V487h219V291H455V0H160z"/><glyph glyph-name="uni0494" unicode="Ҕ" horiz-adv-x="1251" d="M956 1366v-266H465V803q119 47 240 47 173 0 294-64 199-106 199-370 0-134-48-220.5T1032 63Q974 26 886.5 7T713-12q-43 0-117 12v250q56-12 111-12 73 0 114 32 53 42 53 136 0 112-75 153-45 25-129 25-99 0-205-47V0H150v1366h806z"/><glyph glyph-name="uni0495" unicode="ҕ" horiz-adv-x="991" d="M115 0v913h614V672H410V487h28q129 0 221.5-25T821 365Q930 254 930 74q0-228-144-361-67-63-164.5-98.5T428-426v229q75 7 137 64 70 70 70 186 0 104-60 160-53 49-155 49h-10V0H115z"/><glyph glyph-name="uni0496" unicode="Җ" horiz-adv-x="1929" d="M805 0v612L393 0H12l512 709-483 657h360l404-586v586h315V780l404 586h360l-483-657 323-443h185v-573h-283V0h-92l-414 612V0H805z"/><glyph glyph-name="uni0497" unicode="җ" horiz-adv-x="1570" d="M637 913h287V547l260 366h336l-332-428 180-247h162v-496h-262V0h-72L924 395V0H637v395L365 0H4l369 485L41 913h336l260-366v366z"/><glyph glyph-name="uni0498" unicode="Ҙ" horiz-adv-x="1208" d="M262 1001l-139 242q83 67 186 105 128 49 266 49 240 0 367-125 105-102 105-268 0-103-54-179-49-68-131-100 104-29 168-96 92-92 92-240 0-163-110-278Q903-4 739-20v-320H457v315Q245 0 61 172l177 231q61-71 139-112 82-43 186-43 99 0 158 41 65 47 65 127 0 69-49 108-65 51-260 51h-51v254h47q166 0 225 54 39 35 39 92 0 64-55 106-48 37-143 37-79 0-154-35-60-26-123-82z"/><glyph glyph-name="uni0499" unicode="ҙ" horiz-adv-x="948" d="M197 639L84 836q70 45 152 75 92 33 215 33 187 0 284-76 92-72 92-196 0-88-55-146-31-34-78-51 75-17 123-65 62-62 62-150 0-112-80-192-77-80-195-88v-259H342v256Q182-6 49 106l125 195q56-49 113-74 68-28 141-28 67 0 107 22 40 23 40 70 0 42-43 61-43 17-106 17H315v200h84q70 0 111 17 43 20 43 61t-45 60q-37 16-92 16-60 0-121-25-56-23-98-59z"/><glyph glyph-name="uni049A" unicode="Қ" horiz-adv-x="1339" d="M465 1366V797l467 569h385L764 719l371-453h184v-573h-283V0h-82L465 606V0H150v1366h315z"/><glyph glyph-name="uni049B" unicode="қ" horiz-adv-x="1079" d="M115 0v913h295V551l299 362h366L684 489l215-251h162v-496H799V0h-78L410 406V0H115z"/><glyph glyph-name="uni049C" unicode="Ҝ" horiz-adv-x="1579" d="M150 1366h315V821h121v307h213V821l385 545h356l-469-639L1567 0h-377L799 612V295H586v317H465V0H150v1366z"/><glyph glyph-name="uni049D" unicode="ҝ" horiz-adv-x="1257" d="M115 913h295V555h98v203h168V545l242 368h323L924 483 1253 0H918L676 397V152H508v231h-98V0H115v913z"/><glyph glyph-name="uni04A0" unicode="Ҡ" horiz-adv-x="1529" d="M623 1366V797l467 569h385L922 719 1518 0h-406L623 606V0H307v1100H12v266h611z"/><glyph glyph-name="uni04A1" unicode="ҡ" horiz-adv-x="1228" d="M238 0v672H12v241h520V551l299 362h367L807 489 1225 0H844L532 406V0H238z"/><glyph glyph-name="uni04A2" unicode="Ң" horiz-adv-x="1529" d="M465 1366V846h545v520h315V266h184v-573h-282V0h-217v580H465V0H150v1366h315z"/><glyph glyph-name="uni04A3" unicode="ң" horiz-adv-x="1196" d="M115 0v913h295V596h329v317h295V238h150v-496H922V0H739v358H410V0H115z"/><glyph glyph-name="uni04A4" unicode="Ҥ" horiz-adv-x="1769" d="M1745 1366v-266h-420V0h-315v580H465V0H150v1366h315V846h545v520h735z"/><glyph glyph-name="uni04A5" unicode="ҥ" horiz-adv-x="1341" d="M739 0v358H410V0H115v913h295V596h329v317h586V672h-291V0H739z"/><glyph glyph-name="uni04AA" unicode="Ҫ" horiz-adv-x="1239" d="M1137 406V43q-80-42-172-61v-322H682v322Q456 14 299 168q-97 94-155 227.5T86 686q0 155 58 287.5T299 1200q95 92 225.5 144.5T809 1397q151 0 328-76V956q-138 146-320 146-168 0-278-107-129-126-129-315 0-187 118-301 16-16 36.5-31t57.5-36.5 89.5-34.5T823 264q170 0 314 142z"/><glyph glyph-name="uni04AB" unicode="ҫ" horiz-adv-x="882" d="M801 893V625q-84 69-193 69-103 0-168-65-67-67-67-172 0-100 61-164 68-74 178-74 103 0 189 72V25Q753-7 698-16v-263H436v265Q307 12 213 106 70 249 70 455q0 216 151 360 137 129 348 129 124 0 232-51z"/><glyph glyph-name="uni04AE" unicode="Ү" horiz-adv-x="1294" d="M489 0v637L0 1366h373l274-424 275 424h372L805 637V0H489z"/><glyph glyph-name="uni04AF" unicode="ү" horiz-adv-x="1064" d="M4 913h311l217-505 218 505h311L680 104v-573H385v571z"/><glyph glyph-name="uni04B0" unicode="Ұ" horiz-adv-x="1294" d="M489 0v367H123v245h366v25L0 1366h373l274-424 275 424h372L805 637v-25h366V367H805V0H489z"/><glyph glyph-name="uni04B1" unicode="ұ" horiz-adv-x="1064" d="M4 913h311l217-505 218 505h311L680 104V43h287v-205H680v-307H385v307H100V43h285v59z"/><glyph glyph-name="uni04B2" unicode="Ҳ" horiz-adv-x="1400" d="M20 0l502 725-424 641h379l225-389 226 389h379L883 725l313-459h184v-573h-282V0h-92L702 473 399 0H20z"/><glyph glyph-name="uni04B3" unicode="ҳ" horiz-adv-x="1218" d="M4 0l447 498L88 913h377l170-211 170 211h377L819 498l234-260h161v-496H952V0h-75L635 295 385 0H4z"/><glyph glyph-name="uni04B6" unicode="Ҷ" horiz-adv-x="1378" d="M414 1366v-356q0-33 1.5-52.5T431 902t42-58q56-45 199-45 98 0 186 16v551h316V266h184v-573h-283V0H858v545q-126-21-231-21-295 0-424 121-64 61-84.5 134T98 946v420h316z"/><glyph glyph-name="uni04B7" unicode="ҷ" horiz-adv-x="1107" d="M834 0H651v307q-91-22-184-22-208 0-301 88-84 80-84 235v305h291V649q0-67 37-100 36-31 118-31 67 0 123 19v376h295V238h150v-496H834V0z"/><glyph glyph-name="uni04B8" unicode="Ҹ" horiz-adv-x="1435" d="M971 0v561q-85-16-158-16V256H600v285q-105-2-214.5 25T201 668q-62 62-82.5 133T98 956v410h316v-356q0-121 47-170 23-24 60.5-38t78.5-11v337h213V788q74-3 158 13v565h315V0H971z"/><glyph glyph-name="uni04B9" unicode="ҹ" horiz-adv-x="1173" d="M764 0v332q-50-12-107-15V137H489v168q-91-3-180.5 19.5T164 397q-82 74-82 203v313h287V639q0-69 37-100 34-27 83-27v236h168V512q46 0 107 14v387h295V0H764z"/><glyph glyph-name="uni04BA" unicode="Һ" horiz-adv-x="1343" d="M465 1366V844q148 20 272 20 287 0 406-114 102-95 102-279V0H930v375q0 121-49 168-55 55-215 55-108 0-201-16V0H150v1366h315z"/><glyph glyph-name="uni04BB" unicode="һ" horiz-adv-x="1169" d="M123 0v1493h295V805q53 65 110 94 72 39 179 39 168 0 258-92 90-90 90-266V0H760v469q0 41-2 67t-13.5 60-33.5 55q-41 41-115 41-72 0-117-45-61-59-61-190V0H123z"/><glyph glyph-name="uni04C0" unicode="Ӏ" horiz-adv-x="626" d="M156 1366h315V0H156v1366z"/><glyph glyph-name="uni04C1" unicode="Ӂ" horiz-adv-x="1927" d="M805 0v612L393 0H12l512 709-483 657h360l404-586v586h315V780l404 586h360l-483-657L1915 0h-381l-414 612V0H805zm348 1817l217-93q-49-116-156-184-95-57-251-57-155 0-250 57-107 68-156 184l217 93q26-68 68-99 47-35 125-35 74 0 120 35 48 38 66 99z"/><glyph glyph-name="uni04C2" unicode="ӂ" horiz-adv-x="1560" d="M637 913h287V547l260 366h336l-332-428L1556 0h-360L924 395V0H637v395L365 0H4l369 485L41 913h336l260-366v366zm309 449l205-80q-38-114-131-174-87-57-240-57-152 0-239 57-93 60-131 174l204 80q12-60 54-94 43-37 112-37 70 0 113 37 41 33 53 94z"/><glyph glyph-name="uni04C3" unicode="Ӄ" horiz-adv-x="1316" d="M465 1366V797l467 569h373L831 819q90 0 176.5-32t143.5-89q102-102 102-276 0-203-110-318Q1030-14 836-14q-103 0-189 34l35 242q42-26 94-26 79 0 119 51 35 43 35 110 0 96-64 148-62 51-188 51-86 0-213-25V0H150v1366h315z"/><glyph glyph-name="uni04C4" unicode="ӄ" horiz-adv-x="1046" d="M115 0v913h295V551l282 362h350L659 461q68-10 127-40.5t99-72.5q98-100 98-274 0-232-143-361-67-63-165-98.5T481-426v229q76 5 137 66 70 70 70 184 0 110-63 170-60 60-164 60h-51V0H115z"/><glyph glyph-name="uni04C7" unicode="Ӈ" horiz-adv-x="1474" d="M465 1366V846h545v520h315V-141q0-49-3.5-84t-23-84.5T1243-393q-48-47-112.5-61.5T981-469q-98 0-172 20v238q31-16 78-16 66 0 94 30 29 31 29 117v660H465V0H150v1366h315z"/><glyph glyph-name="uni04C8" unicode="ӈ" horiz-adv-x="1148" d="M115 0v913h295V596h329v317h295V-102q0-201-76-281-81-86-258-86-73 0-163 20v234q42-12 75-12 61 0 93 32 16 16 24 45.5t9 48.5 1 56v403H410V0H115z"/><glyph glyph-name="uni04D0" unicode="Ӑ" horiz-adv-x="1386" d="M1055 0L952 258H436L332 0H4l551 1366h289L1382 0h-327zM528 500h338L698 958zm355 1317l217-93q-49-116-156-184-95-57-252-57-155 0-250 57-105 67-155 184l217 93q26-69 67-99 47-35 125-35 75 0 121 35 48 38 66 99z"/><glyph glyph-name="uni04D1" unicode="ӑ" horiz-adv-x="1224" d="M815 811v102h295V0H815v111Q723-31 545-31 441-31 358 1T203 109Q70 250 70 451q0 112 38 207.5T211 819q125 125 317 125 190 0 287-133zM602 690q-97 0-162-65-67-67-67-166 0-98 61-164 69-72 174-72 90 0 154 64 72 68 72 172 0 103-68 168-66 63-164 63zm176 672l205-80q-38-114-131-174-87-57-240-57-152 0-239 57-93 60-131 174l204 80q12-60 54-94 43-37 112-37 70 0 113 37 41 33 53 94z"/><glyph glyph-name="uni04D2" unicode="Ӓ" horiz-adv-x="1386" d="M1055 0L952 258H436L332 0H4l551 1366h289L1382 0h-327zM528 500h338L698 958zM307 1661q0 66 48 114t114 48 114-48 48-114-48-114-114-48-114 48-48 114zm447 0q0 66 47.5 114t113.5 48 114-48 48-114-48-114-114-48-113.5 48-47.5 114z"/><glyph glyph-name="uni04D3" unicode="ӓ" horiz-adv-x="1224" d="M815 811v102h295V0H815v111Q723-31 545-31 441-31 358 1T203 109Q70 250 70 451q0 112 38 207.5T211 819q125 125 317 125 190 0 287-133zM602 690q-97 0-162-65-67-67-67-166 0-98 61-164 69-72 174-72 90 0 154 64 72 68 72 172 0 103-68 168-66 63-164 63zm72 537q0 66 48 114t114 48 113.5-48 47.5-114-47.5-114-113.5-48-114 48-48 114zm-447 0q0 66 48 114t114 48 114-48 48-114-48-114-114-48-114 48-48 114z"/><glyph glyph-name="uni04D4" unicode="Ӕ" horiz-adv-x="1884" d="M1069 0L965 264H442L340 0H12l559 1366h777l98-266H971l104-264h471l103-267h-473l120-303h476L1872 0h-803zM535 506h344L711 954z"/><glyph glyph-name="uni04D5" unicode="ӕ" horiz-adv-x="1720" d="M1364 295l276-19q-50-153-178-237-108-70-278-70-141 0-223 41-68 33-132 109Q770 40 676 2q-84-33-219-33-206 0-307 101-80 80-80 204 0 116 75 191 106 106 322 106 125 0 215-55v19q0 38-14.5 74.5T629 670q-57 57-178 57-103 0-236-45v225q129 37 268 37 94 0 163.5-22T754 867t67-81q47 62 116 99.5t123.5 48T1171 944q228 0 357-139 123-134 123-371v-28H983q3-97 61-158 53-58 150-58 64 0 104 25 47 28 66 80zm-858 96q-91 0-135-47-27-27-27-63 0-34 27-64 47-47 133-47 96 0 143 47 27 27 27 64 0 33-27 63-47 47-141 47zm485 191h383q-12 67-59 110-52 47-131 47-82 0-127-43-47-42-66-114z"/><glyph glyph-name="uni04D6" unicode="Ӗ" horiz-adv-x="1028" d="M922 1366v-266H465V836h434V569H465V266h457V0H150v1366h772zm-207 451l217-93q-49-116-156-184-95-57-252-57-155 0-250 57-105 67-155 184l217 93q26-69 67-99 47-35 125-35 75 0 121 35 48 38 66 99z"/><glyph glyph-name="uni04D7" unicode="ӗ" horiz-adv-x="1120" d="M379 582h399q-16 65-59 106-54 51-139 51-91 0-150-59-40-44-51-98zm672-146v-30H369q0-40 14.5-83.5T424 250q52-57 151-57 74 0 119 26 4 2 12.5 9t24.5 25.5 27 41.5l278-29Q989 117 860 37 747-31 571-31 457-31 369-2.5T207 100Q70 237 70 453q0 101 36 196t103 164q131 131 350 131 233 0 363-137 129-136 129-371zm-326 926l205-80q-38-114-131-174-87-57-240-57t-240 57q-93 60-131 174l205 80q12-61 53-94 43-37 113-37t113 37q41 33 53 94z"/><glyph glyph-name="uni04D8" unicode="Ә" horiz-adv-x="1566" d="M86 768h1065q-2 22-8.5 51.5t-32.5 87-66 97.5q-100 102-274 102-121 0-205-47-82-45-135-133l-291 112q95 162 236 250 170 109 422 109 298 0 485-185 199-194 199-522 0-339-209-543Q1166 45 1048 7T782-31Q632-31 523 7.5T317 143Q198 264 142 434.5T86 760v8zm1059-221H436q15-121 90-199 92-96 260-96 155 0 250 86 90 82 109 209z"/><glyph glyph-name="afii10846" unicode="ә" horiz-adv-x="1120" d="M741 344H342q12-70 59-113 55-51 142-51 89 0 147 60 41 48 51 104zM70 477v37h680q0 87-54 148-52 59-147 59-82 0-123-27-4-2-12.5-9T389 659.5 362 618L84 647q48 150 176 230 108 67 291 67 112 0 200-28.5T913 813q138-141 138-348 0-105-36-201T911 100Q780-31 557-31q-229 0-358 137Q70 242 70 477z"/><glyph glyph-name="uni04DA" unicode="Ӛ" horiz-adv-x="1566" d="M86 768h1065q-2 22-8.5 51.5t-32.5 87-66 97.5q-100 102-274 102-121 0-205-47-82-45-135-133l-291 112q95 162 236 250 170 109 422 109 298 0 485-185 199-194 199-522 0-339-209-543Q1166 45 1048 7T782-31Q632-31 523 7.5T317 143Q198 264 142 434.5T86 760v8zm1059-221H436q15-121 90-199 92-96 260-96 155 0 250 86 90 82 109 209zM397 1661q0 66 48 114t114 48 114-48 48-114-48-114-114-48-114 48-48 114zm447 0q0 66 48 114t114 48 113.5-48 47.5-114-47.5-114-113.5-48-114 48-48 114z"/><glyph glyph-name="uni04DB" unicode="ӛ" horiz-adv-x="1120" d="M741 344H342q12-70 59-113 55-51 142-51 89 0 147 60 41 48 51 104zM70 477v37h680q0 87-54 148-52 59-147 59-82 0-123-27-4-2-12.5-9T389 659.5 362 618L84 647q48 150 176 230 108 67 291 67 112 0 200-28.5T913 813q138-141 138-348 0-105-36-201T911 100Q780-31 557-31q-229 0-358 137Q70 242 70 477zm551 750q0 66 47.5 114t113.5 48 114-48 48-114-48-114-114-48-113.5 48-47.5 114zm-447 0q0 66 48 114t114 48 114-48 48-114-48-114-114-48-114 48-48 114z"/><glyph glyph-name="uni04DC" unicode="Ӝ" horiz-adv-x="1927" d="M805 0v612L393 0H12l512 709-483 657h360l404-586v586h315V780l404 586h360l-483-657L1915 0h-381l-414 612V0H805zM578 1661q0 66 47.5 114t113.5 48 114-48 48-114-48-114-114-48-113.5 48-47.5 114zm446 0q0 66 48 114t114 48 114-48 48-114-48-114-114-48-114 48-48 114z"/><glyph glyph-name="uni04DD" unicode="ӝ" horiz-adv-x="1560" d="M637 913h287V547l260 366h336l-332-428L1556 0h-360L924 395V0H637v395L365 0H4l369 485L41 913h336l260-366v366zm205 314q0 66 48 114t114 48 113.5-48 47.5-114-47.5-114-113.5-48-114 48-48 114zm-447 0q0 66 48 114t114 48 114-48 48-114-48-114-114-48-114 48-48 114z"/><glyph glyph-name="uni04DE" unicode="Ӟ" horiz-adv-x="1208" d="M262 1001l-139 242q83 67 186 105 128 49 266 49 240 0 367-125 105-102 105-268 0-103-54-179-49-68-131-100 104-29 168-96 92-92 92-244 0-161-110-274Q872-31 600-31q-195 0-328 60Q164 75 61 172l177 231q61-71 139-112 82-43 186-43 99 0 158 41 65 47 65 127 0 69-49 108-65 51-260 51h-51v254h47q166 0 225 54 39 35 39 92 0 64-55 106-48 37-143 37-79 0-154-35-60-26-123-82zm-74 660q0 66 48 114t114 48 114-48 48-114-48-114-114-48-114 48-48 114zm447 0q0 66 48 114t114 48 113.5-48 47.5-114-47.5-114-113.5-48-114 48-48 114z"/><glyph glyph-name="uni04DF" unicode="ӟ" horiz-adv-x="948" d="M197 639L84 836q70 45 152 75 92 33 215 33 213 0 309-94 67-64 67-168 0-99-55-156-37-37-78-51 76-18 123-65 62-59 62-152 0-110-80-190-56-55-136-77T463-31q-142 0-250 41-85 33-164 96l125 195q56-49 113-74 68-28 141-28 67 0 107 22 40 23 40 70 0 42-43 61-43 17-106 17H315v200h84q70 0 111 17 43 20 43 61t-45 60q-37 16-92 16-60 0-121-25-56-23-98-59zm323 588q0 66 48 114t114 48 114-48 48-114-48-114-114-48-114 48-48 114zm-446 0q0 66 48 114t114 48 113.5-48 47.5-114-47.5-114-113.5-48-114 48-48 114z"/><glyph glyph-name="uni04E2" unicode="Ӣ" horiz-adv-x="1525" d="M150 1366h315V473l633 909h278V0h-315v895L428-16H150v1382zm206 176v189h795v-189H356z"/><glyph glyph-name="uni04E3" unicode="ӣ" horiz-adv-x="1187" d="M115 913h295V391l389 522h274V0H778v530L389 0H115v913zm90 199v184h778v-184H205z"/><glyph glyph-name="uni04E4" unicode="Ӥ" horiz-adv-x="1525" d="M150 1366h315V473l633 909h278V0h-315v895L428-16H150v1382zm235 295q0 66 48 114t114 48 114-48 48-114-48-114-114-48-114 48-48 114zm446 0q0 66 48 114t114 48 114-48 48-114-48-114-114-48-114 48-48 114z"/><glyph glyph-name="uni04E5" unicode="ӥ" horiz-adv-x="1187" d="M115 913h295V391l389 522h274V0H778v530L389 0H115v913zm540 314q0 66 48 114t114 48 114-48 48-114-48-114-114-48-114 48-48 114zm-446 0q0 66 48 114t114 48 113.5-48 47.5-114-47.5-114-113.5-48-114 48-48 114z"/><glyph glyph-name="uni04E6" unicode="Ӧ" horiz-adv-x="1658" d="M831 1397q324 0 529-199 100-97 156.5-229.5T1573 682q0-142-53-275t-160-237Q1152-31 831-31q-176 0-309 57.5T299 170q-100 94-156.5 226.5T86 678q0 145 58 284t153 234q84 84 216.5 142.5T831 1397zm-2-291q-182 0-299-117-120-116-120-309 0-185 125-307 118-113 292-113 186 0 303 117 119 115 119 305 0 98-34 177t-85 130q-54 52-132.5 84.5T829 1106zm-385 555q0 66 48 114t114 48 114-48 48-114-48-114-114-48-114 48-48 114zm447 0q0 66 48 114t114 48 113.5-48 47.5-114-47.5-114-113.5-48-114 48-48 114z"/><glyph glyph-name="uni04E7" unicode="ӧ" horiz-adv-x="1212" d="M1143 457q0-91-35-182t-102-158Q940 51 836.5 10T606-31 376 10 207 117q-67 67-102 158T70 457t35 182 102 158q66 66 169 106.5T606 944t230.5-40.5T1006 797q67-67 102-158t35-182zM606 694q-101 0-166-65-67-67-67-172t67-172q66-66 168-66 98 0 164 66 68 68 68 172t-68 172q-65 65-166 65zm62 533q0 66 47.5 114t113.5 48 114-48 48-114-48-114-114-48-113.5 48-47.5 114zm-447 0q0 66 48 114t114 48 114-48 48-114-48-114-114-48-114 48-48 114z"/><glyph glyph-name="uni04E8" unicode="Ө" horiz-adv-x="1658" d="M831 1397q324 0 529-199 100-97 156.5-229.5T1573 682q0-142-53-275t-160-237Q1152-31 831-31q-176 0-309 57.5T299 170q-100 94-156.5 226.5T86 678q0 145 58 284t153 234q84 84 216.5 142.5T831 1397zM430 817h799q-33 134-142 213-102 76-260 76-155 0-264-88-94-76-133-201zm801-266H426q37-135 135-209 103-82 270-82 164 0 265 78 104 80 135 213z"/><glyph glyph-name="uni04E9" unicode="ө" horiz-adv-x="1212" d="M1143 457q0-91-35-182t-102-158Q940 51 836.5 10T606-31 376 10 207 117q-67 67-102 158T70 457t35 182 102 158q66 66 169 106.5T606 944t230.5-40.5T1006 797q67-67 102-158t35-182zm-756 88h438q-22 74-73 117-57 45-146 45-102 0-162-60-39-39-57-102zm442-160H383q15-76 68-125 57-53 155-53 92 0 148 47 57 48 75 131z"/><glyph glyph-name="uni04EA" unicode="Ӫ" horiz-adv-x="1658" d="M831 1397q324 0 529-199 100-97 156.5-229.5T1573 682q0-142-53-275t-160-237Q1152-31 831-31q-176 0-309 57.5T299 170q-100 94-156.5 226.5T86 678q0 145 58 284t153 234q84 84 216.5 142.5T831 1397zM430 817h799q-33 134-142 213-102 76-260 76-155 0-264-88-94-76-133-201zm801-266H426q37-135 135-209 103-82 270-82 164 0 265 78 104 80 135 213zM444 1661q0 66 48 114t114 48 114-48 48-114-48-114-114-48-114 48-48 114zm447 0q0 66 48 114t114 48 113.5-48 47.5-114-47.5-114-113.5-48-114 48-48 114z"/><glyph glyph-name="uni04EB" unicode="ӫ" horiz-adv-x="1212" d="M1143 457q0-91-35-182t-102-158Q940 51 836.5 10T606-31 376 10 207 117q-67 67-102 158T70 457t35 182 102 158q66 66 169 106.5T606 944t230.5-40.5T1006 797q67-67 102-158t35-182zm-756 88h438q-22 74-73 117-57 45-146 45-102 0-162-60-39-39-57-102zm442-160H383q15-76 68-125 57-53 155-53 92 0 148 47 57 48 75 131zm-161 842q0 66 47.5 114t113.5 48 114-48 48-114-48-114-114-48-113.5 48-47.5 114zm-447 0q0 66 48 114t114 48 114-48 48-114-48-114-114-48-114 48-48 114z"/><glyph glyph-name="uni04EE" unicode="Ӯ" horiz-adv-x="1273" d="M8 1366h352l287-631 275 631h340L637 0H297l199 393zm223 176v189h795v-189H231z"/><glyph glyph-name="uni04EF" unicode="ӯ" horiz-adv-x="1198" d="M119-469l321 586L4 913h340l258-495 252 495h332L451-469H119zm74 1581v184h778v-184H193z"/><glyph glyph-name="uni04F0" unicode="Ӱ" horiz-adv-x="1273" d="M8 1366h352l287-631 275 631h340L637 0H297l199 393zm244 295q0 66 48 114t114 48 113.5-48 47.5-114-47.5-114-113.5-48-114 48-48 114zm446 0q0 66 48 114t114 48 114-48 48-114-48-114-114-48-114 48-48 114z"/><glyph glyph-name="uni04F1" unicode="ӱ" horiz-adv-x="1198" d="M119-469l321 586L4 913h340l258-495 252 495h332L451-469H119zm540 1696q0 66 48 114t114 48 114-48 48-114-48-114-114-48-114 48-48 114zm-446 0q0 66 48 114t114 48 114-48 48-114-48-114-114-48-114 48-48 114z"/><glyph glyph-name="uni04F2" unicode="Ӳ" horiz-adv-x="1273" d="M8 1366h352l287-631 275 631h340L637 0H297l199 393zm557 528l176-135-286-276-113 98zm381 0l178-135-286-276-115 98z"/><glyph glyph-name="uni04F3" unicode="ӳ" horiz-adv-x="1198" d="M119-469l321 586L4 913h340l258-495 252 495h332L451-469H119zm381 1923l168-135-275-277-106 99zm368-2l170-133-274-277-109 99z"/><glyph glyph-name="uni04F4" unicode="Ӵ" horiz-adv-x="1323" d="M858 0v545q-126-21-231-21-295 0-424 121-64 61-84.5 134T98 946v420h316v-356q0-33 1.5-52.5T431 902t42-58q56-45 199-45 98 0 186 16v551h316V0H858zM276 1661q0 66 48 114t114 48 114-48 48-114-48-114-114-48-114 48-48 114zm447 0q0 66 48 114t114 48 114-48 48-114-48-114-114-48-114 48-48 114z"/><glyph glyph-name="uni04F5" unicode="ӵ" horiz-adv-x="1060" d="M651 0v307q-91-22-184-22-208 0-301 88-84 80-84 235v305h291V649q0-67 37-100 36-31 118-31 67 0 123 19v376h295V0H651zm-59 1227q0 66 48 114t114 48 113.5-48 47.5-114-47.5-114-113.5-48-114 48-48 114zm-447 0q0 66 48 114t114 48 114-48 48-114-48-114-114-48-114 48-48 114z"/><glyph glyph-name="uni04F8" unicode="Ӹ" horiz-adv-x="1734" d="M1270 1366h315V0h-315v1366zM150 0v1366h315V834h188q252 0 375-115 115-108 115-303t-111-301q-52-49-128-76.5t-132-33T643 0H150zm315 580V254h139q113 0 164 37 59 38 59 127 0 39-13 70t-24 42.5-20 16.5q-47 33-164 33H465zm8 1081q0 66 48 114t114 48 114-48 48-114-48-114-114-48-114 48-48 114zm447 0q0 66 47.5 114t113.5 48 114-48 48-114-48-114-114-48-113.5 48-47.5 114z"/><glyph glyph-name="uni04F9" unicode="ӹ" horiz-adv-x="1439" d="M1034 913h291V0h-291v913zM410 600h202q162 0 248-86 76-76 76-209 0-145-82-225-51-49-113.5-64.5T602 0H115v913h295V600zm0-391h120q65 0 91 24 28 25 28 70 0 44-28 66-30 22-89 22H410V209zm346 1018q0 66 48 114t114 48 113.5-48 47.5-114-47.5-114-113.5-48-114 48-48 114zm-447 0q0 66 48 114t114 48 114-48 48-114-48-114-114-48-114 48-48 114z"/><glyph glyph-name="uni1E9E" unicode="ẞ" horiz-adv-x="1216" d="M461 0H150v942q0 213 135 342 118 113 309 113 190 0 299-80 150-110 158-322L856 766q130-45 203-135 71-91 71-230 0-96-44.5-178.5T973 86Q846-15 590-29v246q111 10 160 49 65 52 65 154 0 87-72 139-58 42-153 49v189l149 204q0 71-37 111-34 39-102 39-66 0-102-45-37-47-37-123V0z"/><glyph glyph-name="uni2010" unicode="‐" horiz-adv-x="729" d="M102 389v258h525V389H102z"/><glyph glyph-name="uni2011" unicode="‑" horiz-adv-x="729" d="M102 389v258h525V389H102z"/><glyph glyph-name="figuredash" unicode="‒" horiz-adv-x="1243" d="M143 578v241h957V578H143z"/><glyph glyph-name="endash" unicode="–" horiz-adv-x="1243" d="M143 397v242h957V397H143z"/><glyph glyph-name="emdash" unicode="—" horiz-adv-x="1789" d="M143 397v242h1504V397H143z"/><glyph glyph-name="afii00208" unicode="―" horiz-adv-x="1789" d="M143 397v242h1504V397H143z"/><glyph glyph-name="quoteleft" unicode="‘" horiz-adv-x="669" d="M580 1366L354 788 86 803l309 571z"/><glyph glyph-name="quoteright" unicode="’" horiz-adv-x="806" d="M86 803l225 577 271-14-312-571z"/><glyph glyph-name="quotesinglbase" unicode="‚" horiz-adv-x="806" d="M86-262l225 577 271-14-312-571z"/><glyph glyph-name="quotedblleft" unicode="“" horiz-adv-x="1095" d="M1006 1366L778 788l-268 15 311 571zm-426 0L354 788 86 803l309 571z"/><glyph glyph-name="quotedblright" unicode="”" horiz-adv-x="1255" d="M127 803l225 577 271-14-312-571zm424 0l227 577 269-14-312-571z"/><glyph glyph-name="quotedblbase" unicode="„" horiz-adv-x="1255" d="M106-262l226 577 270-14-311-571zm424 0l228 577 268-14-311-571z"/><glyph glyph-name="dagger" unicode="†" horiz-adv-x="1191" d="M461 1079v414h270v-414h322V842H731V-377H461V842H139v237h322z"/><glyph glyph-name="daggerdbl" unicode="‡" horiz-adv-x="1189" d="M461 1079v414h268v-414h322V842H729V373h322V137H729v-514H461v514H139v236h322v469H139v237h322z"/><glyph glyph-name="bullet" unicode="•" horiz-adv-x="2048" d="M737 696q0 118 84.5 202.5T1024 983t202.5-84.5T1311 696t-84-202-203-84-203 84-84 202z"/><glyph glyph-name="ellipsis" unicode="…" horiz-adv-x="1830" d="M129 156q0 78 54 132t132 54 132.5-54T502 156 447.5 23.5 315-31 183 23.5 129 156zm600 0q0 78 54 132t132 54 132.5-54 54.5-132-54.5-132.5T915-31 783 23.5 729 156zm600 0q0 78 54.5 132t132.5 54 132-54 54-132-54-132.5T1516-31t-132.5 54.5T1329 156z"/><glyph glyph-name="perthousand" unicode="‰" horiz-adv-x="2549" d="M379 4l801 1385 143-31L520-29zm41 1215q-73 0-117-48-45-45-45-118 0-74 45-119 43-47 117-47t117 47q45 45 45 119 0 73-45 118-44 48-117 48zm358-166q0-142-88-230-97-102-270-102T150 823q-89 89-89 230 0 140 89 229 97 102 270 102t270-102q88-88 88-229zm502-574q-74 0-117-47-45-45-45-119 0-73 45-118 44-48 117-48t117 48q45 45 45 118 0 74-45 119-43 47-117 47zm358-166q0-141-88-229-97-102-270-102T1010 84q-88 88-88 229 0 142 88 230 97 102 270 102t270-102q88-88 88-230zm492 166q-74 0-117-47-45-45-45-119 0-73 45-118 44-48 117-48t117 48q45 45 45 118 0 74-45 119-43 47-117 47zm358-166q0-141-88-229-97-102-270-102T1860 84q-88 88-88 229 0 142 88 230 97 102 270 102t270-102q88-88 88-230z"/><glyph glyph-name="guilsinglleft" unicode="‹" horiz-adv-x="667" d="M561 786L324 459l241-326L399 16 82 459l317 440z"/><glyph glyph-name="guilsinglright" unicode="›" horiz-adv-x="667" d="M344 459L106 786l162 113 318-440L268 16 102 133z"/><glyph glyph-name="fraction" unicode="⁄" horiz-adv-x="528" d="M-205 20l799 1369 139-48L-66-29z"/><glyph glyph-name="Euro" unicode="€" horiz-adv-x="1228" d="M1118 371V57Q975-31 758-31 637-31 527-.5T340 90 209.5 241 137 436H-41l74 185h82q-3 55 0 116H-41l74 185h104q42 170 160 288 187 187 516 187 185 0 346-80l-110-264q-111 67-254 67-125 0-213-55-81-53-109-143h541l-74-185H442q-8-54 2-116h457l-74-185H479q31-95 115-143 79-47 205-47 200 0 319 125z"/><glyph glyph-name="uni20B4" unicode="₴" horiz-adv-x="1228" d="M195 1262q72 48 186 90 131 45 287 45 91 0 165-18t134-76q90-86 90-209 0-94-62-168h152V727H854L711 598h436V399H524q-37-26-37-65 0-41 50-66 44-20 108-20 113 0 184 28 38 14 119 64l150-225q-86-64-201-103-133-43-311-43-180 0-287 74-109 76-109 203 0 84 52 153H76v199h317l144 129H76v199h614q43 40 43 98 0 49-37 78-34 28-104 28-82 0-160-38-51-23-96-60z"/><glyph glyph-name="uni20B6" unicode="₶" horiz-adv-x="1228" d="M678 1366q230 0 358-113 133-118 133-331 0-203-116-306-118-108-348-108H512V379h369V180H512V0H197v180H49v199h148v129H49v229h148v629h481zm-166-258V737h113q117 0 170 51 51 51 51 136t-51 133q-53 51-177 51H512z"/><glyph glyph-name="uni20B6" unicode="⃏" horiz-adv-x="1228" d="M678 1366q230 0 358-113 133-118 133-331 0-203-116-306-118-108-348-108H512V379h369V180H512V0H197v180H49v199h148v129H49v229h148v629h481zm-166-258V737h113q117 0 170 51 51 51 51 136t-51 133q-53 51-177 51H512z"/><glyph glyph-name="uni20B6" unicode="⃎" horiz-adv-x="1228" d="M678 1366q230 0 358-113 133-118 133-331 0-203-116-306-118-108-348-108H512V379h369V180H512V0H197v180H49v199h148v129H49v229h148v629h481zm-166-258V737h113q117 0 170 51 51 51 51 136t-51 133q-53 51-177 51H512z"/><glyph glyph-name="uni20B6" unicode="⃍" horiz-adv-x="1228" d="M678 1366q230 0 358-113 133-118 133-331 0-203-116-306-118-108-348-108H512V379h369V180H512V0H197v180H49v199h148v129H49v229h148v629h481zm-166-258V737h113q117 0 170 51 51 51 51 136t-51 133q-53 51-177 51H512z"/><glyph glyph-name="uni20B6" unicode="⃌" horiz-adv-x="1228" d="M678 1366q230 0 358-113 133-118 133-331 0-203-116-306-118-108-348-108H512V379h369V180H512V0H197v180H49v199h148v129H49v229h148v629h481zm-166-258V737h113q117 0 170 51 51 51 51 136t-51 133q-53 51-177 51H512z"/><glyph glyph-name="uni20B6" unicode="⃋" horiz-adv-x="1228" d="M678 1366q230 0 358-113 133-118 133-331 0-203-116-306-118-108-348-108H512V379h369V180H512V0H197v180H49v199h148v129H49v229h148v629h481zm-166-258V737h113q117 0 170 51 51 51 51 136t-51 133q-53 51-177 51H512z"/><glyph glyph-name="uni20B6" unicode="⃊" horiz-adv-x="1228" d="M678 1366q230 0 358-113 133-118 133-331 0-203-116-306-118-108-348-108H512V379h369V180H512V0H197v180H49v199h148v129H49v229h148v629h481zm-166-258V737h113q117 0 170 51 51 51 51 136t-51 133q-53 51-177 51H512z"/><glyph glyph-name="uni20B6" unicode="⃉" horiz-adv-x="1228" d="M678 1366q230 0 358-113 133-118 133-331 0-203-116-306-118-108-348-108H512V379h369V180H512V0H197v180H49v199h148v129H49v229h148v629h481zm-166-258V737h113q117 0 170 51 51 51 51 136t-51 133q-53 51-177 51H512z"/><glyph glyph-name="uni20B6" unicode="⃈" horiz-adv-x="1228" d="M678 1366q230 0 358-113 133-118 133-331 0-203-116-306-118-108-348-108H512V379h369V180H512V0H197v180H49v199h148v129H49v229h148v629h481zm-166-258V737h113q117 0 170 51 51 51 51 136t-51 133q-53 51-177 51H512z"/><glyph glyph-name="uni20B6" unicode="⃇" horiz-adv-x="1228" d="M678 1366q230 0 358-113 133-118 133-331 0-203-116-306-118-108-348-108H512V379h369V180H512V0H197v180H49v199h148v129H49v229h148v629h481zm-166-258V737h113q117 0 170 51 51 51 51 136t-51 133q-53 51-177 51H512z"/><glyph glyph-name="uni20B6" unicode="⃆" horiz-adv-x="1228" d="M678 1366q230 0 358-113 133-118 133-331 0-203-116-306-118-108-348-108H512V379h369V180H512V0H197v180H49v199h148v129H49v229h148v629h481zm-166-258V737h113q117 0 170 51 51 51 51 136t-51 133q-53 51-177 51H512z"/><glyph glyph-name="uni20B6" unicode="⃅" horiz-adv-x="1228" d="M678 1366q230 0 358-113 133-118 133-331 0-203-116-306-118-108-348-108H512V379h369V180H512V0H197v180H49v199h148v129H49v229h148v629h481zm-166-258V737h113q117 0 170 51 51 51 51 136t-51 133q-53 51-177 51H512z"/><glyph glyph-name="uni20B6" unicode="⃄" horiz-adv-x="1228" d="M678 1366q230 0 358-113 133-118 133-331 0-203-116-306-118-108-348-108H512V379h369V180H512V0H197v180H49v199h148v129H49v229h148v629h481zm-166-258V737h113q117 0 170 51 51 51 51 136t-51 133q-53 51-177 51H512z"/><glyph glyph-name="uni20B6" unicode="⃃" horiz-adv-x="1228" d="M678 1366q230 0 358-113 133-118 133-331 0-203-116-306-118-108-348-108H512V379h369V180H512V0H197v180H49v199h148v129H49v229h148v629h481zm-166-258V737h113q117 0 170 51 51 51 51 136t-51 133q-53 51-177 51H512z"/><glyph glyph-name="uni20B6" unicode="⃂" horiz-adv-x="1228" d="M678 1366q230 0 358-113 133-118 133-331 0-203-116-306-118-108-348-108H512V379h369V180H512V0H197v180H49v199h148v129H49v229h148v629h481zm-166-258V737h113q117 0 170 51 51 51 51 136t-51 133q-53 51-177 51H512z"/><glyph glyph-name="uni20B6" unicode="⃁" horiz-adv-x="1228" d="M678 1366q230 0 358-113 133-118 133-331 0-203-116-306-118-108-348-108H512V379h369V180H512V0H197v180H49v199h148v129H49v229h148v629h481zm-166-258V737h113q117 0 170 51 51 51 51 136t-51 133q-53 51-177 51H512z"/><glyph glyph-name="uni20B6" unicode="⃀" horiz-adv-x="1228" d="M678 1366q230 0 358-113 133-118 133-331 0-203-116-306-118-108-348-108H512V379h369V180H512V0H197v180H49v199h148v129H49v229h148v629h481zm-166-258V737h113q117 0 170 51 51 51 51 136t-51 133q-53 51-177 51H512z"/><glyph glyph-name="uni20B6" unicode="₿" horiz-adv-x="1228" d="M678 1366q230 0 358-113 133-118 133-331 0-203-116-306-118-108-348-108H512V379h369V180H512V0H197v180H49v199h148v129H49v229h148v629h481zm-166-258V737h113q117 0 170 51 51 51 51 136t-51 133q-53 51-177 51H512z"/><glyph glyph-name="uni20B6" unicode="₾" horiz-adv-x="1228" d="M678 1366q230 0 358-113 133-118 133-331 0-203-116-306-118-108-348-108H512V379h369V180H512V0H197v180H49v199h148v129H49v229h148v629h481zm-166-258V737h113q117 0 170 51 51 51 51 136t-51 133q-53 51-177 51H512z"/><glyph glyph-name="uni20B6" unicode="₽" horiz-adv-x="1228" d="M678 1366q230 0 358-113 133-118 133-331 0-203-116-306-118-108-348-108H512V379h369V180H512V0H197v180H49v199h148v129H49v229h148v629h481zm-166-258V737h113q117 0 170 51 51 51 51 136t-51 133q-53 51-177 51H512z"/><glyph glyph-name="uni20B6" unicode="₼" horiz-adv-x="1228" d="M678 1366q230 0 358-113 133-118 133-331 0-203-116-306-118-108-348-108H512V379h369V180H512V0H197v180H49v199h148v129H49v229h148v629h481zm-166-258V737h113q117 0 170 51 51 51 51 136t-51 133q-53 51-177 51H512z"/><glyph glyph-name="uni20B6" unicode="₻" horiz-adv-x="1228" d="M678 1366q230 0 358-113 133-118 133-331 0-203-116-306-118-108-348-108H512V379h369V180H512V0H197v180H49v199h148v129H49v229h148v629h481zm-166-258V737h113q117 0 170 51 51 51 51 136t-51 133q-53 51-177 51H512z"/><glyph glyph-name="uni20B6" unicode="₺" horiz-adv-x="1228" d="M678 1366q230 0 358-113 133-118 133-331 0-203-116-306-118-108-348-108H512V379h369V180H512V0H197v180H49v199h148v129H49v229h148v629h481zm-166-258V737h113q117 0 170 51 51 51 51 136t-51 133q-53 51-177 51H512z"/><glyph glyph-name="uni20B6" unicode="₹" horiz-adv-x="1228" d="M678 1366q230 0 358-113 133-118 133-331 0-203-116-306-118-108-348-108H512V379h369V180H512V0H197v180H49v199h148v129H49v229h148v629h481zm-166-258V737h113q117 0 170 51 51 51 51 136t-51 133q-53 51-177 51H512z"/><glyph glyph-name="uni20B6" unicode="₷" horiz-adv-x="1228" d="M678 1366q230 0 358-113 133-118 133-331 0-203-116-306-118-108-348-108H512V379h369V180H512V0H197v180H49v199h148v129H49v229h148v629h481zm-166-258V737h113q117 0 170 51 51 51 51 136t-51 133q-53 51-177 51H512z"/><glyph glyph-name="uni20B8" unicode="₸" horiz-adv-x="1228" d="M1069 854H770V0H455v854H160v246h909V854zm0 328H160v184h909v-184z"/><glyph glyph-name="afii61352" unicode="№" horiz-adv-x="2357" d="M1612 399v185h614V399h-614zM461 0H150v1366h270l686-877v877h311V0h-270L461 881V0zm1810 1040q0-133-90-223-98-98-262-98t-262 98q-90 90-90 223 0 138 90 228 98 98 262 98t262-98q90-90 90-228zm-352 154q-64 0-107-43-40-40-40-109 0-70 40-110 41-41 107-41 65 0 106 41t41 110q0 68-41 109-43 43-106 43z"/><glyph glyph-name="uni2117" unicode="℗" horiz-adv-x="1558" d="M514 1083h291q45 0 78-3.5t81.5-23 82.5-55.5q67-69 67-182 0-111-63-178-44-45-105.5-59.5T807 567h-72V307H514v776zm221-168V735h31q72 0 102 25 29 23 29 67 0 43-29 66-13 11-33 16t-32 5.5-39 .5h-29zm43 355q-99 0-207-43.5T387 1110q-78-76-127-190.5T211 684q0-122 49-237.5T387 256q76-73 184-116.5T778 96t207 43.5T1169 256q78 75 127.5 190.5T1346 684q0 120-49.5 235T1169 1110q-76 73-184 116.5T778 1270zm711-588q0-145-55-277t-156-233q-95-94-223-148.5T778-31 502 23.5 279 172Q178 273 123 405T68 682q0 148 55 279.5T279 1194q96 94 223 148.5t276 54.5 277-54.5 223-148.5q101-101 156-232.5t55-279.5z"/><glyph glyph-name="trademark" unicode="™" horiz-adv-x="1568" d="M543 1198H375V588H182v610H16v168h527v-168zm225-610H575l134 778h170l168-428 180 428h168l121-778h-193l-57 426-179-426h-81l-175 426z"/><glyph glyph-name="partialdiff" unicode="∂" horiz-adv-x="1148" d="M178 1161l35 225q175-12 343.5-71.5T844 1143q69-64 117.5-143.5t73-159T1069 694t10-131q0-132-40-248.5T924 117Q790-25 565-25q-216 0-352 131Q70 246 70 453q0 196 137 329 120 117 297 117 144 0 252-82-70 165-217 246-70 39-168 65.5T178 1161zm397-936q81 0 140 56 69 69 69 168 0 51-19.5 95.5T713 616q-56 50-146 50-85 0-143-52-72-66-72-165 0-96 66-162 62-62 157-62z"/><glyph glyph-name="product" unicode="∏" horiz-adv-x="1511" d="M82 1298v238h1348v-238h-168V-274h168v-238H831v238h164v1572H516V-274h164v-238H82v238h168v1572H82z"/><glyph glyph-name="summation" unicode="∑" horiz-adv-x="1376" d="M45 1536h1227v-506h-240l-26 268H344l512-751-512-821h680l16 274h250v-512H45v266l498 793-498 723v266z"/><glyph glyph-name="minus" unicode="−" d="M68 578v237h888V578H68z"/><glyph glyph-name="uni2215" unicode="∕" horiz-adv-x="1433" d="M31-377l1079 1911 231-41L262-418z"/><glyph glyph-name="uni2219" unicode="∙" horiz-adv-x="524" d="M41 684q0 94 63.5 157.5T262 905t157.5-63.5T483 684t-63.5-157.5T262 463t-157.5 63.5T41 684z"/><glyph glyph-name="radical" unicode="√" horiz-adv-x="1368" d="M774 1694h594v-234H999L653 0H313L193 557H0v234h406l22-107q3-14 9-40t9.5-42.5 8-46T463 492q12-120 12-179h23q15 195 34 305 25 155 60 297z"/><glyph glyph-name="infinity" unicode="∞" horiz-adv-x="1380" d="M967 801q-52 0-93-35-34-27-61-72 31-41 51-59 50-45 103-45t84 31q30 30 30 79 0 43-30 70-34 31-84 31zM690 528q-50-68-129-114-92-52-194-52-131 0-222 84Q41 546 41 702q0 142 96 234 95 92 242 92 93 0 176-49 73-43 135-115 62 72 135 115 83 49 176 49 147 0 242-92 96-92 96-234 0-156-104-256-87-84-221-84-92 0-195 56-77 42-129 110zM414 801q-50 0-84-31-31-28-31-70 0-48 31-79t84-31q49 0 102 45 36 33 51 59-27 45-61 72-41 35-92 35z"/><glyph glyph-name="integral" unicode="∫" horiz-adv-x="1038" d="M651 1143V-63q0-78-4.5-130T619-310.5 553-420q-30-31-65-50.5t-73-28-66.5-11T283-512q-90 0-174 20l47 230q65-21 112-21 59 0 88 35 6 7 10.5 15t8 15.5 5.5 18 3 16.5 1.5 17.5.5 16.5v1202q0 134 19 232t79 161q85 90 265 90 90 0 182-20l-49-230q-54 21-105 21-59 0-90-31-35-35-35-133z"/><glyph glyph-name="approxequal" unicode="≈" d="M526 348l-84 31q-96 35-133 35-57 0-94-37-32-29-59-90L12 377q19 54 51.5 112t67.5 93q77 80 193 80 13 0 25.5-1t25.5-3.5 22-4.5 24-6.5 21-6.5 24-8.5 23-8.5l89-33q96-33 135-33 47 0 84 27 36 26 65 82l148-84q-44-110-119-189-81-84-197-84-10 0-20 .5t-20.5 2-18 3-19 4.5-17 4.5-19 6-17 5.5-19 6.5T526 348zm0 412l-84 31q-93 34-133 34-57 0-94-37-32-29-59-90L12 788q52 138 119 205 80 80 193 80 9 0 18.5-.5t17-1.5 18-3 16-3 16.5-4 15-4.5 16.5-5.5 15-5 16.5-6 16-6l89-33q93-32 135-32 48 0 84 26t65 82l148-84q-20-50-53-101.5T891 805q-81-84-197-84-10 0-20 .5t-20.5 2-18 3-19 4.5-17 4.5-19 6-17 5.5-19 6.5T526 760z"/><glyph glyph-name="notequal" unicode="≠" d="M68 750v225h475l106 217h203L748 975h206V750H641l-68-144h381V381H469L365 168H162l102 213H68v225h301l69 144H68z"/><glyph glyph-name="lessequal" unicode="≤" d="M68 938l888 424v-240L332 829l624-278V309L68 723v215zm0-688h888V16H68v234z"/><glyph glyph-name="greaterequal" unicode="≥" d="M956 938V723L68 309v242l624 278-624 293v240zm0-688V16H68v234h888z"/><glyph glyph-name="dotmath" unicode="⋅" horiz-adv-x="524" d="M41 684q0 94 63.5 157.5T262 905t157.5-63.5T483 684t-63.5-157.5T262 463t-157.5 63.5T41 684z"/><glyph glyph-name="lozenge" unicode="◊" horiz-adv-x="1433" d="M184 684l533 737 532-737L717-53zm764 0l-231 317-232-317 232-317z"/><glyph glyph-name="openbullet" unicode="◦" horiz-adv-x="1028" d="M358 1055q0-62 46-107t110-45 110 45 46 107-46 106.5-110 44.5-110-44.5-46-106.5zm-159 0q0 131 91 221t224 90 224-90 91-221-91-221.5T514 743t-224 90.5-91 221.5z"/><glyph glyph-name="uniF400" unicode="" horiz-adv-x="4" d="M-414 1464l193-133-311-276-134 98z"/><glyph glyph-name="uniF401" unicode="" horiz-adv-x="4" d="M-451 1894l195-147-336-264-133 108z"/><glyph glyph-name="uniF406" unicode="" d="M668 1790h196q-15-136-94-215-90-90-258-90t-258 90q-79 79-94 215h196q6-49 39-86 40-43 117-43t117 43q33 37 39 86z"/><glyph glyph-name="uniF407" unicode="" d="M528-94l205-90-229-299-164 82z"/><glyph glyph-name="uniF408" unicode="" d="M256 1487l-131 145 385 287 387-287-135-145-252 190z"/><glyph glyph-name="uniF409" unicode="" d="M246-508l114 406 275-33-201-397z"/><glyph glyph-name="uniF40A" unicode="" d="M246 967l143 426 266-62-229-405z"/><glyph glyph-name="uniF40B" unicode="" d="M338 1669q0 73 50 123.5t124 50.5 124-50.5 50-123.5-50-123.5-124-50.5-124 50.5-50 123.5z"/><glyph glyph-name="uniF40C" unicode="" d="M750 1694q0-79-56-135-69-66-182-66t-182 66q-56 56-56 135t56 135q68 65 182 65t182-65q56-56 56-135zm-238 80q-45 0-70-25-24-24-24-55 0-32 24-56t70-24 70 24 24 56q0 31-24 55-25 25-70 25z"/><glyph glyph-name="uniF40D" unicode="" d="M745 1776l146-103q-34-67-86-119-63-63-146-63-45 0-127 33l-83 32q-63 23-76 23-62 0-94-80l-146 103q34 75 76 120 59 62 149 62 50 0 123-29l82-33q4-1 22.5-9t32.5-11.5 29-3.5q66 0 98 78z"/><glyph glyph-name="uniF40E" unicode="" d="M770-195l-37-157q-59-35-135-35-90 0-139 49-47 47-47 115 0 63 43 125 35 49 88 98h135q-43-43-55-57-39-45-39-90 0-37 24-58 23-20 60-20 47 0 102 30z"/><glyph glyph-name="uniF4C6" unicode="" horiz-adv-x="1323" d="M858 1366h316V-141q0-49-3.5-84t-23-84.5T1092-393q-48-47-113-61.5T829-469q-98 0-172 20v238q31-16 78-16 66 0 94 30 29 31 29 117v625q-126-21-231-21-295 0-424 121-64 61-84.5 134T98 946v420h316v-356q0-33 1.5-52.5T431 902t42-58q56-45 199-45 98 0 186 16v551z"/><glyph glyph-name="uniF4C7" unicode="" horiz-adv-x="1060" d="M651 913h295V-102q0-201-76-281-81-86-258-86-73 0-163 20v234q42-12 75-12 60 0 92 32 16 16 24.5 45t9.5 49.5 1 55.5v352q-91-22-184-22-208 0-301 88-84 80-84 235v305h291V649q0-67 37-100 36-31 118-31 67 0 123 19v376z"/><glyph glyph-name="uniF4CC" unicode="" horiz-adv-x="1273" d="M8 1366h352l287-631 275 631h340L637 0H297l199 393zm760 528l195-147-336-264-133 108z"/><glyph glyph-name="uniF4CD" unicode="" horiz-adv-x="1198" d="M119-469l321 586L4 913h340l258-495 252 495h332L451-469H119zm606 1933l193-133-312-276-133 98z"/><glyph glyph-name="dollar.fitted" unicode="" horiz-adv-x="1038" d="M457 1587h184v-207q168-11 311-131l-137-219q-106 96-223 96-87 0-129-39-41-36-41-86 0-48 39-79 15-13 34.5-23t54-24 48.5-21l115-49q135-60 192-117 96-99 96-252 0-186-112-305Q792 28 641 4v-233H457V-4Q327 2 211 63 105 119 27 203l151 225q65-65 133-106 90-56 191-56 87 0 137 43 49 42 49 105 0 68-61 110-12 8-27.5 16T573 552.5 532 568t-47 18l-71 28q-137 55-207 125-92 96-92 226 0 90 30.5 169t85.5 134q90 90 226 112v207z"/><glyph glyph-name="Euro.fitted" unicode="" horiz-adv-x="1306" d="M1196 371V57q-143-88-360-88Q715-31 605-.5T418 90 287.5 241 215 436H37l74 185h82q-3 55 0 116H37l74 185h104q42 170 160 288 187 187 516 187 185 0 346-80l-111-264q-111 67-254 67-125 0-213-55-80-53-108-143h541l-74-185H520q-8-54 2-116h457l-74-185H557q31-95 115-143 79-47 205-47 200 0 319 125z"/><glyph glyph-name="cent.fitted" unicode="" horiz-adv-x="798" d="M428 1352h184v-193q71-6 129-39V848q-72 78-176 78-44 0-89.5-17.5T397 860q-69-66-69-176 0-111 69-176 30-27 75-42t89-15q112 0 180 75V252q-67-30-129-35V27H428v182q-155 20-266 129Q25 472 25 674q0 219 141 360 105 105 262 133v185z"/><glyph glyph-name="sterling.fitted" unicode="" horiz-adv-x="1245" d="M319 508H90v188h139q-61 104-61 234 0 197 129 323 145 142 385 142 232 0 358-123 61-59 94-149t33-189q0-33-2-49H852q0 141-51 194-54 54-133 54-78 0-129-48-66-62-66-163 0-86 68-226h305V508H590q16-58 16-96 0-51-20-121l119-39q112-37 169-37 53 0 80 29 23 23 31 69l201-24q-8-63-35.5-129T1085 53q-80-84-211-84-94 0-235 47l-80 27q-89 29-156 29T303 45q-27-20-39-55L51 8q14 59 44 118.5t67 96.5q72 72 170 88 16 54 16 95 0 53-29 102z"/><glyph glyph-name="yen.fitted" unicode="" horiz-adv-x="1267" d="M432 711H145v198h168L39 1366h356l240-434 233 434h361L946 909h176V711H823l-47-72v-57h346V383H776V0H477v383H145v199h332v57z"/><glyph glyph-name="florin.fitted" unicode="" horiz-adv-x="1177" d="M410 242l88 487H358l31 184h141l41 236q13 73 45.5 146t77.5 120q96 101 262 101 116 0 203-41l-47-252q-52 34-119 34-55 0-88-30-43-40-61-156l-27-158h209l-33-184H784l-98-549q-10-51-16.5-83T647 7.5 613.5-91t-46-87.5T504-258Q377-377 143-377q-57 0-125 15l48 262q42-11 84-11 106 0 157 58 63 70 103 295z"/><glyph glyph-name="uni20B4.fitted" unicode="" horiz-adv-x="1161" d="M162 1262q72 48 186 90 131 45 287 45 91 0 165-18t134-76q90-86 90-209 0-95-61-168h151V727H821L678 598h436V399H492q-37-26-37-65 0-42 49-66 44-20 108-20 114 0 185 28 36 13 118 64l150-225Q979 51 864 12 731-31 553-31q-180 0-287 74-108 76-108 203 0 86 51 153H43v199h317l144 129H43v199h614q43 40 43 98 0 50-36 78-34 28-105 28-82 0-160-38-51-23-96-60z"/><glyph glyph-name="uni20B6.fitted" unicode="" horiz-adv-x="1200" d="M678 1366q230 0 358-113 133-118 133-331 0-203-116-306-118-108-348-108H512V379h369V180H512V0H197v180H49v199h148v129H49v229h148v629h481zm-166-258V737h113q117 0 170 51 51 51 51 136t-51 133q-53 51-177 51H512z"/><glyph glyph-name="uni20B8.fitted" unicode="" horiz-adv-x="970" d="M940 854H641V0H326v854H31v246h909V854zm0 328H31v184h909v-184z"/><glyph glyph-name="numbersign.fitted" unicode="" horiz-adv-x="1292" d="M985 604h209l-35-227H950L889 0H627l61 377H506L444 0H182l62 377H37l37 227h205l30 189H104l35 225h205l57 348h263l-58-348h182l58 348h262l-57-348h206l-34-225h-207zm-262 0l31 189H571l-30-189h182z"/><glyph glyph-name="uniF639" unicode="" horiz-adv-x="1241" d="M1182 682q0-179-49.5-327T985 111Q839-31 618-31q-216 0-362 142-98 96-147.5 244T59 682q0 181 49.5 329.5T256 1255q146 142 362 142 221 0 367-142 98-95 147.5-243.5T1182 682zm-561 444q-73 0-127-51-46-45-73.5-125T386 808t-7-124q0-107 25.5-218.5T494 291q54-51 127-51t127 51q44 43 71.5 121t35 142.5T862 684q0 63-6.5 124t-34 141.5T748 1075q-54 51-127 51z"/><glyph glyph-name="uniF63A" unicode="" horiz-adv-x="1163" d="M1094 266V0H49l410 446q149 166 223 279 82 130 82 231 0 86-53 136-41 38-125 38-79 0-125-49-27-29-42.5-77.5T403 913H88q8 94 44.5 186.5T229 1255q134 142 377 142 221 0 355-129 126-126 126-328 0-87-25-158t-77-143q-62-86-219-236L623 266h471z"/><glyph glyph-name="uniF63B" unicode="" horiz-adv-x="1155" d="M393 956H90q9 87 45.5 171t89.5 139q124 129 346 129 238 0 359-121 104-100 104-279 0-111-55-186-41-58-102-86 100-35 155-111 30-40 47-99t17-116q0-83-34.5-165.5T958 86Q879 14 790.5-9.5T598-33Q480-33 381-3.5T199 109Q68 244 47 446h315q3-41 21-83.5t45-69.5q55-55 152-55 87 0 137 47 55 52 55 139 0 83-59 131-54 43-168 43h-25v217h19q90 0 137 39 51 44 51 123 0 68-45 110-45 41-117 41-78 0-123-45-45-48-49-127z"/><glyph glyph-name="uniF63C" unicode="" horiz-adv-x="1204" d="M989 1366V508h164V258H989V0H686v258H18v180l603 928h368zM350 508h336v530z"/><glyph glyph-name="uniF63D" unicode="" horiz-adv-x="1116" d="M969 1366v-266H508l-37-182q58 10 113 10 218 0 348-133 125-125 125-330 0-213-139-352Q833 29 730.5-1T504-31Q384-31 274.5-1T49 119l72 293q64-71 131-113 91-59 207-59 125 0 194 55 80 61 80 172 0 99-69 160-81 71-228 71-148 0-278-71l139 739h672z"/><glyph glyph-name="uniF63E" unicode="" horiz-adv-x="1200" d="M578 1397l337-35-360-449q67 23 143 23 211 0 338-131 119-124 119-316 0-103-32.5-199.5T1026 123Q883-31 606-31q-58 0-105.5 5T391-6.5t-120.5 49T164 129Q45 256 45 461q0 78 16.5 149.5T112 749t67 117.5T264 985zm18-1170q97 0 164 62 71 67 71 180 0 104-71 168-65 57-164 57-104 0-166-59-70-65-70-174 0-105 70-170 67-64 166-64z"/><glyph glyph-name="uniF63F" unicode="" horiz-adv-x="1183" d="M72 41l618 1059H88v266h1086L365-31z"/><glyph glyph-name="uniF640" unicode="" horiz-adv-x="1128" d="M561-31q-77 0-127.5 5T314 6 188 84Q57 202 57 381q0 135 93 233 70 73 169 103-71 28-124 84-84 87-84 217 0 154 100 254 123 125 354 125 227 0 350-125 101-101 101-254 0-130-84-217-53-55-125-84 101-31 170-103 92-96 92-233 0-179-131-297-81-73-168-94T561-31zm2 1194q-71 0-121-45-51-48-51-117t51-116q52-45 121-45 71 0 119 45 51 48 51 116t-51 119q-50 43-119 43zm-4-573q-80 0-129-49-24-24-38.5-61.5T377 406q0-88 53-138 52-49 133-49t133 49q54 51 54 140 0 82-54 133-49 49-137 49z"/><glyph glyph-name="uniF641" unicode="" horiz-adv-x="1202" d="M625-31L287 4l360 447q-71-21-137-21-107 0-196 34t-148 93Q47 676 47 887q0 217 133 356 147 154 428 154 261 0 410-137 59-55 99-142.5t40-204.5q0-141-61-278-49-105-160-254zm-19 1170q-99 0-164-62-71-66-71-172 0-114 69-176 63-57 166-57 100 0 166 59 70 66 70 180 0 99-70 166-66 62-166 62z"/><glyph glyph-name="uniF6BA" unicode="" horiz-adv-x="729" d="M102 569v258h525V569H102z"/><glyph glyph-name="uniF6BB" unicode="" horiz-adv-x="1243" d="M143 578v241h957V578H143z"/><glyph glyph-name="uniF6BC" unicode="" horiz-adv-x="1789" d="M143 578v241h1504V578H143z"/><glyph glyph-name="uniF6C3" unicode="" d="M287-487l114 385 275-33-201-377z"/><glyph glyph-name="uniF6C9" unicode="" d="M625 1894l194-147-336-264-133 108z"/><glyph glyph-name="uniF6CA" unicode="" d="M510 1729l252 190 135-143-387-289-385 289 131 143z"/><glyph glyph-name="uniF6CB" unicode="" d="M127 1661q0 66 48 114t114 48 114-48 48-114-48-114-114-48-114 48-48 114zm446 0q0 66 48 114t114 48 114-48 48-114-48-114-114-48-114 48-48 114z"/><glyph glyph-name="uniF6CE" unicode="" d="M543 1483l-336 264 196 147 273-303z"/><glyph glyph-name="uniF6CF" unicode="" d="M422 1894l176-135-287-276-112 98zm381 0l178-135-287-276-114 98z"/><glyph glyph-name="uniF6D0" unicode="" d="M115 1542v189h794v-189H115z"/><glyph glyph-name="uniF6D1" unicode="" d="M700 1817l218-93q-49-116-156-184-95-57-252-57-155 0-250 57-107 68-156 184l218 93q26-69 67-99 47-35 125-35 75 0 121 35 46 37 65 99z"/><glyph glyph-name="uniF6D4" unicode="" d="M678 1362l205-80q-38-114-131-174-87-57-240-57t-240 57q-93 60-131 174l205 80q12-61 53-94 43-37 113-37t113 37q41 33 53 94z"/><glyph glyph-name="uniF6DC" unicode="" horiz-adv-x="630" d="M231 0v1100H37v266h510V0H231z"/><glyph glyph-name="uniF6DE" unicode="" horiz-adv-x="1341" d="M106 397v242h1129V397H106z"/><glyph glyph-name="nbspace" horiz-adv-x="477"/><glyph glyph-name="hyphenminus" horiz-adv-x="729" d="M102 389v258h525V389H102z"/><glyph glyph-name="dotlessi1" horiz-adv-x="565" d="M135 913h295V0H135v913z"/></font>
</defs>
</svg>
