<svg xmlns="http://www.w3.org/2000/svg"><defs><font id="FuturaPT-Light" horiz-adv-x="1024"><font-face font-family="Futura PT Light" font-weight="300" units-per-em="2048" panose-1="2 11 4 2 2 2 4 2 3 3" ascent="1563" descent="-485" x-height="836" cap-height="1366" bbox="-610 -512 2085 1843" underline-thickness="102" underline-position="-204" unicode-range="U+0020-FB02"/><glyph glyph-name="afii10017.var.accented" unicode="А`" horiz-adv-x="1200" d="M1073 0L891 449H309L127 0H29l575 1407L1171 0h-98zM342 530h516l-256 648zm393 1219l103-51-275-258-65 37z"/><glyph glyph-name="afii10022.var.accented" unicode="Е`" horiz-adv-x="950" d="M840 1366v-82H274V788h553v-81H274V82h566V0H184v1366h656zm-230 383l103-51-275-258-65 37z"/><glyph glyph-name="afii10026.var.accented" unicode="И`" horiz-adv-x="1433" d="M1159 0v1139L184-35v1401h90V207l975 1173V0h-90zM852 1749l102-51-274-258-66 37z"/><glyph glyph-name="afii10032.var.accented" unicode="О`" horiz-adv-x="1638" d="M819 1384q196 0 359-93.5t256.5-255T1528 680q0-145-55-275t-149.5-224-226-149T819-23 540.5 32 315 181 166 405t-55 275 55 275.5T315 1180t225.5 149 278.5 55zm0-1325q130 0 244.5 48.5T1259 239t128 197.5 47 243.5q0 173-79.5 315.5t-221 225T819 1303t-314-82.5-220.5-225T205 680q0-172 79.5-314T505 141.5 819 59zm135 1690l103-51-275-258-65 37z"/><glyph glyph-name="afii10037.var.accented" unicode="У`" horiz-adv-x="1126" d="M29 1366h102l473-885 400 885h94L473 0h-94l174 381zm669 383l103-51-275-258-65 37z"/><glyph glyph-name="afii10045.var.accented" unicode="Ы`" horiz-adv-x="1413" d="M184 0v1366h90V778h238q41 0 78.5-2.5t87-12 90-25 82-44.5 69.5-67 46-95.5T983 403q0-63-15-120.5T919 173t-84.5-90T709 22.5 541 0H184zm90 696V82h230q43 0 70 1.5t72.5 9 85 27.5 71.5 52q86 82 86 231 0 180-141 252-37 19-86 28.5t-82 11-93 1.5H274zm865 670h90V0h-90v1366zm-297 383l102-51-274-258-66 37z"/><glyph glyph-name="afii10047.var.accented" unicode="Э`" horiz-adv-x="1388" d="M111 147v119q97-106 220-156.5T569 59q87 0 174 25.5T908 162t138.5 123 97.5 169.5 40 209.5H274v81h906q-11 119-64.5 223.5t-135 177.5-188 115-221.5 42q-132 0-252-56.5T111 1087v119q24 23 54.5 45.5T255 1308t141.5 55 172.5 21q145 0 276-55t226-149 151-224.5 56-275.5q0-141-54.5-270t-148-224.5-227-152T565-23q-119 0-237 41.5T111 147zm637 1602l102-51-275-258-65 37z"/><glyph glyph-name="afii10048.var.accented" unicode="Ю`" horiz-adv-x="1966" d="M274 762h209q31 270 225.5 446t458.5 176q143 0 271-55t219.5-149T1802 955.5t53-275.5-53.5-275-145-224-219-149T1167-23q-144 0-272 55.5T676.5 183 533 407.5 479 680H274V0h-90v1366h90V762zm893-703q168 0 304.5 82.5t213 224.5 76.5 314-76.5 314.5-213 225.5-304.5 83-304.5-83-213-225.5T573 680t76.5-314 213-224.5T1167 59zm-49 1690l103-51-275-258-65 37z"/><glyph glyph-name="afii10049.var.accented" unicode="Я`" horiz-adv-x="962" d="M70 0l413 612q-74 3-153 31-20 7-40 17.5T235 699t-60 63.5-44.5 95.5T111 989q0 64 17 119.5t45 94.5 56.5 65.5T289 1313q90 53 256 53h233V0h-90v612H586L176 0H70zm618 1284H545q-120 0-187-33-72-34-112.5-103.5T205 989q0-143 90-223 80-72 237-72h156v590zm-72 465l103-51-275-258-65 37z"/><glyph glyph-name="afii10023.var.accented" unicode="Ё`" horiz-adv-x="950" d="M840 1366v-82H274V788h553v-81H274V82h566V0H184v1366h656zm-629 231q0 32 23 55t55 23 55-23 23-55-23-54.5-55-22.5-55 22.5-23 54.5zm442 0q0 32 23 55t55 23 55-23 23-55-23-54.5-55-22.5-55 22.5-23 54.5zm-75 152l90-51-275-258-53 37z"/><glyph glyph-name="afii10065.var.accented" unicode="а`" horiz-adv-x="1056" d="M827 690v146h82V0h-82v150Q768 60 681 18.5T502-23q-82 0-156 31T216 94.5 127 234 94 418q0 194 112.5 315T502 854q209 0 325-164zm-321 86q-133 0-229.5-95T180 424q0-96 37-179t113.5-136.5T508 55q76 0 138.5 30.5t102 82 61 117.5T831 424q0 89-30 159t-79 110.5T617.5 755 506 776zm135 494l88-51-215-263-61 33z"/><glyph glyph-name="afii10070.var.accented" unicode="е`" horiz-adv-x="989" d="M895 408H180q0-155 98-254t234-99q98 0 174 52t117 139l69-41q-21-40-50-76t-72.5-72.5-107-58T506-23q-190 0-301 124T94 414q0 105 34.5 190.5t92 139 129.5 82T500 854q171 0 283-124.5T895 408zm-709 77h623q-15 126-100.5 208.5T500 776q-124 0-210-83T186 485zm420 785l88-51-215-263-61 33z"/><glyph glyph-name="afii10074.var.accented" unicode="и`" horiz-adv-x="970" d="M147 836h82V166l594 717V0h-82v666L147-51v887zm451 434l88-51-215-263-61 33z"/><glyph glyph-name="afii10080.var.accented" unicode="о`" horiz-adv-x="1064" d="M532 854q186 0 312.5-126T971 416 844.5 103.5 532-23 220 103.5 94 416t126 312 312 126zm0-799q150 0 251.5 104T885 416 783.5 672.5 532 776 281 672.5 180 416t101-257T532 55zm113 1215l88-51-215-263-61 33z"/><glyph glyph-name="afii10085.var.accented" unicode="у`" horiz-adv-x="876" d="M217-471L414-14 16 836h95L461 92l305 744h94L311-471h-94zm334 1741l88-51-215-263-62 33z"/><glyph glyph-name="afii10093.var.accented" unicode="ы`" d="M147 836h82V487h199q146 0 213-77 59-65 59-166 0-114-73-181Q560 0 426 0H147v836zm82-758h197q85 0 131 39 57 47 57 127 0 83-59 129-48 37-133 37H229V78zm566 758h82V0h-82v836zm-170 434l88-51-215-263-62 33z"/><glyph glyph-name="afii10095.var.accented" unicode="э`" horiz-adv-x="843" d="M78 20v86q91-51 225-51 169 0 270 109 86 90 91 225H174v78h490q-16 150-138 242-94 67-229 67-131 0-211-43v82q102 39 211 39 195 0 313-104 140-119 140-330 0-203-125-324Q501-23 303-23 166-23 78 20zm395 1250l88-51-215-263-61 33z"/><glyph glyph-name="afii10096.var.accented" unicode="ю`" horiz-adv-x="1310" d="M229 467h144q19 168 136.5 277.5T795 854q180 0 301-126t121-312-121-312.5T795-23Q628-23 505 90.5T373 389H229V0h-82v836h82V467zM795 55q144 0 239.5 104t95.5 257-95.5 256.5T795 776 555 672.5 459 416t96-257T795 55zm-27 1215l88-51-215-263-61 33z"/><glyph glyph-name="afii10097.var.accented" unicode="я`" horiz-adv-x="790" d="M57 0l267 365q-97 3-164 61-70 63-70 166 0 121 76 184 69 60 199 60h278V0h-82v360H418L156 0H57zm504 438v320H365q-87 0-134-37-55-47-55-127t53-119q48-37 136-37h196zm-53 832l88-51-215-263-62 33z"/><glyph glyph-name="afii10071.var.accented" unicode="ё`" horiz-adv-x="989" d="M895 408H180q-5-151 96-256 94-97 236-97 98 0 176 54 74 53 115 137l69-41Q815 103 729 43q-95-66-223-66-175 0-291 113Q94 207 94 414q0 206 125 327 116 113 281 113 81 0 152-30t120-79q60-60 92.5-149.5T895 408zm-709 77h623q-16 125-94 203-88 88-215 88-124 0-217-90-82-82-97-201zm50 592q0 31 21 52.5t52 21.5 52.5-21.5T383 1077t-21.5-52-52.5-21-52 21-21 52zm380 0q0 31 21.5 52.5T690 1151t52.5-21.5T764 1077t-21.5-52-52.5-21-52.5 21-21.5 52zm-43 193l76-51-215-263-49 33z"/><glyph glyph-name="fi" unicode="fi" horiz-adv-x="905" d="M438 758H229V0h-82v758H53v78h94v333q0 92 10.5 139t35.5 85q28 42 62 68.5t71 38 64 15 63 3.5 63-3.5 64-15 71-38 62-68.5q25-37 35-84t10-140v-34h-82v34q0 124-35 181-54 90-188 90t-189-90q-35-57-35-181V836h209v-78zm238 78h82V0h-82v836z"/><glyph glyph-name="fl" unicode="fl" horiz-adv-x="905" d="M438 758H229V0h-82v758H53v78h94v333q0 92 10.5 139t35.5 85q28 42 62 68.5t71 38 64 15 63 3.5 63-3.5 64-15 71-38 62-68.5q25-37 35-84t10-140V0h-82v1169q0 124-35 181-55 90-188 90-132 0-189-90-35-55-35-181V836h209v-78z"/><glyph glyph-name=".notdef" horiz-adv-x="477"/><glyph glyph-name=".null" horiz-adv-x="0"/><glyph glyph-name="nonmarkingreturn" horiz-adv-x="682"/><glyph glyph-name="space" horiz-adv-x="477"/><glyph glyph-name="exclam" unicode="!" horiz-adv-x="532" d="M311 244h-90v1122h90V244zM190 61q0 32 22 54t54 22 54-22 22-54-22-53.5T266-14 212 7.5 190 61z"/><glyph glyph-name="quotedbl" unicode="&quot;" horiz-adv-x="573" d="M213 1366l-14-551h-62l-14 551h90zm238 0l-15-551h-61l-15 551h91z"/><glyph glyph-name="numbersign" unicode="#" horiz-adv-x="1228" d="M768 0h-82l68 453H418L350 0h-82l68 453H94l12 77h242l49 330H156l12 78h242l65 428h82l-65-428h335l66 428h82l-66-428h242l-12-78H897l-49-330h242l-13-77H836zm-2 530l49 330H479l-49-330h336z"/><glyph glyph-name="dollar" unicode="$" horiz-adv-x="1122" d="M907 1190l-65-55q-5 11-12.5 24.5T803 1197t-41 44-57.5 38-75.5 24V750q142-65 202-109 28-19 48.5-38t45.5-51 38.5-76.5T977 377q0-89-41-172T814.5 61 629-16v-203h-82v196q-190 0-314 144-61 70-88 149l78 37q23-67 74-131 45-57 112-86t138-31v635l-51 25q-99 46-148 82.5T268 889q-43 71-43 155 0 139 90 236.5T547 1384v183h82v-183q18-2 34.5-5t53-16 66.5-32 65-56 59-85zM629 653V66q115 24 184.5 112T883 375q0 134-133 215-3 1-16 8.5T694 620t-65 33zm-82 138v512q-105-6-166.5-81.5T319 1049q0-90 56-150.5T547 791z"/><glyph glyph-name="percent" unicode="%" horiz-adv-x="1245" d="M346 1378q124 0 200.5-75.5T623 1110t-76.5-192.5T346 842t-200 75.5T70 1110t76 192.5 200 75.5zm0-463q93 0 144 59.5t51 135.5-51 135.5-144 59.5-143.5-59.5T152 1110t50.5-135.5T346 915zM188 2l807 1395 62-33L250-31zm711 522q124 0 200.5-75.5T1176 256t-76.5-192.5T899-12 699 63.5 623 256t76 192.5T899 524zm0-463q93 0 144 59.5t51 135.5-51 135.5T899 451t-143.5-59.5T705 256t50.5-135.5T899 61z"/><glyph glyph-name="ampersand" unicode="&amp;" horiz-adv-x="1286" d="M1161 530l66-55q-83-112-174-199L1257 0h-114L985 215Q833 88 743 41 610-27 489-27q-149 0-247 95-107 103-107 258 0 150 90 258 55 69 172 145l146 94q-80 124-108.5 182.5T406 1126q0 112 77 189 73 76 189 76 99 0 174-68 76-71 76-186 0-118-101-219-49-49-153-119l333-451q70 70 160 182zM934 287L592 754l-129-84q-118-76-174-150-60-81-60-188 0-122 72-199 74-78 191-78 111 0 239 74 101 56 203 158zM616 868q106 68 152 117 63 66 63 150 0 75-47 122-48 48-118 48-66 0-113-45-57-54-57-138 0-32 14-70t27-61 42-66.5 37-56.5z"/><glyph glyph-name="quotesingle" unicode="'" horiz-adv-x="335" d="M213 1366l-14-551h-62l-14 551h90z"/><glyph glyph-name="parenleft" unicode="(" horiz-adv-x="577" d="M299 594q0-220 43-475 35-218 92-400l-78-47q-53 150-98 375-30 152-41.5 272T205 594q0 157 11.5 276.5T258 1141q45 225 98 375l78-48q-55-171-92-399-43-260-43-475z"/><glyph glyph-name="parenright" unicode=")" horiz-adv-x="577" d="M221-328l-78 47q59 188 93 400 43 255 43 475 0 215-43 475-36 222-93 399l78 48q53-150 98-375 30-152 42-272t12-275q0-154-12-273.5T319 47q-45-225-98-375z"/><glyph glyph-name="asterisk" unicode="*" horiz-adv-x="1122" d="M266 1311l256-90-6 272h90l-6-272 256 90 29-84-262-78 165-217-71-51-156 225-155-225-72 51 166 217-262 78z"/><glyph glyph-name="plus" unicode="+" d="M68 635v78h403v372h82V713h403v-78H553V262h-82v373H68z"/><glyph glyph-name="comma" unicode="," horiz-adv-x="466" d="M78-281l123 414 82-24-152-410z"/><glyph glyph-name="hyphen" unicode="-" horiz-adv-x="614" d="M102 377v94h410v-94H102z"/><glyph glyph-name="period" unicode="." horiz-adv-x="413" d="M131 61q0 32 22 54t54 22 54-22 22-54-22-53.5T207-14 153 7.5 131 61z"/><glyph glyph-name="slash" unicode="/" horiz-adv-x="1179" d="M41-324l1032 1846 66-33L106-356z"/><glyph glyph-name="zero" unicode="0" horiz-adv-x="1122" d="M561 1384q184 0 322-165 82-98 128-235.5t46-301.5-46-301.5T883 145Q813 61 728 19T561-23 395 19 240 145q-82 98-128 235.5T66 682t46 301.5T240 1219q138 165 321 165zm0-1325q142 0 254 140 148 183 148 483t-148 483q-111 138-254 138t-254-138Q160 983 160 682t147-483Q419 59 561 59z"/><glyph glyph-name="one" unicode="1" horiz-adv-x="1122" d="M557 0v1284H344l41 82h262V0h-90z"/><glyph glyph-name="two" unicode="2" horiz-adv-x="1122" d="M965 0H123l524 578q111 125 150 184 80 121 80 233 0 131-89.5 219.5T559 1303q-146 0-235-101-80-88-80-223h-90q0 88 29.5 162.5T262 1266q114 118 303 118 176 0 291-111t115-278q0-142-99-280-55-77-120-148L313 82h652V0z"/><glyph glyph-name="three" unicode="3" horiz-adv-x="1122" d="M156 332h90q3-82 45-146 38-56 106-91.5T532 59q125 0 216.5 95T840 377q0 84-36 149t-93 101q-64 41-174 41v82q47 0 91 14.5t62 26 31 22.5q45 38 72.5 97.5T821 1036q0 114-69.5 190.5T559 1303q-127 0-197-80-66-72-69-183h-86q3 145 100 246 96 98 252 98 163 0 259.5-98.5T915 1042q0-101-51-192T700 713q109-35 171.5-125.5T934 379q0-171-117-286.5T532-23q-96 0-186 47T205 156q-49 78-49 176z"/><glyph glyph-name="four" unicode="4" horiz-adv-x="1122" d="M850 1411V342h190v-82H850V0h-90v260H25zM184 342h576v803z"/><glyph glyph-name="five" unicode="5" horiz-adv-x="1122" d="M963 1366v-82H504L389 915q54 13 92 13 215 0 345-133t130-340q0-143-66-253.5T714.5 34 471-23q-121 0-231.5 54T61 203l80 33q57-85 143-131t189-46q169 0 279 111t110 283q0 173-107.5 283T477 846q-117 0-213-60l176 580h523z"/><glyph glyph-name="six" unicode="6" horiz-adv-x="1122" d="M616 1384l70-53-303-430q86 37 186 37 204 0 339.5-134.5T1044 461q0-207-137.5-345.5T557-23q-208 0-345.5 137T74 463q0 152 88 278zM559 59q168 0 279.5 115T950 459q0 174-110.5 285.5T559 856 278.5 743 168 459q0-172 112-286T559 59z"/><glyph glyph-name="seven" unicode="7" horiz-adv-x="1122" d="M45 29l885 1255H100v82h990L113-23z"/><glyph glyph-name="eight" unicode="8" horiz-adv-x="1122" d="M733 709q106-40 164.5-135.5T956 362t-54-204.5T758.5 23 561-23 363.5 23 220 157.5 166 362t58.5 211.5T389 709q-53 28-91 67.5T241.5 850t-29 74.5-12 60-1.5 39.5q0 155 104 257.5T561 1384t258.5-102.5T924 1024q0-27-4.5-55T899 890.5t-58.5-99T733 709zm-172 39q111 0 189.5 78.5T829 1024q0 120-77.5 199.5T561 1303t-190.5-79.5T293 1024q0-119 78.5-197.5T561 748zm0-689q135 0 218 87t83 216q0 135-84.5 221.5T561 670t-216.5-86.5T260 362q0-129 83-216t218-87z"/><glyph glyph-name="nine" unicode="9" horiz-adv-x="1122" d="M506-23l-70 54 303 432q-86-37-186-37-204 0-339.5 134.5T78 903q0 206 137 343.5T565 1384q208 0 346-136.5T1049 901q0-152-88-278zm57 1326q-168 0-279.5-115T172 905q0-174 111.5-285.5T563 508q170 0 280.5 113T954 905q0 169-111.5 283.5T563 1303z"/><glyph glyph-name="colon" unicode=":" horiz-adv-x="413" d="M131 778q0 32 22 54t54 22 54-22 22-54-22-54-54-22-54 22-22 54zm0-725q0 32 22 54t54 22 54-22 22-54-22-54-54-22-54 22-22 54z"/><glyph glyph-name="semicolon" unicode=";" horiz-adv-x="466" d="M135 778q0 32 22 54t54 22 54-22 22-54-22-54-54-22-54 22-22 54zM78-281l123 414 82-24-152-410z"/><glyph glyph-name="less" unicode="&lt;" d="M68 711l888 393v-84L158 672l798-348v-84L68 633v78z"/><glyph glyph-name="equal" unicode="=" d="M68 780v78h888v-78H68zm0-291v78h888v-78H68z"/><glyph glyph-name="greater" unicode="&gt;" d="M956 633L68 240v84l798 348-798 348v84l888-393v-78z"/><glyph glyph-name="question" unicode="?" horiz-adv-x="954" d="M676 532h82q0-108-43-180-31-53-91-86t-143-33q-60 0-115.5 20.5T274 307q-37 34-59 90t-22 117q0 127 90 203 16 13 33 23t39 18.5 36 13 42 12.5 38 11q7 2 28.5 8t30.5 9l27 9 29 11 25 12.5 25 16.5 21 20q52 59 52 168 0 117-62 184-63 70-174 70t-174-70q-57-62-57-184 0-41 14-82h-90q-14 46-14 94 0 152 90 237 93 86 237 86 152 0 240-92 84-86 84-239 0-131-74-217-67-75-182-105-16-5-52-13.5t-55.5-14-45-16.5-42.5-25q-69-56-69-152 0-85 51-139 56-60 145-60 109 0 162 74 35 49 35 147zM403 53q0 32 22 54t54 22 54-22 22-54-22-54-54-22-54 22-22 54z"/><glyph glyph-name="at" unicode="@" horiz-adv-x="1499" d="M1001 846l31 160h66q-23-118-55-281-48-245-48-274 0-43 24.5-76t72.5-33q69 0 130 59.5t97.5 159.5 36.5 213q0 162-79 287.5T1065.5 1253 772 1319q-177 0-323.5-84t-230-230.5T135 682q0-129 44.5-247t133-211T520 84q123-49 285-49 90 0 197.5 21.5T1184 113l76 37 24-60q-120-62-244-90-127-27-237-27-159 0-296 53T273 171.5 121 395 66 678q0 195 93.5 356.5T415 1288t357 92q175 0 321-74t235-214 89-318q0-207-100.5-348T1090 285q-66 0-106 38.5T944 434q-41-74-110.5-113.5T686 281q-130 0-207.5 94.5T401 610q0 174 102 298t257 124q13 0 25-1t39-5.5 50.5-17 49-31.5 46-53 31.5-78zM696 346q110 0 189.5 105.5T965 729q0 22-2.5 45t-14 60-31 64.5-59 48T766 967q-88 0-156.5-51.5T507 784t-34-172q0-125 66-195.5T696 346z"/><glyph glyph-name="A" unicode="A" horiz-adv-x="1200" d="M1073 0L891 449H309L127 0H29l575 1407L1171 0h-98zM342 530h516l-256 648z"/><glyph glyph-name="B" unicode="B" horiz-adv-x="1093" d="M184 0v1366h299q176 0 276.5-93T860 1024q0-201-160-299 132-21 207.5-114.5T983 383q0-177-117.5-280T559 0H184zm90 1284V748h218q59 0 102 11.5t84 45.5q90 74 90 209 0 137-92 213-73 57-227 57H274zm0-618V82h230q64 0 101 2.5t95 22T801 164q88 78 88 209 0 187-146 254-90 39-256 39H274z"/><glyph glyph-name="C" unicode="C" horiz-adv-x="1388" d="M1278 1206v-119q-88 103-208.5 159.5T817 1303q-129 0-243-49.5t-194.5-134-127.5-200T205 676q0-117 37.5-219.5t99.5-174 142-123 165.5-76T819 59q115 0 238.5 50.5T1278 266V147q-99-87-217.5-128.5T823-23q-200 0-364.5 96t-256 257T111 680q0 193 94.5 355t257 255.5T819 1384q74 0 144-15.5t118-35.5 93-48 65.5-45 38.5-34z"/><glyph glyph-name="D" unicode="D" horiz-adv-x="1265" d="M455 0H184v1366h271q313 0 503-190 101-101 149-234.5t48-259.5-48-258.5T958 190Q768 0 455 0zM274 1284V82h179q270 0 439 167t169 433q0 263-170 432.5T453 1284H274z"/><glyph glyph-name="E" unicode="E" horiz-adv-x="950" d="M840 1366v-82H274V788h553v-81H274V82h566V0H184v1366h656z"/><glyph glyph-name="F" unicode="F" horiz-adv-x="831" d="M737 1366v-82H274V788h451v-81H274V0h-90v1366h553z"/><glyph glyph-name="G" unicode="G" horiz-adv-x="1581" d="M897 573v82h573q0-272-139-448-89-114-222-172T817-23q-198 0-359.5 90t-254 251T111 680q0 199 95 361t257.5 252.5T823 1384q238 0 428-147 96-76 164-172l-72-57q-48 82-131 151-172 144-391 144-172 0-313.5-83.5T285.5 992 205 676q0-169 78.5-310.5t218.5-224T815 59q162 0 287.5 68.5T1290 291q39 60 63 137t27 145H897z"/><glyph glyph-name="H" unicode="H" horiz-adv-x="1376" d="M274 1366V786h828v580h90V0h-90v705H274V0h-90v1366h90z"/><glyph glyph-name="I" unicode="I" horiz-adv-x="458" d="M184 1366h90V0h-90v1366z"/><glyph glyph-name="J" unicode="J" horiz-adv-x="538" d="M264 1366h90V266q0-44-2.5-73.5t-18.5-75T287 41q-64-64-170-64-86 0-150 52-46 37-80 92l64 53q27-52 63-78 48-37 107-37t98 39q20 20 30.5 49t12.5 50.5 2 54.5v1114z"/><glyph glyph-name="K" unicode="K" horiz-adv-x="1105" d="M274 1366V723l646 643h118L377 713 1077 0H954L311 651l-37-35V0h-90v1366h90z"/><glyph glyph-name="L" unicode="L" horiz-adv-x="684" d="M184 1366h90V82h381V0H184v1366z"/><glyph glyph-name="M" unicode="M" horiz-adv-x="1835" d="M260 0h-90l156 1413L918 150l591 1263L1665 0h-90l-121 1098Q920-49 918-49L381 1098z"/><glyph glyph-name="N" unicode="N" horiz-adv-x="1605" d="M274 0h-90v1380L1331 180v1186h90V-35L274 1165V0z"/><glyph glyph-name="O" unicode="O" horiz-adv-x="1638" d="M819 1384q196 0 359-93.5t256.5-255T1528 680q0-145-55-275t-149.5-224-226-149T819-23q-148 0-279.5 55T314 181 165.5 405 111 680t55 275.5T315 1180t225.5 149 278.5 55zm0-1325q130 0 244.5 48.5T1259 239t128 197.5 47 243.5q0 173-79.5 315.5t-221 225T819 1303t-314-82.5-220.5-225T205 680q0-172 79.5-314T505 141.5 819 59z"/><glyph glyph-name="P" unicode="P" horiz-adv-x="913" d="M451 649H274V0h-90v1366h265q174 0 286.5-93.5T848 1010q0-168-109-264.5T451 649zm-177 635V731h181q135 0 217 74.5t82 202.5-83 202-231 74H274z"/><glyph glyph-name="Q" unicode="Q" horiz-adv-x="1638" d="M1507 0h-118l-121 131Q1075-23 819-23q-147 0-278.5 55T315 181 166 405t-55 275 55 275.5T315 1180t225.5 149 278.5 55q195 0 358-93.5t257-255 94-355.5q0-285-197-492zM819 59q220 0 391 134L868 559h119l285-307q162 176 162 428 0 172-79.5 314.5t-221 225.5-314.5 83-314-82.5-220.5-225T205 680q0-172 79.5-314T505 141.5 819 59z"/><glyph glyph-name="R" unicode="R" horiz-adv-x="958" d="M860 0H758L315 645h-41V0h-90v1366h197q91 0 159-14t130-56q141-98 141-292 0-112-55-202T582 672q-78-27-168-27zM274 1284V727h132q146 0 228.5 73.5T717 1006q0 93-36 151.5t-85 85.5q-71 41-209 41H274z"/><glyph glyph-name="S" unicode="S" horiz-adv-x="1052" d="M872 1190l-65-55q-29 57-70 94.5t-83.5 51.5-66.5 18-48 4q-117 0-185.5-73.5T285 1049q0-31 7-58t16-47 29-40 34.5-33 46-31 49.5-27.5 57-28.5q30-15 86.5-42t77.5-37.5 52.5-28T797 641q28-19 48.5-38t45-51 38-76.5T942 377q0-170-124.5-285T516-23q-193 0-317 144-61 70-88 149l77 37q23-67 74-131 44-57 113.5-87T518 59q139 0 234.5 91T848 375 715 590q-59 35-232 119-115 56-166 91t-84 89q-43 71-43 155 0 49 13 96.5t41 91.5 68 78 99 54 130 20q105 0 192.5-49.5T872 1190z"/><glyph glyph-name="T" unicode="T" horiz-adv-x="856" d="M827 1284H473V0h-90v1284H29v82h798v-82z"/><glyph glyph-name="U" unicode="U" horiz-adv-x="1298" d="M184 1366h90V512q0-108 11-173t47-122q28-46 69.5-79T488 89t84.5-23 76.5-7q85 0 174.5 36T967 217q36 57 46.5 121.5T1024 512v854h90V512q0-127-14.5-203T1036 162Q910-23 649-23T262 162q-49 71-63.5 147T184 512v854z"/><glyph glyph-name="V" unicode="V" horiz-adv-x="1044" d="M29 1366h98L528 203l390 1163h98L528-55z"/><glyph glyph-name="W" unicode="W" horiz-adv-x="2015" d="M29 1366h98L504 207l493 1233 463-1233 428 1159h99L1460-51 997 1190 489-51z"/><glyph glyph-name="X" unicode="X" horiz-adv-x="962" d="M47 0l375 696-359 670h99l309-584 311 584h99L524 696 899 0h-98L471 614 145 0H47z"/><glyph glyph-name="Y" unicode="Y" horiz-adv-x="1056" d="M477 0v584L29 1366h102l393-690 402 690h102L567 584V0h-90z"/><glyph glyph-name="Z" unicode="Z" horiz-adv-x="1134" d="M1059 1366L227 82h809V0H76l831 1284H156v82h903z"/><glyph glyph-name="bracketleft" unicode="[" horiz-adv-x="569" d="M487 1411H270V-246h217v-82H180v1821h307v-82z"/><glyph glyph-name="backslash" unicode="\" horiz-adv-x="1179" d="M1139-324l-66-32L41 1489l65 33z"/><glyph glyph-name="bracketright" unicode="]" horiz-adv-x="569" d="M82-246h217v1657H82v82h307V-328H82v82z"/><glyph glyph-name="asciicircum" unicode="^" d="M512 1303L170 782H76l381 584h110l381-584h-94z"/><glyph glyph-name="underscore" unicode="_" d="M0-238v78h1024v-78H0z"/><glyph glyph-name="grave" unicode="`" d="M508 956l-215 263 88 51 188-281z"/><glyph glyph-name="a" unicode="a" horiz-adv-x="1056" d="M827 690v146h82V0h-82v150Q768 60 681 18.5T502-23q-82 0-156 31T216 94.5 127 234 94 418q0 194 112.5 315T502 854q209 0 325-164zm-321 86q-133 0-229.5-95T180 424q0-96 37-179t113.5-136.5T508 55q76 0 138.5 30.5t102 82 61 117.5T831 424q0 89-30 159t-79 110.5T617.5 755 506 776z"/><glyph glyph-name="b" unicode="b" horiz-adv-x="1056" d="M147 1493h82V690q120 164 328 164 185 0 295.5-122T963 424q0-92-28.5-173.5t-80.5-142-130-96T553-23q-72 0-132.5 20T321 49.5t-58.5 55T229 150V0h-82v1493zM551 55q153 0 239.5 104.5T877 424q0 165-94 258.5T553 776q-63 0-121-22.5T327.5 689 253 579.5 225 428q0-163 86.5-268T551 55z"/><glyph glyph-name="c" unicode="c" horiz-adv-x="905" d="M817 748V639Q697 776 528 776q-152 0-250-103.5T180 414q0-86 30.5-156.5t81-113.5T402 78t122-23q166 0 303 150V94Q696-23 522-23q-188 0-308 124T94 412q0 191 118.5 316.5T528 854q162 0 289-106z"/><glyph glyph-name="d" unicode="d" horiz-adv-x="1056" d="M827 690v803h82V0h-82v150Q769 60 681.5 18.5T504-23q-80 0-153 29T220 89t-92 140.5T94 422q0 110 35 195.5T223.5 753 354 828.5 504 854q208 0 323-164zm-323 86q-137 0-230.5-92.5T180 424q0-88 27.5-160T281 147.5 385.5 79 508 55q133 0 228 97.5T831 424q0 151-88 251.5T504 776z"/><glyph glyph-name="e" unicode="e" horiz-adv-x="989" d="M895 408H180q0-155 98-254t234-99q98 0 174 52t117 139l69-41q-21-40-50-76t-72.5-72.5-107-58T506-23q-190 0-301 124T94 414q0 105 34.5 190.5t92 139 129.5 82T500 854q171 0 283-124.5T895 408zm-709 77h623q-15 126-100.5 208.5T500 776q-124 0-210-83T186 485z"/><glyph glyph-name="f" unicode="f" horiz-adv-x="438" d="M438 758H229V0h-82v758H53v78h94v397q0 84 20 143.5t54 88.5 69.5 41 76.5 12q25 0 71-13v-75q-25 10-63 10-31 0-54-8t-45.5-30.5-34.5-69-12-115.5V836h209v-78z"/><glyph glyph-name="g" unicode="g" horiz-adv-x="1064" d="M836 836h82V25q0-235-111.5-365.5T498-471q-170 0-286.5 95.5T88-113h86q10-129 99.5-204.5T498-393q68 0 122.5 19.5t89 48 60 70.5 37.5 78.5T826.5-95t8.5 69 1 51v118Q776 59 688.5 18T506-23q-78 0-151 28.5t-131.5 82-94 139.5T94 418q0 122 50 220.5t147 157T516 854q101 0 183-43t137-121v146zm-328-60q-150 0-239-105.5T180 414q0-154 89.5-256.5T504 55q152 0 244 104.5T840 422q0 151-91 252.5T508 776z"/><glyph glyph-name="h" unicode="h" horiz-adv-x="905" d="M147 0v1493h82V705q83 149 256 149 52 0 95.5-13.5t71-35 41.5-37 24-31.5q41-65 41-211V0h-82v526q0 118-33 168-48 82-164 82-139 0-205-117-45-80-45-225V0h-82z"/><glyph glyph-name="i" unicode="i" horiz-adv-x="376" d="M147 836h82V0h-82v836zm41 202q-31 0-52 21.5t-21 54.5 21 54.5 52 21.5 52.5-21.5T262 1114t-21.5-54.5T188 1038z"/><glyph glyph-name="j" unicode="j" horiz-adv-x="376" d="M147 836h82V-471h-82V836zm41 202q-31 0-52 21.5t-21 54.5 21 54.5 52 21.5 52.5-21.5T262 1114t-21.5-54.5T188 1038z"/><glyph glyph-name="k" unicode="k" horiz-adv-x="811" d="M147 1493h82V477l344 359h107L328 473 795 0H684L272 414l-43-43V0h-82v1493z"/><glyph glyph-name="l" unicode="l" horiz-adv-x="376" d="M147 1493h82V0h-82v1493z"/><glyph glyph-name="m" unicode="m" horiz-adv-x="1335" d="M147 0v836h82V731q71 123 217 123 47 0 86-12t63-28.5 43-39.5 27.5-39 14.5-33q35 74 99.5 113T928 854q118 0 188-70 32-32 49-76t20-75.5 3-75.5V0h-82v557q0 121-49 172-45 47-125 47-45 0-81.5-13T791 731.5t-39.5-47T727 633t-12.5-53-5-44.5-.5-31.5V0h-82v537q0 24-1.5 46t-12 60-28.5 65-55 47.5-88 20.5q-105 0-159-81t-54-212V0h-82z"/><glyph glyph-name="n" unicode="n" horiz-adv-x="905" d="M147 0v836h82V705q83 149 256 149 52 0 95.5-13.5t71-35 41.5-37 24-31.5q41-65 41-211V0h-82v526q0 118-33 168-48 82-164 82-139 0-205-117-45-80-45-225V0h-82z"/><glyph glyph-name="o" unicode="o" horiz-adv-x="1064" d="M532 854q186 0 312.5-126T971 416 844.5 103.5 532-23 220 103.5 94 416t126 312 312 126zm0-799q150 0 251.5 104T885 416 783.5 672.5 532 776 281 672.5 180 416t101-257T532 55z"/><glyph glyph-name="p" unicode="p" horiz-adv-x="1056" d="M229 150v-621h-82V836h82V690q120 164 328 164 185 0 295.5-122T963 424q0-92-28.5-173.5t-80.5-142-130-96T553-23q-72 0-132.5 20T321 49.5t-58.5 55T229 150zm322-95q153 0 239.5 104.5T877 424q0 165-94 258.5T553 776q-63 0-121-22.5T327.5 689 253 579.5 225 428q0-163 86.5-268T551 55z"/><glyph glyph-name="q" unicode="q" horiz-adv-x="1056" d="M909-471h-82v621Q769 60 681.5 18.5T504-23q-80 0-153 29T220 89t-92 140.5T94 422q0 110 35 195.5T223.5 753 354 828.5 504 854q208 0 323-164v146h82V-471zM504 776q-137 0-230.5-92.5T180 424q0-88 27.5-160T281 147.5 385.5 79 508 55q133 0 228 97.5T831 424q0 151-88 251.5T504 776z"/><glyph glyph-name="r" unicode="r" horiz-adv-x="532" d="M147 0v836h82V727q25 57 72.5 92T414 854q49 0 88-20l-41-74q-21 16-62 16-40 0-70.5-16T280 713t-29-60.5-15.5-73.5-5.5-68.5-1-61.5V0h-82z"/><glyph glyph-name="s" unicode="s" horiz-adv-x="684" d="M573 719l-69-37q-21 47-60 70.5T358 776q-66 0-103.5-41T217 643q0-24 8.5-43.5t19-32 34-26 38.5-20 48-19.5q10-4 40.5-15.5t42-16.5 35.5-16 37.5-20.5 30-24T580 379q43-53 43-135 0-68-24-121t-64.5-84T447-7.5 350-23q-106 0-184.5 59.5T61 199l80 24q21-80 79-124t130-44q80 0 133.5 52T537 240q0 66-41.5 102T350 420q-52 22-78.5 34t-56 32.5T168 530q-37 51-37 109 0 94 63.5 154.5T354 854q75 0 132.5-34.5T573 719z"/><glyph glyph-name="t" unicode="t" horiz-adv-x="397" d="M381 758H236V0h-82v758H61v78h93v299h82V836h145v-78z"/><glyph glyph-name="u" unicode="u" horiz-adv-x="897" d="M147 836h82V332q0-144 54-209 57-68 166-68 108 0 165 68 54 65 54 209v504h82V309q0-146-64-229Q607-23 449-23 290-23 211 80q-64 83-64 229v527z"/><glyph glyph-name="v" unicode="v" horiz-adv-x="798" d="M16 836h90l295-695 291 695h90L401-51z"/><glyph glyph-name="w" unicode="w" horiz-adv-x="1376" d="M16 836h90l289-691 289 742 289-742 297 691h90L973-51 684 690 395-51z"/><glyph glyph-name="x" unicode="x" horiz-adv-x="819" d="M16 0l338 438L45 836h100l265-344 260 344h100L467 438 803 0H702L410 385 117 0H16z"/><glyph glyph-name="y" unicode="y" horiz-adv-x="876" d="M217-471L414-14 16 836h95L461 92l305 744h94L311-471h-94z"/><glyph glyph-name="z" unicode="z" horiz-adv-x="925" d="M889 836L213 78h672V0H37l684 758H143v78h746z"/><glyph glyph-name="braceleft" unicode="{" horiz-adv-x="569" d="M82 553v59q40 11 66 31.5t37 51 14.5 56.5 3.5 66v397q0 40 2 67t17 72 44 74q66 66 201 66h25v-82q-116 0-160-49-39-43-39-154V811q0-98-28-150t-103-79q131-48 131-238V-29q0-127 39-170 42-47 160-47v-82h-19q-146 0-209 70-61 67-61 246v360q0 36-3 60.5T186.5 466t-37 55T82 553z"/><glyph glyph-name="bar" unicode="|" d="M471-512v2048h82V-512h-82z"/><glyph glyph-name="braceright" unicode="}" horiz-adv-x="569" d="M487 612v-59q-41-10-67.5-32t-37-55.5-13-57.5-2.5-60V-12q0-177-62-246-63-70-209-70H78v82q118 0 160 47 38 42 38 170v373q0 189 132 238-75 27-103.5 79T276 811v397q0 34-1 52.5t-10 50-27 51.5q-44 49-160 49v82h24q135 0 201-66 64-64 64-213V817q0-40 3-66t14-56.5 37-51 66-31.5z"/><glyph glyph-name="asciitilde" unicode="~" d="M80 399l-55 33q39 80 96 137 76 72 174 72 35 0 79-14t71.5-27 80.5-41q89-45 131.5-60.5T737 483q77 0 133 56 42 42 74 104l55-33q-37-74-79-118-82-86-195-86-51 0-116 24.5T442 512q-30 17-47.5 25.5t-47.5 17-58 8.5q-75 0-131-53-47-44-78-111z"/><glyph glyph-name="uni00A0" horiz-adv-x="477"/><glyph glyph-name="exclamdown" unicode="¡" horiz-adv-x="532" d="M221 651h90V-471h-90V651zm121 183q0-32-22-54t-54-22-54 22-22 54 22 53.5 54 21.5 54-21.5 22-53.5z"/><glyph glyph-name="cent" unicode="¢" horiz-adv-x="1122" d="M653 1341v-208q139 0 265-105V920q-119 128-265 135V338q155 6 275 147V375Q801 265 653 260V27h-78v233q-170 23-275 142.5T195 692q0 176 105 296t275 142v211h78zM575 338v715q-75-13-133.5-50T349 915.5 298 809t-17-115q0-79 30.5-152t99-130.5T575 338z"/><glyph glyph-name="sterling" unicode="£" horiz-adv-x="1122" d="M199 559v82h200l-43 72q-64 108-82 143-47 92-47 172 0 66 26.5 133t78.5 117q106 102 262 102 142 0 237-92 109-109 109-287h-90q0 73-24 135t-62 97q-72 65-172 65-122 0-197-79-73-76-73-181 0-83 55-182 32-60 94-158l35-57h248v-82H532q46-90 46-180 0-113-95-236l133-45q5-2 25.5-9t31-10 28-7.5 33-6.5 30.5-2q66 0 115.5 43t76.5 99l74-45Q991 85 923.5 29T774-27q-25 0-58.5 7T660-6t-69 23.5T528 39Q425 74 377 74q-86 0-187-94l-49 65q107 117 244 117 44 45 73 104.5T487 379q0 42-16 92.5T432 559H199z"/><glyph glyph-name="currency" unicode="¤" horiz-adv-x="1122" d="M82 184l-49 52 184 182Q102 545 102 717q0 169 109 293L27 1194l49 49 184-182q125 115 301 115t301-115l185 182 49-49-185-184q111-121 111-295 0-158-113-293l187-186-49-50-187 187Q735 260 565 260q-172 0-299 109zm862 533q0 158-112.5 271.5T561 1102 291.5 989 180 717q0-158 111.5-270.5T561 334t270.5 112.5T944 717z"/><glyph glyph-name="yen" unicode="¥" horiz-adv-x="1122" d="M1024 801H727L602 590h422v-82H600V0h-90v508H100v82h406L385 801H100v82h238L63 1366h105l389-686 397 686h105L774 883h250v-82z"/><glyph glyph-name="brokenbar" unicode="¦" d="M471 799v737h82V799h-82zm0-1311v737h82v-737h-82z"/><glyph glyph-name="section" unicode="§" horiz-adv-x="1122" d="M238 27h90q0-147 57-207 66-66 180-66 108 0 172 64t64 162q0 105-68 170-54 51-213 96-48 13-76 22t-68.5 30.5T303 348q-98 91-98 238 0 131 67 215 27 34 66 63t60.5 39.5T436 920q-87 39-137 100-59 72-59 178 0 69 24.5 130t65.5 102q90 86 241 86 70 0 139-23t111-66q84-86 84-264h-90v19q0 60-17.5 112t-49.5 82q-62 58-170 58-114 0-181-62-63-57-63-160 0-95 63-155 25-24 100-59t113-46q149-44 221-116 87-87 87-238 0-123-62-203-55-73-151-110 91-45 141-117 49-73 49-178 0-68-16-123t-66-105q-88-90-252-90-153 0-233 74-90 85-90 281zm323 835q-117 0-192-78-70-73-70-188 0-121 70-186 37-35 91-55.5T561 334q113 0 193 80 69 73 69 184 0 119-71 190-70 74-191 74z"/><glyph glyph-name="dieresis" unicode="¨" d="M268 1077q0 31 21.5 52.5T342 1151t52.5-21.5T416 1077t-21.5-52-52.5-21-52.5 21-21.5 52zm340 0q0 31 21.5 52.5T682 1151t52.5-21.5T756 1077t-21.5-52-52.5-21-52.5 21-21.5 52z"/><glyph glyph-name="copyright" unicode="©" horiz-adv-x="1515" d="M55 682q0 143 55.5 273.5t149.5 225 224.5 150T758 1386t273-55.5 224-150 149.5-225T1460 682t-55.5-272.5-149.5-224-224-150T758-20 484.5 35.5 260 185.5t-149.5 224T55 682zm1336 0q0 130-50.5 249t-135 205-202 137.5T758 1325t-245.5-51.5-202-137.5-135-205T125 682t50.5-248.5T311 229 513.5 92 758 41t244.5 51T1205 229t135.5 204.5T1391 682zm-340 289V862q-103 139-267 139-141 0-232-93t-91-236q0-138 93-231t232-93q74 0 143 33.5t122 99.5V375Q926 274 786 274q-172 0-287.5 113.5T383 674q0 174 115.5 287.5T786 1075q152 0 265-104z"/><glyph glyph-name="ordfeminine" unicode="ª" horiz-adv-x="692" d="M545 1260v94h53V805h-53v98q-32-50-84-78-54-32-127-32-120 0-193 73-80 80-80 213 0 135 80 215 72 72 197 72 70 0 123-31 49-25 84-75zm-211 57q-97 0-156-62t-59-174q0-118 69-184 58-55 146-55t145 57q70 70 70 184 0 108-66 174-60 60-149 60zM76 666h522v-70H76v70z"/><glyph glyph-name="guillemotleft" unicode="«" horiz-adv-x="712" d="M164 424l221-258-53-49L66 424l266 307 53-49zm217 0l221-258-53-49-266 307 266 307 53-49z"/><glyph glyph-name="logicalnot" unicode="¬" d="M956 0h-82v469H68v78h888V0z"/><glyph glyph-name="uni00AD" unicode="­" horiz-adv-x="614" d="M102 377v94h410v-94H102z"/><glyph glyph-name="registered" unicode="®" horiz-adv-x="1515" d="M55 682q0 143 55.5 273.5t149.5 225 224.5 150T758 1386t273-55.5 224-150 149.5-225T1460 682t-55.5-272.5-149.5-224-224-150T758-20 484.5 35.5 260 185.5t-149.5 224T55 682zm1336 0q0 130-50.5 249t-135 205-202 137.5T758 1325t-245.5-51.5-202-137.5-135-205T125 682t50.5-248.5T311 229 513.5 92 758 41t244.5 51T1205 229t135.5 204.5T1391 682zm-377-406h-82L692 627h-14V276h-70v758h127q125 0 183.5-48T977 827q0-136-131-186-21-7-40-10.5t-28-3.5h-8zM678 971V690h70q157 0 157 139 0 40-12.5 68t-29 42-43 22-43 9-40.5 1h-59z"/><glyph glyph-name="macron" unicode="¯" d="M236 1010v80h552v-80H236z"/><glyph glyph-name="degree" unicode="°" d="M512 1366q122 0 199-75t77-193-77-193.5T512 829t-199 75.5-77 193.5 77 193 199 75zm0-57q-95 0-153-60t-58-151 58-151 153-60 153 60 58 151-58 151-153 60z"/><glyph glyph-name="plusminus" unicode="±" d="M68 694v78h403v371h82V772h403v-78H553V324h-82v370H68zm0-538v77h888v-77H68z"/><glyph glyph-name="twosuperior" unicode="²" horiz-adv-x="675" d="M580 547H76l299 346q67 78 84 108 43 67 43 144 0 69-44.5 113.5T338 1303q-80 0-127-52-43-47-43-116H94q0 102 66 172 65 69 180 69 107 0 175.5-65.5T584 1145q0-85-54-170-4-5-18-24.5T485 913t-20-26L240 621h340v-74z"/><glyph glyph-name="threesuperior" unicode="³" horiz-adv-x="675" d="M98 748h74q3-45 25-76 20-28 55.5-45t71.5-17q66 0 112.5 49.5T483 782q0 93-82 133-46 21-114 21v74q71 0 119 34 67 49 67 125 0 57-35 95.5t-98 38.5-100-39q-37-37-37-93h-74q4 90 59 148 50 57 152 57 98 0 156.5-59.5T555 1171q0-62-31-115.5T426 975q66-20 102.5-74T565 776q0-105-69-172t-172-67q-69 0-119.5 32T127 643q-29 50-29 105z"/><glyph glyph-name="acute" unicode="´" d="M625 1270l88-51-215-263-62 33z"/><glyph glyph-name="mu" unicode="µ" d="M229-471h-82V836h82V412q0-93 15-158.5T309 137q79-82 191-82 121 0 208 102t87 279v400h82V0h-82v184q-28-74-88-131-83-76-211-76-178 0-267 166v-614z"/><glyph glyph-name="mu" unicode="μ" d="M229-471h-82V836h82V412q0-93 15-158.5T309 137q79-82 191-82 121 0 208 102t87 279v400h82V0h-82v184q-28-74-88-131-83-76-211-76-178 0-267 166v-614z"/><glyph glyph-name="paragraph" unicode="¶" horiz-adv-x="1087" d="M526-195h-73v832h-19q-202 0-307 111-90 94-90 249 0 171 113 271 109 98 325 98h473v-68H840V-195h-74v1493H526V-195z"/><glyph glyph-name="periodcentered" unicode="·" horiz-adv-x="409" d="M106 696q0 41 29 70t70 29 69.5-29 28.5-70-28.5-69.5T205 598t-70 28.5-29 69.5z"/><glyph glyph-name="cedilla" unicode="¸" d="M549-102l94-41-205-254-57 32z"/><glyph glyph-name="onesuperior" unicode="¹" horiz-adv-x="675" d="M311 547v745H184l25 74h180V547h-78z"/><glyph glyph-name="ordmasculine" unicode="º" horiz-adv-x="700" d="M356 1366q125 0 205-86 78-84 78-199 0-122-76-202-79-86-215-86-126 0-205 79-82 82-82 205 0 124 78 205 80 84 217 84zM76 666h547v-70H76v70zm272 651q-94 0-162-68-67-67-67-170t71-174q65-63 156-63 96 0 162 61 74 70 74 176 0 108-72 176-66 62-162 62z"/><glyph glyph-name="guillemotright" unicode="»" horiz-adv-x="712" d="M332 424L111 682l53 49 266-307-266-307-53 49zm217 0L328 682l53 49 266-307-266-307-53 49z"/><glyph glyph-name="onequarter" unicode="¼" horiz-adv-x="1556" d="M311 547v745H184l25 74h180V547h-78zM385 2l807 1395 61-33L446-31zm1008 844V229h114v-73h-114V0h-78v156H897zm-353-617h275v389z"/><glyph glyph-name="onehalf" unicode="½" horiz-adv-x="1556" d="M311 547v745H184l25 74h180V547h-78zM324 2l806 1395 62-33L385-31zm1136-2H956l299 346q66 76 84 109 43 67 43 143 0 69-44 113.5T1219 756q-81 0-127-51-43-47-43-117h-74q0 103 65 172t181 69q107 0 175-65.5t68-165.5q0-87-53-170-4-5-18-24.5t-27-37.5-20-26L1120 74h340V0z"/><glyph glyph-name="threequarters" unicode="¾" horiz-adv-x="1556" d="M98 748h74q3-45 25-76 20-28 55.5-45t71.5-17q66 0 112.5 49.5T483 782q0 93-82 133-46 21-114 21v74q71 0 119 34 67 49 67 125 0 57-35 95.5t-98 38.5-100-39q-37-37-37-93h-74q4 90 59 148 50 57 152 57 98 0 156.5-59.5T555 1171q0-62-31-115.5T426 975q66-20 102.5-74T565 776q0-105-69-172t-172-67q-69 0-119.5 32T127 643q-29 50-29 105zM426 2l807 1395 61-33L487-31zm967 844V229h114v-73h-114V0h-78v156H897zm-353-617h275v389z"/><glyph glyph-name="questiondown" unicode="¿" horiz-adv-x="954" d="M279 356h-82q0 109 43 181 31 53 90.5 85.5T473 655q60 0 115.5-20t91.5-53q37-34 59.5-90T762 375q0-127-90-203-55-46-189-78-65-15-109.5-33.5T297 8q-51-58-51-168 0-118 61-184 63-70 174-70t174 70q58 63 58 184 0 38-15 82h90q15-49 15-94 0-153-90-238-93-86-238-86-150 0-239 93-84 86-84 239 0 132 73 217 67 74 183 105l52 13 55 14.5 44.5 16.5 42.5 25q70 56 70 152 0 85-51 139-56 60-146 60-109 0-162-74-34-48-34-148zm272 478q0-32-22-54t-54-22-54 22-22 54 22 53.5 54 21.5 54-21.5 22-53.5z"/><glyph glyph-name="Agrave" unicode="À" horiz-adv-x="1200" d="M1073 0L891 449H309L127 0H29l575 1407L1171 0h-98zM342 530h516l-256 648zm295 910l-275 258 103 51 237-272z"/><glyph glyph-name="Aacute" unicode="Á" horiz-adv-x="1200" d="M1073 0L891 449H309L127 0H29l575 1407L1171 0h-98zM342 530h516l-256 648zm393 1219l103-51-275-258-65 37z"/><glyph glyph-name="Acircumflex" unicode="Â" horiz-adv-x="1200" d="M1073 0L891 449H309L127 0H29l575 1407L1171 0h-98zM342 530h516l-256 648zm258 1080l-197-131-69 55 266 184 266-184-69-55z"/><glyph glyph-name="Atilde" unicode="Ã" horiz-adv-x="1200" d="M1073 0L891 449H309L127 0H29l575 1407L1171 0h-98zM342 530h516l-256 648zm51 938l-59 45q22 50 47 78 42 45 92 45t131-34q12-5 35-14t33-12.5 25-7 28-3.5q27 0 51 24 23 26 31 53l59-45q-18-54-57-88t-94-34q-41 0-119 34-4 2-22.5 9.5T547 1529t-22.5 8-25.5 7-22 2q-35 0-57-28-12-15-27-50z"/><glyph glyph-name="Adieresis" unicode="Ä" horiz-adv-x="1200" d="M1073 0L891 449H309L127 0H29l575 1407L1171 0h-98zM342 530h516l-256 648zm-10 1067q0 32 23 55t55 23 54.5-23 22.5-55-22.5-54.5T410 1520t-55 22.5-23 54.5zm381 0q0 32 23 55t55 23 54.5-23 22.5-55-22.5-54.5T791 1520t-55 22.5-23 54.5z"/><glyph glyph-name="Aring" unicode="Å" horiz-adv-x="1200" d="M1073 0L891 449H309L127 0H29l575 1407L1171 0h-98zM342 530h516l-256 648zm94 1082q0 68 48 116t116 48 116-48 48-116-48-116-116-48-116 48-48 116zm80 0q0-37 23.5-60.5T600 1528t60.5 23.5T684 1612t-23.5 60.5T600 1696t-60.5-23.5T516 1612z"/><glyph glyph-name="AE" unicode="Æ" horiz-adv-x="1744" d="M1071 0L889 449H305L127 0H29l551 1366h591l35-82H643l203-496h549l35-81H881l254-625h559l37-82h-660zM338 530h516l-260 644z"/><glyph glyph-name="Ccedilla" unicode="Ç" horiz-adv-x="1388" d="M1278 1206v-119q-88 103-208.5 159.5T817 1303q-129 0-243-49.5t-194.5-134-127.5-200T205 676q0-117 37.5-219.5t99.5-174 142-123 165.5-76T819 59q115 0 238.5 50.5T1278 266V147q-99-87-217.5-128.5T823-23q-200 0-364.5 96t-256 257T111 680q0 193 94.5 355t257 255.5T819 1384q74 0 144-15.5t118-35.5 93-48 65.5-45 38.5-34zM799-102l94-54-221-258-62 37z"/><glyph glyph-name="Egrave" unicode="È" horiz-adv-x="950" d="M840 1366v-82H274V788h553v-81H274V82h566V0H184v1366h656zm-271 74l-274 258 102 51 238-272z"/><glyph glyph-name="Eacute" unicode="É" horiz-adv-x="950" d="M840 1366v-82H274V788h553v-81H274V82h566V0H184v1366h656zm-193 383l103-51-275-258-65 37z"/><glyph glyph-name="Ecircumflex" unicode="Ê" horiz-adv-x="950" d="M840 1366v-82H274V788h553v-81H274V82h566V0H184v1366h656zm-328 244l-197-131-69 55 266 184 266-184-69-55z"/><glyph glyph-name="Edieresis" unicode="Ë" horiz-adv-x="950" d="M840 1366v-82H274V788h553v-81H274V82h566V0H184v1366h656zm-596 231q0 32 23 55t55 23 54.5-23 22.5-55-22.5-54.5T322 1520t-55 22.5-23 54.5zm381 0q0 32 22.5 55t54.5 23 55-23 23-55-23-54.5-55-22.5-54.5 22.5T625 1597z"/><glyph glyph-name="Igrave" unicode="Ì" horiz-adv-x="458" d="M184 1366h90V0h-90v1366zm41 74L10 1714l115 35 184-279z"/><glyph glyph-name="Iacute" unicode="Í" horiz-adv-x="458" d="M184 1366h90V0h-90v1366zm148 383l117-35-218-274-81 30z"/><glyph glyph-name="Icircumflex" unicode="Î" horiz-adv-x="458" d="M184 1366h90V0h-90v1366zm45 236L66 1479l-72 57 235 182 236-182-72-55z"/><glyph glyph-name="Idieresis" unicode="Ï" horiz-adv-x="458" d="M184 1366h90V0h-90v1366zM20 1597q0 32 23 55t55 23 55-23 23-55-23-54.5-55-22.5-55 22.5-23 54.5zm263 0q0 32 22.5 55t54.5 23 55-23 23-55-23-54.5-55-22.5-54.5 22.5T283 1597z"/><glyph glyph-name="Eth" unicode="Ð" horiz-adv-x="1265" d="M455 0H184v707H0v81h184v578h271q313 0 503-190 101-101 149-234.5t48-259.5-48-258.5T958 190Q768 0 455 0zM274 1284V788h279v-81H274V82h179q270 0 439 167t169 433q0 263-170 432.5T453 1284H274z"/><glyph glyph-name="Ntilde" unicode="Ñ" horiz-adv-x="1605" d="M274 0h-90v1380L1331 180v1186h90V-35L274 1165V0zm322 1468l-59 45q22 50 47 78 42 45 92 45t131-34q12-5 35-14t33-12.5 25-7 28-3.5q27 0 51 24 23 26 31 53l59-45q-18-54-57-88t-94-34q-41 0-119 34-4 2-22.5 9.5T750 1529t-22.5 8-25.5 7-22 2q-35 0-57-28-12-15-27-50z"/><glyph glyph-name="Ograve" unicode="Ò" horiz-adv-x="1638" d="M819 1384q196 0 359-93.5t256.5-255T1528 680q0-145-55-275t-149.5-224-226-149T819-23q-148 0-279.5 55T314 181 165.5 405 111 680t55 275.5T315 1180t225.5 149 278.5 55zm0-1325q130 0 244.5 48.5T1259 239t128 197.5 47 243.5q0 173-79.5 315.5t-221 225T819 1303t-314-82.5-220.5-225T205 680q0-172 79.5-314T505 141.5 819 59zm37 1381l-274 258 102 51 238-272z"/><glyph glyph-name="Oacute" unicode="Ó" horiz-adv-x="1638" d="M819 1384q196 0 359-93.5t256.5-255T1528 680q0-145-55-275t-149.5-224-226-149T819-23q-148 0-279.5 55T314 181 165.5 405 111 680t55 275.5T315 1180t225.5 149 278.5 55zm0-1325q130 0 244.5 48.5T1259 239t128 197.5 47 243.5q0 173-79.5 315.5t-221 225T819 1303t-314-82.5-220.5-225T205 680q0-172 79.5-314T505 141.5 819 59zm135 1690l103-51-275-258-65 37z"/><glyph glyph-name="Ocircumflex" unicode="Ô" horiz-adv-x="1638" d="M819 1384q196 0 359-93.5t256.5-255T1528 680q0-145-55-275t-149.5-224-226-149T819-23q-148 0-279.5 55T314 181 165.5 405 111 680t55 275.5T315 1180t225.5 149 278.5 55zm0-1325q130 0 244.5 48.5T1259 239t128 197.5 47 243.5q0 173-79.5 315.5t-221 225T819 1303t-314-82.5-220.5-225T205 680q0-172 79.5-314T505 141.5 819 59zm0 1551l-196-131-70 55 266 184 266-184-69-55z"/><glyph glyph-name="Otilde" unicode="Õ" horiz-adv-x="1638" d="M819 1384q196 0 359-93.5t256.5-255T1528 680q0-145-55-275t-149.5-224-226-149T819-23q-148 0-279.5 55T314 181 165.5 405 111 680t55 275.5T315 1180t225.5 149 278.5 55zm0-1325q130 0 244.5 48.5T1259 239t128 197.5 47 243.5q0 173-79.5 315.5t-221 225T819 1303t-314-82.5-220.5-225T205 680q0-172 79.5-314T505 141.5 819 59zM612 1468l-59 45q22 50 47 78 42 45 92 45t131-34q12-5 35-14t33-12.5 25-7 28-3.5q27 0 51 24 23 26 31 53l59-45q-18-54-57-88t-94-34q-41 0-119 34-4 2-22.5 9.5T766 1529t-22.5 8-25.5 7-22 2q-35 0-57-28-12-15-27-50z"/><glyph glyph-name="Odieresis" unicode="Ö" horiz-adv-x="1638" d="M819 1384q196 0 359-93.5t256.5-255T1528 680q0-145-55-275t-149.5-224-226-149T819-23q-148 0-279.5 55T314 181 165.5 405 111 680t55 275.5T315 1180t225.5 149 278.5 55zm0-1325q130 0 244.5 48.5T1259 239t128 197.5 47 243.5q0 173-79.5 315.5t-221 225T819 1303t-314-82.5-220.5-225T205 680q0-172 79.5-314T505 141.5 819 59zM551 1597q0 32 23 55t55 23 55-23 23-55-23-54.5-55-22.5-55 22.5-23 54.5zm381 0q0 32 23 55t55 23 54.5-23 22.5-55-22.5-54.5-54.5-22.5-55 22.5-23 54.5z"/><glyph glyph-name="multiply" unicode="×" d="M137 354l320 320-320 319 56 56 319-320 319 320 56-56-320-319 320-320-56-55-319 319-319-319z"/><glyph glyph-name="Oslash" unicode="Ø" horiz-adv-x="1638" d="M131 43l162 162Q111 408 111 680q0 194 93.5 355.5t256.5 255 358 93.5q272 0 473-176l160 162 55-55-159-160q180-203 180-475 0-194-94-355.5T1177 70 819-23q-272 0-473 175L186-10zm1155 1049L408 211Q585 59 819 59q129 0 243.5 48.5T1258 239t128.5 197.5T1434 680q0 239-148 412zM354 266l877 883q-171 154-412 154-173 0-314-83T284.5 994.5 205 680q0-236 149-414z"/><glyph glyph-name="Ugrave" unicode="Ù" horiz-adv-x="1298" d="M184 1366h90V512q0-108 11-173t47-122q28-46 69.5-79T488 89t84.5-23 76.5-7q85 0 174.5 36T967 217q36 57 46.5 121.5T1024 512v854h90V512q0-127-14.5-203T1036 162Q910-23 649-23T262 162q-49 71-63.5 147T184 512v854zm502 74l-274 258 102 51 238-272z"/><glyph glyph-name="Uacute" unicode="Ú" horiz-adv-x="1298" d="M184 1366h90V512q0-108 11-173t47-122q28-46 69.5-79T488 89t84.5-23 76.5-7q85 0 174.5 36T967 217q36 57 46.5 121.5T1024 512v854h90V512q0-127-14.5-203T1036 162Q910-23 649-23T262 162q-49 71-63.5 147T184 512v854zm600 383l103-51-275-258-65 37z"/><glyph glyph-name="Ucircumflex" unicode="Û" horiz-adv-x="1298" d="M184 1366h90V512q0-108 11-173t47-122q28-46 69.5-79T488 89t84.5-23 76.5-7q85 0 174.5 36T967 217q36 57 46.5 121.5T1024 512v854h90V512q0-127-14.5-203T1036 162Q910-23 649-23T262 162q-49 71-63.5 147T184 512v854zm465 244l-196-131-70 55 266 184 266-184-69-55z"/><glyph glyph-name="Udieresis" unicode="Ü" horiz-adv-x="1298" d="M184 1366h90V512q0-108 11-173t47-122q28-46 69.5-79T488 89t84.5-23 76.5-7q85 0 174.5 36T967 217q36 57 46.5 121.5T1024 512v854h90V512q0-127-14.5-203T1036 162Q910-23 649-23T262 162q-49 71-63.5 147T184 512v854zm197 231q0 32 23 55t55 23 55-23 23-55-23-54.5-55-22.5-55 22.5-23 54.5zm381 0q0 32 23 55t55 23 55-23 23-55-23-54.5-55-22.5-55 22.5-23 54.5z"/><glyph glyph-name="Yacute" unicode="Ý" horiz-adv-x="1056" d="M477 0v584L29 1366h102l393-690 402 690h102L567 584V0h-90zm187 1749l102-51-274-258-66 37z"/><glyph glyph-name="Thorn" unicode="Þ" horiz-adv-x="913" d="M184 0v1366h90v-246h175q174 0 286.5-93.5T848 764q0-168-109-264.5T451 403H274V0h-90zm90 1038V485h181q135 0 217 74.5T754 762t-83 202-231 74H274z"/><glyph glyph-name="germandbls" unicode="ß" horiz-adv-x="985" d="M231 0h-81v758H8v78h142v335q0 84 16 151t67 118q78 78 216 78 119 0 194-66 98-84 98-256 0-114-47-186-41-63-112-97 108-35 198-118 127-117 127-312 0-202-133-338Q638 6 430-10v82q87 7 164.5 44T725 211q96 107 96 258 0 166-102 272-52 55-128.5 89T430 870v72q43 2 82.5 17.5t53.5 26 22 18.5q67 62 67 182 0 124-55 190-57 64-156 64-97 0-151-56-62-64-62-200V0z"/><glyph glyph-name="agrave" unicode="à" horiz-adv-x="1056" d="M827 690v146h82V0h-82v150Q768 60 681 18.5T502-23q-82 0-156 31T216 94.5 127 234 94 418q0 194 112.5 315T502 854q209 0 325-164zm-321 86q-133 0-229.5-95T180 424q0-96 37-179t113.5-136.5T508 55q76 0 138.5 30.5t102 82 61 117.5T831 424q0 89-30 159t-79 110.5T617.5 755 506 776zm43 180l-215 263 88 51 188-281z"/><glyph glyph-name="aacute" unicode="á" horiz-adv-x="1056" d="M827 690v146h82V0h-82v150Q768 60 681 18.5T502-23q-82 0-156 31T216 94.5 127 234 94 418q0 194 112.5 315T502 854q209 0 325-164zm-321 86q-133 0-229.5-95T180 424q0-96 37-179t113.5-136.5T508 55q76 0 138.5 30.5t102 82 61 117.5T831 424q0 89-30 159t-79 110.5T617.5 755 506 776zm135 494l88-51-215-263-61 33z"/><glyph glyph-name="acircumflex" unicode="â" horiz-adv-x="1056" d="M827 690v146h82V0h-82v150Q768 60 681 18.5T502-23q-82 0-156 31T216 94.5 127 234 94 418q0 194 112.5 315T502 854q209 0 325-164zm-321 86q-133 0-229.5-95T180 424q0-96 37-179t113.5-136.5T508 55q76 0 138.5 30.5t102 82 61 117.5T831 424q0 89-30 159t-79 110.5T617.5 755 506 776zm24 320L346 956l-65 52 249 192 250-192-65-52z"/><glyph glyph-name="atilde" unicode="ã" horiz-adv-x="1056" d="M827 690v146h82V0h-82v150Q768 60 681 18.5T502-23q-82 0-156 31T216 94.5 127 234 94 418q0 194 112.5 315T502 854q209 0 325-164zm-321 86q-133 0-229.5-95T180 424q0-96 37-179t113.5-136.5T508 55q76 0 138.5 30.5t102 82 61 117.5T831 424q0 89-30 159t-79 110.5T617.5 755 506 776zM344 997l-53 39q18 52 47 78 39 39 94 39 15 0 31.5-3t35.5-9.5 28.5-10 30.5-13 22-9.5q66-27 96-27 33 0 55 25 7 9 14.5 21.5t11 20.5 3.5 9l51-41q-17-49-53-82-41-35-92-35-38 0-119 35-6 2-23 9t-22.5 9.5-18.5 7-20.5 6.5-17.5 3.5-19 1.5q-36 0-57-24-18-21-25-50z"/><glyph glyph-name="adieresis" unicode="ä" horiz-adv-x="1056" d="M827 690v146h82V0h-82v150Q768 60 681 18.5T502-23q-82 0-156 31T216 94.5 127 234 94 418q0 194 112.5 315T502 854q209 0 325-164zm-321 86q-133 0-229.5-95T180 424q0-96 37-179t113.5-136.5T508 55q76 0 138.5 30.5t102 82 61 117.5T831 424q0 89-30 159t-79 110.5T617.5 755 506 776zm-199 301q0 31 21.5 52.5T381 1151t52.5-21.5T455 1077t-21.5-52-52.5-21-52.5 21-21.5 52zm340 0q0 31 21.5 52.5T721 1151t52.5-21.5T795 1077t-21.5-52-52.5-21-52.5 21-21.5 52z"/><glyph glyph-name="aring" unicode="å" horiz-adv-x="1056" d="M827 690v146h82V0h-82v150Q768 60 681 18.5T502-23q-82 0-156 31T216 94.5 127 234 94 418q0 194 112.5 315T502 854q209 0 325-164zm-321 86q-133 0-229.5-95T180 424q0-96 37-179t113.5-136.5T508 55q76 0 138.5 30.5t102 82 61 117.5T831 424q0 89-30 159t-79 110.5T617.5 755 506 776zm-123 348q0 68 45.5 113t112.5 45 112-45 45-113-45-112.5T541 967q-68 0-113 45t-45 112zm74 0q0-37 23.5-60.5T541 1040t60.5 23.5T625 1124t-23.5 60.5T541 1208t-60.5-23.5T457 1124z"/><glyph glyph-name="ae" unicode="æ" horiz-adv-x="1622" d="M1530 406H813q3-157 94.5-254T1137 55q106 0 181 55.5T1438 244l69-49q-62-97-157-157.5T1135-23q-118 0-206.5 56T791 186Q757 83 665.5 30T444-23q-167 0-259.5 77T92 238q0 34 10 68t36.5 70.5 66 63.5T310 484.5 459 502q81 0 145.5-17.5T727 416q0 170-70.5 265T436 776q-136 0-284-76v84q140 70 288 70 120 0 207.5-59T774 621q53 108 147.5 170.5T1133 854q61 0 117.5-17t106.5-53.5 88-88.5 60.5-126.5T1530 406zm-707 77h621q-19 127-106 210t-208 83q-120 0-204.5-84T823 483zm-366-59q-135 0-207-53t-72-133q0-77 69-130t197-53q75 0 131 18t86.5 47 45 61 14.5 65q0 70-63.5 124T457 424z"/><glyph glyph-name="ccedilla" unicode="ç" horiz-adv-x="905" d="M817 748V639Q697 776 528 776q-152 0-250-103.5T180 414q0-86 30.5-156.5t81-113.5T402 78t122-23q166 0 303 150V94Q696-23 522-23q-188 0-308 124T94 412q0 191 118.5 316.5T528 854q162 0 289-106zM489-102l95-41-205-254-57 32z"/><glyph glyph-name="egrave" unicode="è" horiz-adv-x="989" d="M895 408H180q0-155 98-254t234-99q98 0 174 52t117 139l69-41q-21-40-50-76t-72.5-72.5-107-58T506-23q-190 0-301 124T94 414q0 105 34.5 190.5t92 139 129.5 82T500 854q171 0 283-124.5T895 408zm-709 77h623q-15 126-100.5 208.5T500 776q-124 0-210-83T186 485zm322 471l-215 263 88 51 188-281z"/><glyph glyph-name="eacute" unicode="é" horiz-adv-x="989" d="M895 408H180q0-155 98-254t234-99q98 0 174 52t117 139l69-41q-21-40-50-76t-72.5-72.5-107-58T506-23q-190 0-301 124T94 414q0 105 34.5 190.5t92 139 129.5 82T500 854q171 0 283-124.5T895 408zm-709 77h623q-15 126-100.5 208.5T500 776q-124 0-210-83T186 485zm424 785l88-51-215-263-61 33z"/><glyph glyph-name="ecircumflex" unicode="ê" horiz-adv-x="989" d="M895 408H180q0-155 98-254t234-99q98 0 174 52t117 139l69-41q-21-40-50-76t-72.5-72.5-107-58T506-23q-190 0-301 124T94 414q0 105 34.5 190.5t92 139 129.5 82T500 854q171 0 283-124.5T895 408zm-709 77h623q-15 126-100.5 208.5T500 776q-124 0-210-83T186 485zm326 611L328 956l-66 52 250 192 250-192-66-52z"/><glyph glyph-name="edieresis" unicode="ë" horiz-adv-x="989" d="M895 408H180q0-155 98-254t234-99q98 0 174 52t117 139l69-41q-21-40-50-76t-72.5-72.5-107-58T506-23q-190 0-301 124T94 414q0 105 34.5 190.5t92 139 129.5 82T500 854q171 0 283-124.5T895 408zm-709 77h623q-15 126-100.5 208.5T500 776q-124 0-210-83T186 485zm68 592q0 31 21.5 52.5T328 1151t52-21.5 21-52.5-21-52-52-21-52.5 21-21.5 52zm340 0q0 31 21.5 52.5T668 1151t52-21.5 21-52.5-21-52-52-21-52.5 21-21.5 52z"/><glyph glyph-name="igrave" unicode="ì" horiz-adv-x="376" d="M147 836h82V0h-82v836zm37 120l-215 263 88 51 189-281z"/><glyph glyph-name="iacute" unicode="í" horiz-adv-x="376" d="M147 836h82V0h-82v836zm154 434l88-51-215-263-61 33z"/><glyph glyph-name="icircumflex" unicode="î" horiz-adv-x="376" d="M147 836h82V0h-82v836zm41 251L45 965l-61 53 204 176 205-176-61-53z"/><glyph glyph-name="idieresis" unicode="ï" horiz-adv-x="376" d="M147 836h82V0h-82v836zm-202 241q0 31 21 52.5t52 21.5 52.5-21.5T92 1077t-21.5-52-52.5-21-52 21-21 52zm340 0q0 31 21 52.5t52 21.5 52.5-21.5T432 1077t-21.5-52-52.5-21-52 21-21 52z"/><glyph glyph-name="eth" unicode="ð" horiz-adv-x="1056" d="M215 1303l10 75q132-13 236-59 88-37 178-107l299 101 25-72-261-86q94-91 148-190 57-103 85-232.5T963 487q0-255-134-389Q708-23 530-23 348-23 227 98q-62 62-97.5 149T94 434q0 205 131 336 121 125 312 125 192 0 301-160h4q-20 111-80 213-62 105-150 176l-331-108-25 69 287 95q-142 95-328 123zm662-857q0 176-109 281-90 90-231 90-151 0-248-102-109-112-109-285 0-163 101-268 47-48 111.5-77.5T530 55q135 0 230 92 117 114 117 299z"/><glyph glyph-name="ntilde" unicode="ñ" horiz-adv-x="905" d="M147 0v836h82V705q83 149 256 149 52 0 95.5-13.5t71-35 41.5-37 24-31.5q41-65 41-211V0h-82v526q0 118-33 168-48 82-164 82-139 0-205-117-45-80-45-225V0h-82zm99 997l-53 39q18 52 47 78 39 39 94 39 15 0 31.5-3t35-9.5 29-10.5 30-12.5 21.5-9.5q66-27 97-27 33 0 55 25 7 9 14.5 21.5t11 20.5 3.5 9l51-41q-16-47-54-82-41-35-92-35-37 0-118 35-6 2-23 9t-22.5 9.5-18.5 7-20.5 6.5-17.5 3.5-19 1.5q-37 0-58-24-16-20-24-50z"/><glyph glyph-name="ograve" unicode="ò" horiz-adv-x="1064" d="M532 854q186 0 312.5-126T971 416 844.5 103.5 532-23 220 103.5 94 416t126 312 312 126zm0-799q150 0 251.5 104T885 416 783.5 672.5 532 776 281 672.5 180 416t101-257T532 55zm37 901l-215 263 88 51 189-281z"/><glyph glyph-name="oacute" unicode="ó" horiz-adv-x="1064" d="M532 854q186 0 312.5-126T971 416 844.5 103.5 532-23 220 103.5 94 416t126 312 312 126zm0-799q150 0 251.5 104T885 416 783.5 672.5 532 776 281 672.5 180 416t101-257T532 55zm93 1215l88-51-215-263-62 33z"/><glyph glyph-name="ocircumflex" unicode="ô" horiz-adv-x="1064" d="M532 854q186 0 312.5-126T971 416 844.5 103.5 532-23 220 103.5 94 416t126 312 312 126zm0-799q150 0 251.5 104T885 416 783.5 672.5 532 776 281 672.5 180 416t101-257T532 55zm0 1041L348 956l-65 52 249 192 250-192-65-52z"/><glyph glyph-name="otilde" unicode="õ" horiz-adv-x="1064" d="M532 854q186 0 312.5-126T971 416 844.5 103.5 532-23 220 103.5 94 416t126 312 312 126zm0-799q150 0 251.5 104T885 416 783.5 672.5 532 776 281 672.5 180 416t101-257T532 55zM326 997l-54 39q18 52 47 78 39 39 95 39 15 0 31.5-3t35-9.5 29-10.5 30-12.5 21.5-9.5q66-27 96-27 34 0 56 25 7 9 14 21.5t10.5 20.5 3.5 9l52-41q-16-47-54-82-41-35-92-35-38 0-119 35-7 3-22.5 9.5t-22.5 9-19 7-19.5 6.5-17.5 3.5-19 1.5q-37 0-58-24-16-20-24-50z"/><glyph glyph-name="odieresis" unicode="ö" horiz-adv-x="1064" d="M532 854q186 0 312.5-126T971 416 844.5 103.5 532-23 220 103.5 94 416t126 312 312 126zm0-799q150 0 251.5 104T885 416 783.5 672.5 532 776 281 672.5 180 416t101-257T532 55zM289 1077q0 31 21 52.5t52 21.5 52.5-21.5T436 1077t-21.5-52-52.5-21-52 21-21 52zm340 0q0 31 21 52.5t52 21.5 52.5-21.5T776 1077t-21.5-52-52.5-21-52 21-21 52z"/><glyph glyph-name="divide" unicode="÷" d="M440 1061q0 29 21.5 50.5T512 1133t50.5-21.5T584 1061t-21.5-50.5T512 989t-50.5 21.5T440 1061zm0-774q0 29 21.5 50t50.5 21 50.5-21 21.5-50-21.5-50.5T512 215t-50.5 21.5T440 287zM68 635v78h888v-78H68z"/><glyph glyph-name="oslash" unicode="ø" horiz-adv-x="1067" d="M82 27l111 108Q96 259 96 416q0 186 126.5 312T535 854q163 0 278-96l109 108 51-51-109-106q109-122 109-293 0-186-126-312.5T535-23Q365-23 240 86L133-23zm725 622L299 145q97-90 236-90 150 0 251 104t101 257q0 135-80 233zM252 195l504 505q-97 76-221 76-150 0-251.5-103.5T182 416q0-127 70-221z"/><glyph glyph-name="ugrave" unicode="ù" horiz-adv-x="897" d="M147 836h82V332q0-144 54-209 57-68 166-68 108 0 165 68 54 65 54 209v504h82V309q0-146-64-229Q607-23 449-23 290-23 211 80q-64 83-64 229v527zm320 120l-215 263 88 51 188-281z"/><glyph glyph-name="uacute" unicode="ú" horiz-adv-x="897" d="M147 836h82V332q0-144 54-209 57-68 166-68 108 0 165 68 54 65 54 209v504h82V309q0-146-64-229Q607-23 449-23 290-23 211 80q-64 83-64 229v527zm414 434l88-51-215-263-61 33z"/><glyph glyph-name="ucircumflex" unicode="û" horiz-adv-x="897" d="M147 836h82V332q0-144 54-209 57-68 166-68 108 0 165 68 54 65 54 209v504h82V309q0-146-64-229Q607-23 449-23 290-23 211 80q-64 83-64 229v527zm302 260L264 956l-65 52 250 192 249-192-65-52z"/><glyph glyph-name="udieresis" unicode="ü" horiz-adv-x="897" d="M147 836h82V332q0-144 54-209 57-68 166-68 108 0 165 68 54 65 54 209v504h82V309q0-146-64-229Q607-23 449-23 290-23 211 80q-64 83-64 229v527zm58 241q0 31 21.5 52.5T279 1151t52-21.5 21-52.5-21-52-52-21-52.5 21-21.5 52zm340 0q0 31 21 52.5t52 21.5 52.5-21.5T692 1077t-21.5-52-52.5-21-52 21-21 52z"/><glyph glyph-name="yacute" unicode="ý" horiz-adv-x="876" d="M217-471L414-14 16 836h95L461 92l305 744h94L311-471h-94zm334 1741l88-51-215-263-62 33z"/><glyph glyph-name="thorn" unicode="þ" horiz-adv-x="1056" d="M229 150v-621h-82v1964h82V690q120 164 328 164 185 0 295.5-122T963 424q0-92-28.5-173.5t-80.5-142-130-96T553-23q-72 0-132.5 20T321 49.5t-58.5 55T229 150zm322-95q153 0 239.5 104.5T877 424q0 165-94 258.5T553 776q-63 0-121-22.5T327.5 689 253 579.5 225 428q0-163 86.5-268T551 55z"/><glyph glyph-name="ydieresis" unicode="ÿ" horiz-adv-x="876" d="M217-471L414-14 16 836h95L461 92l305 744h94L311-471h-94zm-22 1548q0 31 21 52.5t52 21.5 52.5-21.5T342 1077t-21.5-52-52.5-21-52 21-21 52zm340 0q0 31 21 52.5t52 21.5 52.5-21.5T682 1077t-21.5-52-52.5-21-52 21-21 52z"/><glyph glyph-name="Amacron" unicode="Ā" horiz-adv-x="1200" d="M1073 0L891 449H309L127 0H29l575 1407L1171 0h-98zM342 530h516l-256 648zm-18 1006v90h553v-90H324z"/><glyph glyph-name="amacron" unicode="ā" horiz-adv-x="1056" d="M827 690v146h82V0h-82v150Q768 60 681 18.5T502-23q-82 0-156 31T216 94.5 127 234 94 418q0 194 112.5 315T502 854q209 0 325-164zm-321 86q-133 0-229.5-95T180 424q0-96 37-179t113.5-136.5T508 55q76 0 138.5 30.5t102 82 61 117.5T831 424q0 89-30 159t-79 110.5T617.5 755 506 776zm-258 234v80h553v-80H248z"/><glyph glyph-name="Abreve" unicode="Ă" horiz-adv-x="1200" d="M1073 0L891 449H309L127 0H29l575 1407L1171 0h-98zM342 530h516l-256 648zm-2 1162h82q11-42 49-70 48-37 129-37t129 37q38 28 49 70h82q-9-69-59-119-74-74-201-74t-201 74q-50 50-59 119z"/><glyph glyph-name="abreve" unicode="ă" horiz-adv-x="1056" d="M827 690v146h82V0h-82v150Q768 60 681 18.5T502-23q-82 0-156 31T216 94.5 127 234 94 418q0 194 112.5 315T502 854q209 0 325-164zm-321 86q-133 0-229.5-95T180 424q0-96 37-179t113.5-136.5T508 55q76 0 138.5 30.5t102 82 61 117.5T831 424q0 89-30 159t-79 110.5T617.5 755 506 776zm-236 398h78q10-46 51-76 52-39 127-39t127 39q42 31 52 76h77q-8-68-59-119-74-74-197-74-122 0-196 74-52 52-60 119z"/><glyph glyph-name="Aogonek" unicode="Ą" horiz-adv-x="1200" d="M1073 0L891 449H309L127 0H29l575 1407L1171 0q-56-38-94-86-45-58-45-113 0-44 31-72t92-28q47 0 107 18l-19-75q-49-17-92-17-91 0-148 48t-57 122q0 68 47 127 35 44 88 76h-8zM342 530h516l-256 648z"/><glyph glyph-name="aogonek" unicode="ą" horiz-adv-x="1056" d="M827 690v146h82V0q-56-38-94-86-45-58-45-113 0-44 31-72t92-28q46 0 106 18l-18-73q-42-17-92-17-97 0-147 51t-50 117q0 68 47 127 35 44 88 76v150Q768 60 681 18.5T502-23q-82 0-156 31T216 94.5 127 234 94 418q0 194 112.5 315T502 854q209 0 325-164zm-321 86q-133 0-229.5-95T180 424q0-96 37-179t113.5-136.5T508 55q76 0 138.5 30.5t102 82 61 117.5T831 424q0 89-30 159t-79 110.5T617.5 755 506 776z"/><glyph glyph-name="Cacute" unicode="Ć" horiz-adv-x="1388" d="M1278 1206v-119q-88 103-208.5 159.5T817 1303q-129 0-243-49.5t-194.5-134-127.5-200T205 676q0-117 37.5-219.5t99.5-174 142-123 165.5-76T819 59q115 0 238.5 50.5T1278 266V147q-99-87-217.5-128.5T823-23q-200 0-364.5 96t-256 257T111 680q0 193 94.5 355t257 255.5T819 1384q74 0 144-15.5t118-35.5 93-48 65.5-45 38.5-34zm-365 543l103-51-275-258-65 37z"/><glyph glyph-name="cacute" unicode="ć" horiz-adv-x="905" d="M817 748V639Q697 776 528 776q-152 0-250-103.5T180 414q0-86 30.5-156.5t81-113.5T402 78t122-23q166 0 303 150V94Q696-23 522-23q-188 0-308 124T94 412q0 191 118.5 316.5T528 854q162 0 289-106zm-192 522l88-51-215-263-62 33z"/><glyph glyph-name="Ccircumflex" unicode="Ĉ" horiz-adv-x="1388" d="M1278 1206v-119q-88 103-208.5 159.5T817 1303q-129 0-243-49.5t-194.5-134-127.5-200T205 676q0-117 37.5-219.5t99.5-174 142-123 165.5-76T819 59q115 0 238.5 50.5T1278 266V147q-99-87-217.5-128.5T823-23q-200 0-364.5 96t-256 257T111 680q0 193 94.5 355t257 255.5T819 1384q74 0 144-15.5t118-35.5 93-48 65.5-45 38.5-34zm-459 404l-196-131-70 55 266 184 266-184-69-55z"/><glyph glyph-name="ccircumflex" unicode="ĉ" horiz-adv-x="905" d="M817 748V639Q697 776 528 776q-152 0-250-103.5T180 414q0-86 30.5-156.5t81-113.5T402 78t122-23q166 0 303 150V94Q696-23 522-23q-188 0-308 124T94 412q0 191 118.5 316.5T528 854q162 0 289-106zm-285 348L348 956l-65 52 249 192 250-192-65-52z"/><glyph glyph-name="Cdotaccent" unicode="Ċ" horiz-adv-x="1388" d="M1278 1206v-119q-88 103-208.5 159.5T817 1303q-129 0-243-49.5t-194.5-134-127.5-200T205 676q0-117 37.5-219.5t99.5-174 142-123 165.5-76T819 59q115 0 238.5 50.5T1278 266V147q-99-87-217.5-128.5T823-23q-200 0-364.5 96t-256 257T111 680q0 193 94.5 355t257 255.5T819 1384q74 0 144-15.5t118-35.5 93-48 65.5-45 38.5-34zm-539 393q0 37 23.5 60.5T823 1683t60.5-23.5T907 1599t-23.5-60-60.5-23-60.5 23-23.5 60z"/><glyph glyph-name="cdotaccent" unicode="ċ" horiz-adv-x="905" d="M817 748V639Q697 776 528 776q-152 0-250-103.5T180 414q0-86 30.5-156.5t81-113.5T402 78t122-23q166 0 303 150V94Q696-23 522-23q-188 0-308 124T94 412q0 191 118.5 316.5T528 854q162 0 289-106zm-362 331q0 35 22.5 57.5T535 1159t57-22.5 22-57.5-22-57.5-57-22.5-57.5 22.5T455 1079z"/><glyph glyph-name="Ccaron" unicode="Č" horiz-adv-x="1388" d="M1278 1206v-119q-88 103-208.5 159.5T817 1303q-129 0-243-49.5t-194.5-134-127.5-200T205 676q0-117 37.5-219.5t99.5-174 142-123 165.5-76T819 59q115 0 238.5 50.5T1278 266V147q-99-87-217.5-128.5T823-23q-200 0-364.5 96t-256 257T111 680q0 193 94.5 355t257 255.5T819 1384q74 0 144-15.5t118-35.5 93-48 65.5-45 38.5-34zm-459 381l197 131 69-55-266-184-266 184 70 55z"/><glyph glyph-name="ccaron" unicode="č" horiz-adv-x="905" d="M817 748V639Q697 776 528 776q-152 0-250-103.5T180 414q0-86 30.5-156.5t81-113.5T402 78t122-23q166 0 303 150V94Q696-23 522-23q-188 0-308 124T94 412q0 191 118.5 316.5T528 854q162 0 289-106zm-285 311l185 139 65-53-250-193-249 193 65 53z"/><glyph glyph-name="Dcaron" unicode="Ď" horiz-adv-x="1265" d="M455 0H184v1366h271q313 0 503-190 101-101 149-234.5t48-259.5-48-258.5T958 190Q768 0 455 0zM274 1284V82h179q270 0 439 167t169 433q0 263-170 432.5T453 1284H274zm197 303l197 131 69-55-266-184-266 184 69 55z"/><glyph glyph-name="dcaron" unicode="ď" horiz-adv-x="1110" d="M827 690v803h82V0h-82v150Q769 60 681.5 18.5T504-23q-80 0-153 29T220 89t-92 140.5T94 422q0 110 35 195.5T223.5 753 354 828.5 504 854q208 0 323-164zm-323 86q-137 0-230.5-92.5T180 424q0-88 27.5-160T281 147.5 385.5 79 508 55q133 0 228 97.5T831 424q0 151-88 251.5T504 776zm483 289l94 328 90-29-127-320z"/><glyph glyph-name="Dcroat" unicode="Đ" horiz-adv-x="1265" d="M455 0H184v707H0v81h184v578h271q313 0 503-190 101-101 149-234.5t48-259.5-48-258.5T958 190Q768 0 455 0zM274 1284V788h279v-81H274V82h179q270 0 439 167t169 433q0 263-170 432.5T453 1284H274z"/><glyph glyph-name="dcroat" unicode="đ" horiz-adv-x="1056" d="M827 690v461H459v78h368v264h82v-264h148v-78H909V0h-82v150Q769 60 681.5 18.5T504-23q-80 0-153 29T220 89t-92 140.5T94 422q0 110 35 195.5T223.5 753 354 828.5 504 854q208 0 323-164zm-323 86q-137 0-230.5-92.5T180 424q0-88 27.5-160T281 147.5 385.5 79 508 55q133 0 228 97.5T831 424q0 151-88 251.5T504 776z"/><glyph glyph-name="Emacron" unicode="Ē" horiz-adv-x="950" d="M840 1366v-82H274V788h553v-81H274V82h566V0H184v1366h656zm-604 170v90h552v-90H236z"/><glyph glyph-name="emacron" unicode="ē" horiz-adv-x="989" d="M895 408H180q0-155 98-254t234-99q98 0 174 52t117 139l69-41q-21-40-50-76t-72.5-72.5-107-58T506-23q-190 0-301 124T94 414q0 105 34.5 190.5t92 139 129.5 82T500 854q171 0 283-124.5T895 408zm-709 77h623q-15 126-100.5 208.5T500 776q-124 0-210-83T186 485zm35 525v80h553v-80H221z"/><glyph glyph-name="Edotaccent" unicode="Ė" horiz-adv-x="950" d="M840 1366v-82H274V788h553v-81H274V82h566V0H184v1366h656zm-412 233q0 37 23.5 60.5T512 1683t60.5-23.5T596 1599t-23.5-60-60.5-23-60.5 23-23.5 60z"/><glyph glyph-name="edotaccent" unicode="ė" horiz-adv-x="989" d="M895 408H180q0-155 98-254t234-99q98 0 174 52t117 139l69-41q-21-40-50-76t-72.5-72.5-107-58T506-23q-190 0-301 124T94 414q0 105 34.5 190.5t92 139 129.5 82T500 854q171 0 283-124.5T895 408zm-709 77h623q-15 126-100.5 208.5T500 776q-124 0-210-83T186 485zm232 594q0 35 22.5 57.5T498 1159t57.5-22.5T578 1079t-22.5-57.5T498 999t-57.5 22.5T418 1079z"/><glyph glyph-name="Eogonek" unicode="Ę" horiz-adv-x="950" d="M840 1366v-82H274V788h553v-81H274V82h566V0h-82Q618-94 618-197q0-47 29-73 31-29 101-29 55 0 100 18l-19-75q-47-17-92-17-103 0-159 58-46 48-46 112 0 67 48 127 35 44 88 76H184v1366h656z"/><glyph glyph-name="eogonek" unicode="ę" horiz-adv-x="993" d="M899 408H180q0-80 27.5-146.5T276 152q42-44 105-70.5T512 55q98 0 180 56 67 49 111 135l69-41Q804 77 649-4q-81-42-121-88-41-47-41-107 0-50 35-75 32-25 88-25 44 0 107 18l-19-73q-42-17-92-17-95 0-149 54-47 47-47 114 0 52 32 105 25 42 70 75-189 0-301 115Q94 211 94 414q0 202 123 325 53 52 128 83.5T500 854q76 0 148-27t124-77q127-127 127-342zm-713 77h619q-8 58-33.5 115T705 696q-83 80-205 80-132 0-215-86-79-79-99-205z"/><glyph glyph-name="Ecaron" unicode="Ě" horiz-adv-x="950" d="M840 1366v-82H274V788h553v-81H274V82h566V0H184v1366h656zm-328 221l197 131 69-55-266-184-266 184 69 55z"/><glyph glyph-name="ecaron" unicode="ě" horiz-adv-x="989" d="M895 408H180q0-155 98-254t234-99q98 0 174 52t117 139l69-41q-21-40-50-76t-72.5-72.5-107-58T506-23q-190 0-301 124T94 414q0 105 34.5 190.5t92 139 129.5 82T500 854q171 0 283-124.5T895 408zm-709 77h623q-15 126-100.5 208.5T500 776q-124 0-210-83T186 485zm312 574l184 139 66-53-250-193-250 193 65 53z"/><glyph glyph-name="Gcircumflex" unicode="Ĝ" horiz-adv-x="1581" d="M897 573v82h573q0-272-139-448-89-114-222-172T817-23q-198 0-359.5 90t-254 251T111 680q0 199 95 361t257.5 252.5T823 1384q238 0 428-147 96-76 164-172l-72-57q-48 82-131 151-172 144-391 144-172 0-313.5-83.5T285.5 992 205 676q0-169 78.5-310.5t218.5-224T815 59q162 0 287.5 68.5T1290 291q39 60 63 137t27 145H897zm-78 1037l-196-131-70 55 266 184 266-184-69-55z"/><glyph glyph-name="gcircumflex" unicode="ĝ" horiz-adv-x="1064" d="M836 836h82V25q0-235-111.5-365.5T498-471q-170 0-286.5 95.5T88-113h86q10-129 99.5-204.5T498-393q68 0 122.5 19.5t89 48 60 70.5 37.5 78.5T826.5-95t8.5 69 1 51v118Q776 59 688.5 18T506-23q-78 0-151 28.5t-131.5 82-94 139.5T94 418q0 122 50 220.5t147 157T516 854q101 0 183-43t137-121v146zm-328-60q-150 0-239-105.5T180 414q0-154 89.5-256.5T504 55q152 0 244 104.5T840 422q0 151-91 252.5T508 776zm4 320L328 956l-66 52 250 192 250-192-66-52z"/><glyph glyph-name="Gbreve" unicode="Ğ" horiz-adv-x="1581" d="M897 573v82h573q0-272-139-448-89-114-222-172T817-23q-198 0-359.5 90t-254 251T111 680q0 199 95 361t257.5 252.5T823 1384q238 0 428-147 96-76 164-172l-72-57q-48 82-131 151-172 144-391 144-172 0-313.5-83.5T285.5 992 205 676q0-169 78.5-310.5t218.5-224T815 59q162 0 287.5 68.5T1290 291q39 60 63 137t27 145H897zM559 1692h82q11-42 49-70 48-37 129-37t129 37q38 28 49 70h82q-9-69-59-119-74-74-201-74t-201 74q-50 50-59 119z"/><glyph glyph-name="gbreve" unicode="ğ" horiz-adv-x="1064" d="M836 836h82V25q0-235-111.5-365.5T498-471q-170 0-286.5 95.5T88-113h86q10-129 99.5-204.5T498-393q68 0 122.5 19.5t89 48 60 70.5 37.5 78.5T826.5-95t8.5 69 1 51v118Q776 59 688.5 18T506-23q-78 0-151 28.5t-131.5 82-94 139.5T94 418q0 122 50 220.5t147 157T516 854q101 0 183-43t137-121v146zm-328-60q-150 0-239-105.5T180 414q0-154 89.5-256.5T504 55q152 0 244 104.5T840 422q0 151-91 252.5T508 776zm-252 398h78q10-46 51-76 52-39 127-39t127 39q41 30 51 76h78q-8-68-59-119-74-74-197-74t-197 74q-51 51-59 119z"/><glyph glyph-name="Gdotaccent" unicode="Ġ" horiz-adv-x="1581" d="M897 573v82h573q0-272-139-448-89-114-222-172T817-23q-198 0-359.5 90t-254 251T111 680q0 199 95 361t257.5 252.5T823 1384q238 0 428-147 96-76 164-172l-72-57q-48 82-131 151-172 144-391 144-172 0-313.5-83.5T285.5 992 205 676q0-169 78.5-310.5t218.5-224T815 59q162 0 287.5 68.5T1290 291q39 60 63 137t27 145H897zM741 1599q0 37 23.5 60.5T825 1683t60.5-23.5T909 1599t-23.5-60-60.5-23-60.5 23-23.5 60z"/><glyph glyph-name="gdotaccent" unicode="ġ" horiz-adv-x="1064" d="M836 836h82V25q0-235-111.5-365.5T498-471q-170 0-286.5 95.5T88-113h86q10-129 99.5-204.5T498-393q68 0 122.5 19.5t89 48 60 70.5 37.5 78.5T826.5-95t8.5 69 1 51v118Q776 59 688.5 18T506-23q-78 0-151 28.5t-131.5 82-94 139.5T94 418q0 122 50 220.5t147 157T516 854q101 0 183-43t137-121v146zm-328-60q-150 0-239-105.5T180 414q0-154 89.5-256.5T504 55q152 0 244 104.5T840 422q0 151-91 252.5T508 776zm-72 303q0 35 22.5 57.5T516 1159t57.5-22.5T596 1079t-22.5-57.5T516 999t-57.5 22.5T436 1079z"/><glyph glyph-name="Gcommaaccent" unicode="Ģ" horiz-adv-x="1581" d="M897 573v82h573q0-272-139-448-89-114-222-172T817-23q-198 0-359.5 90t-254 251T111 680q0 199 95 361t257.5 252.5T823 1384q238 0 428-147 96-76 164-172l-72-57q-48 82-131 151-172 144-391 144-172 0-313.5-83.5T285.5 992 205 676q0-169 78.5-310.5t218.5-224T815 59q162 0 287.5 68.5T1290 291q39 60 63 137t27 145H897zM674-389l94 287 90-29-127-279z"/><glyph glyph-name="gcommaaccent" unicode="ģ" horiz-adv-x="1064" d="M836 836h82V25q0-235-111.5-365.5T498-471q-170 0-286.5 95.5T88-113h86q10-129 99.5-204.5T498-393q68 0 122.5 19.5t89 48 60 70.5 37.5 78.5T826.5-95t8.5 69 1 51v118Q776 59 688.5 18T506-23q-78 0-151 28.5t-131.5 82-94 139.5T94 418q0 122 50 220.5t147 157T516 854q101 0 183-43t137-121v146zm-328-60q-150 0-239-105.5T180 414q0-154 89.5-256.5T504 55q152 0 244 104.5T840 422q0 151-91 252.5T508 776zm156 520l-95-286-90 28 127 279z"/><glyph glyph-name="Hcircumflex" unicode="Ĥ" horiz-adv-x="1376" d="M274 1366V786h828v580h90V0h-90v705H274V0h-90v1366h90zm414 244l-196-131-70 55 266 184 266-184-69-55z"/><glyph glyph-name="hcircumflex" unicode="ĥ" horiz-adv-x="905" d="M147 0v1493h82V705q83 149 256 149 52 0 95.5-13.5t71-35 41.5-37 24-31.5q41-65 41-211V0h-82v526q0 118-33 168-48 82-164 82-139 0-205-117-45-80-45-225V0h-82zm37 1587L0 1448l-66 51 250 193 250-193-65-51z"/><glyph glyph-name="Hbar" unicode="Ħ" horiz-adv-x="1376" d="M274 1366v-111h828v111h90v-111h111v-69h-111V0h-90v705H274V0h-90v1186H74v69h110v111h90zm828-180H274V786h828v400z"/><glyph glyph-name="hbar" unicode="ħ" horiz-adv-x="905" d="M147 0v1151H0v78h147v264h82v-264h369v-78H229V705q83 149 256 149 52 0 95.5-13.5t71-35 41.5-37 24-31.5q41-65 41-211V0h-82v526q0 118-33 168-48 82-164 82-139 0-205-117-45-80-45-225V0h-82z"/><glyph glyph-name="Imacron" unicode="Ī" horiz-adv-x="458" d="M184 1366h90V0h-90v1366zM20 1536v90h418v-90H20z"/><glyph glyph-name="imacron" unicode="ī" horiz-adv-x="376" d="M147 836h82V0h-82v836zM25 1010v80h327v-80H25z"/><glyph glyph-name="Iogonek" unicode="Į" horiz-adv-x="458" d="M184 1366h90V0q-56-38-94-86-45-58-45-113 0-44 31-72t92-28q47 0 107 18l-19-75q-49-17-92-17-91 0-148 48T49-203q0 68 47 127 35 44 88 76v1366z"/><glyph glyph-name="iogonek" unicode="į" horiz-adv-x="376" d="M147 836h82V0q-56-38-94-86-45-58-45-113 0-44 31-72t92-28q46 0 106 18l-18-73q-43-17-92-17-97 0-147 51T12-203q0 68 47 127 35 44 88 76v836zm41 202q-31 0-52 21.5t-21 54.5 21 54.5 52 21.5 52.5-21.5T262 1114t-21.5-54.5T188 1038z"/><glyph glyph-name="Idotaccent" unicode="İ" horiz-adv-x="458" d="M184 1366h90V0h-90v1366zm-39 233q0 37 23.5 60.5T229 1683t60.5-23.5T313 1599t-23.5-60-60.5-23-60.5 23-23.5 60z"/><glyph glyph-name="dotlessi" unicode="ı" horiz-adv-x="376" d="M147 836h82V0h-82v836z"/><glyph glyph-name="Jcircumflex" unicode="Ĵ" horiz-adv-x="538" d="M264 1366h90V266q0-44-2.5-73.5t-18.5-75T287 41q-64-64-170-64-86 0-150 52-46 37-80 92l64 53q27-52 63-78 48-37 107-37t98 39q20 20 30.5 49t12.5 50.5 2 54.5v1114zm43 244l-196-131-70 55 266 184 266-184-69-55z"/><glyph glyph-name="jcircumflex" unicode="ĵ" horiz-adv-x="376" d="M147 836h82V-471h-82V836zm41 251L45 965l-61 53 204 176 205-176-61-53z"/><glyph glyph-name="Kcommaaccent" unicode="Ķ" horiz-adv-x="1105" d="M274 1366V723l646 643h118L377 713 1077 0H954L311 651l-37-35V0h-90v1366h90zM436-389l94 287 91-29-127-279z"/><glyph glyph-name="kcommaaccent" unicode="ķ" horiz-adv-x="811" d="M147 1493h82V477l344 359h107L328 473 795 0H684L272 414l-43-43V0h-82v1493zM287-389l94 287 90-29-127-279z"/><glyph glyph-name="Lacute" unicode="Ĺ" horiz-adv-x="684" d="M184 1366h90V82h381V0H184v1366zm293 383l103-51-275-258-65 37z"/><glyph glyph-name="lacute" unicode="ĺ" horiz-adv-x="376" d="M147 1493h82V0h-82v1493zm154 350l88-51-215-262-61 33z"/><glyph glyph-name="Lcommaaccent" unicode="Ļ" horiz-adv-x="684" d="M184 1366h90V82h381V0H184v1366zM313-389l95 287 90-29-127-279z"/><glyph glyph-name="lcommaaccent" unicode="ļ" horiz-adv-x="376" d="M147 1493h82V0h-82v1493zM70-389l94 287 90-29-127-279z"/><glyph glyph-name="Lcaron" unicode="Ľ" horiz-adv-x="684" d="M184 1366h90V82h381V0H184v1366zm291-301l94 328 90-29-127-320z"/><glyph glyph-name="lcaron" unicode="ľ" horiz-adv-x="430" d="M147 1493h82V0h-82v1493zm160-428l94 328 91-29-127-320z"/><glyph glyph-name="Ldot" unicode="Ŀ" horiz-adv-x="684" d="M184 1366h90V82h381V0H184v1366zm303-682q0 35 22.5 57.5T567 764t57.5-22.5T647 684t-22.5-57.5T567 604t-57.5 22.5T487 684z"/><glyph glyph-name="ldot" unicode="ŀ" horiz-adv-x="557" d="M147 1493h82V0h-82v1493zm240-745q0 35 22.5 57t57.5 22 57.5-22 22.5-57-22.5-57.5T467 668t-57.5 22.5T387 748z"/><glyph glyph-name="Lslash" unicode="Ł" horiz-adv-x="684" d="M184 1366h90V791l205 131v-91L274 700V82h381V0H184v651L0 532v91l184 118v625z"/><glyph glyph-name="lslash" unicode="ł" horiz-adv-x="376" d="M147 1493h82V983l148 115v-90L229 893V0h-82v844L0 729v90l147 115v559z"/><glyph glyph-name="Nacute" unicode="Ń" horiz-adv-x="1605" d="M274 0h-90v1380L1331 180v1186h90V-35L274 1165V0zm664 1749l102-51-274-258-66 37z"/><glyph glyph-name="nacute" unicode="ń" horiz-adv-x="905" d="M147 0v836h82V705q83 149 256 149 52 0 95.5-13.5t71-35 41.5-37 24-31.5q41-65 41-211V0h-82v526q0 118-33 168-48 82-164 82-139 0-205-117-45-80-45-225V0h-82zm418 1270l88-51-215-263-61 33z"/><glyph glyph-name="Ncommaaccent" unicode="Ņ" horiz-adv-x="1605" d="M274 0h-90v1380L1331 180v1186h90V-35L274 1165V0zm412-389l94 287 90-29-127-279z"/><glyph glyph-name="ncommaaccent" unicode="ņ" horiz-adv-x="905" d="M147 0v836h82V705q83 149 256 149 52 0 95.5-13.5t71-35 41.5-37 24-31.5q41-65 41-211V0h-82v526q0 118-33 168-48 82-164 82-139 0-205-117-45-80-45-225V0h-82zm187-389l94 287 90-29-127-279z"/><glyph glyph-name="Ncaron" unicode="Ň" horiz-adv-x="1605" d="M274 0h-90v1380L1331 180v1186h90V-35L274 1165V0zm529 1587l196 131 70-55-266-184-266 184 69 55z"/><glyph glyph-name="ncaron" unicode="ň" horiz-adv-x="905" d="M147 0v836h82V705q83 149 256 149 52 0 95.5-13.5t71-35 41.5-37 24-31.5q41-65 41-211V0h-82v526q0 118-33 168-48 82-164 82-139 0-205-117-45-80-45-225V0h-82zm345 1059l184 139 65-53-249-193-250 193 65 53z"/><glyph glyph-name="Omacron" unicode="Ō" horiz-adv-x="1638" d="M819 1384q196 0 359-93.5t256.5-255T1528 680q0-145-55-275t-149.5-224-226-149T819-23q-148 0-279.5 55T314 181 165.5 405 111 680t55 275.5T315 1180t225.5 149 278.5 55zm0-1325q130 0 244.5 48.5T1259 239t128 197.5 47 243.5q0 173-79.5 315.5t-221 225T819 1303t-314-82.5-220.5-225T205 680q0-172 79.5-314T505 141.5 819 59zM543 1536v90h553v-90H543z"/><glyph glyph-name="omacron" unicode="ō" horiz-adv-x="1064" d="M532 854q186 0 312.5-126T971 416 844.5 103.5 532-23 220 103.5 94 416t126 312 312 126zm0-799q150 0 251.5 104T885 416 783.5 672.5 532 776 281 672.5 180 416t101-257T532 55zm-276 955v80h553v-80H256z"/><glyph glyph-name="Obreve" unicode="Ŏ" horiz-adv-x="1638" d="M819 1384q196 0 359-93.5t256.5-255T1528 680q0-145-55-275t-149.5-224-226-149T819-23q-148 0-279.5 55T314 181 165.5 405 111 680t55 275.5T315 1180t225.5 149 278.5 55zm0-1325q130 0 244.5 48.5T1259 239t128 197.5 47 243.5q0 173-79.5 315.5t-221 225T819 1303t-314-82.5-220.5-225T205 680q0-172 79.5-314T505 141.5 819 59zM559 1692h82q11-42 49-70 48-37 129-37t129 37q38 28 49 70h82q-9-69-59-119-74-74-201-74t-201 74q-50 50-59 119z"/><glyph glyph-name="obreve" unicode="ŏ" horiz-adv-x="1064" d="M532 854q186 0 312.5-126T971 416 844.5 103.5 532-23 220 103.5 94 416t126 312 312 126zm0-799q150 0 251.5 104T885 416 783.5 672.5 532 776 281 672.5 180 416t101-257T532 55zM276 1174h78q10-45 52-76 52-39 126-39 75 0 127 39 42 31 52 76h77q-8-68-59-119-74-74-197-74-122 0-196 74-52 52-60 119z"/><glyph glyph-name="Ohungarumlaut" unicode="Ő" horiz-adv-x="1638" d="M819 1384q196 0 359-93.5t256.5-255T1528 680q0-145-55-275t-149.5-224-226-149T819-23q-148 0-279.5 55T314 181 165.5 405 111 680t55 275.5T315 1180t225.5 149 278.5 55zm0-1325q130 0 244.5 48.5T1259 239t128 197.5 47 243.5q0 173-79.5 315.5t-221 225T819 1303t-314-82.5-220.5-225T205 680q0-172 79.5-314T505 141.5 819 59zm-20 1690l106-53-205-256-73 30zm248 0l106-53-205-256-74 30z"/><glyph glyph-name="ohungarumlaut" unicode="ő" horiz-adv-x="1064" d="M532 854q186 0 312.5-126T971 416 844.5 103.5 532-23 220 103.5 94 416t126 312 312 126zm0-799q150 0 251.5 104T885 416 783.5 672.5 532 776 281 672.5 180 416t101-257T532 55zm-2 1215l86-51-202-263-56 33zm228 0l86-51-203-263-55 33z"/><glyph glyph-name="OE" unicode="Œ" horiz-adv-x="2195" d="M2085 1366v-82h-563V788h549v-81h-549V82h563V0h-653v350q-93-174-255-273.5T821-23q-143 0-275 56T318.5 183.5 166 408t-57 272q0 144 56.5 274.5T317 1179t226.5 149.5T819 1384q198 0 358.5-98.5T1432 1010v356h653zm-1264-63q-168 0-310.5-83.5t-225-227T203 680q0-166 82.5-309.5t224-227.5T817 59q124 0 237.5 50T1251 242.5 1383 441t49 239q0 82-24.5 167.5T1332 1015t-121.5 146-172 103-217.5 39z"/><glyph glyph-name="oe" unicode="œ" horiz-adv-x="1779" d="M1686 412H971q0-159 94-258t235-99q102 0 176.5 54T1591 248l68-41q-12-23-25.5-45t-46-58-70-62T1420-3.5 1292-23q-19 0-38 2t-56.5 8.5-72 23-72.5 42-72 70T924 225q-45-83-88-123-53-53-133-89T530-23q-180 0-308 128.5T94 414q0 183 128 311.5T532 854q167 0 299-117 50-45 93-129 44 116 141 181t221 65q174 0 287-123t113-319zm-709 77h622q-18 132-104.5 209.5T1288 776q-118 0-204.5-77T977 489zM530 776q-149 0-249.5-104.5T180 416q0-152 100-256.5T528 55q151 0 254 103t103 252q0 155-102 260.5T530 776z"/><glyph glyph-name="Racute" unicode="Ŕ" horiz-adv-x="958" d="M860 0H758L315 645h-41V0h-90v1366h197q91 0 159-14t130-56q141-98 141-292 0-112-55-202T582 672q-78-27-168-27zM274 1284V727h132q146 0 228.5 73.5T717 1006q0 93-36 151.5t-85 85.5q-71 41-209 41H274zm340 465l103-51-275-258-65 37z"/><glyph glyph-name="racute" unicode="ŕ" horiz-adv-x="532" d="M147 0v836h82V727q25 57 72.5 92T414 854q49 0 88-20l-41-74q-21 16-62 16-40 0-70.5-16T280 713t-29-60.5-15.5-73.5-5.5-68.5-1-61.5V0h-82zm273 1270l88-51-215-263-62 33z"/><glyph glyph-name="Rcommaaccent" unicode="Ŗ" horiz-adv-x="958" d="M860 0H758L315 645h-41V0h-90v1366h197q91 0 159-14t130-56q141-98 141-292 0-112-55-202T582 672q-78-27-168-27zM274 1284V727h132q146 0 228.5 73.5T717 1006q0 93-36 151.5t-85 85.5q-71 41-209 41H274zm88-1673l95 287 90-29-127-279z"/><glyph glyph-name="rcommaaccent" unicode="ŗ" horiz-adv-x="532" d="M147 0v836h82V727q25 57 72.5 92T414 854q49 0 88-20l-41-74q-21 16-62 16-40 0-70.5-16T280 713t-29-60.5-15.5-73.5-5.5-68.5-1-61.5V0h-82zm0-389l95 287 90-29-127-279z"/><glyph glyph-name="Rcaron" unicode="Ř" horiz-adv-x="958" d="M860 0H758L315 645h-41V0h-90v1366h197q91 0 159-14t130-56q141-98 141-292 0-112-55-202T582 672q-78-27-168-27zM274 1284V727h132q146 0 228.5 73.5T717 1006q0 93-36 151.5t-85 85.5q-71 41-209 41H274zm156 303l197 131 69-55-266-184-266 184 69 55z"/><glyph glyph-name="rcaron" unicode="ř" horiz-adv-x="532" d="M147 0v836h82V727q25 57 72.5 92T414 854q49 0 88-20l-41-74q-21 16-62 16-40 0-70.5-16T280 713t-29-60.5-15.5-73.5-5.5-68.5-1-61.5V0h-82zm160 1059l185 139 65-53-250-193-250 193 66 53z"/><glyph glyph-name="Sacute" unicode="Ś" horiz-adv-x="1052" d="M872 1190l-65-55q-29 57-70 94.5t-83.5 51.5-66.5 18-48 4q-117 0-185.5-73.5T285 1049q0-31 7-58t16-47 29-40 34.5-33 46-31 49.5-27.5 57-28.5q30-15 86.5-42t77.5-37.5 52.5-28T797 641q28-19 48.5-38t45-51 38-76.5T942 377q0-170-124.5-285T516-23q-193 0-317 144-61 70-88 149l77 37q23-67 74-131 44-57 113.5-87T518 59q139 0 234.5 91T848 375 715 590q-59 35-232 119-115 56-166 91t-84 89q-43 71-43 155 0 49 13 96.5t41 91.5 68 78 99 54 130 20q105 0 192.5-49.5T872 1190zm-184 559l103-51-275-258-65 37z"/><glyph glyph-name="sacute" unicode="ś" horiz-adv-x="684" d="M573 719l-69-37q-21 47-60 70.5T358 776q-66 0-103.5-41T217 643q0-24 8.5-43.5t19-32 34-26 38.5-20 48-19.5q10-4 40.5-15.5t42-16.5 35.5-16 37.5-20.5 30-24T580 379q43-53 43-135 0-68-24-121t-64.5-84T447-7.5 350-23q-106 0-184.5 59.5T61 199l80 24q21-80 79-124t130-44q80 0 133.5 52T537 240q0 66-41.5 102T350 420q-52 22-78.5 34t-56 32.5T168 530q-37 51-37 109 0 94 63.5 154.5T354 854q75 0 132.5-34.5T573 719zm-88 551l88-51-215-263-61 33z"/><glyph glyph-name="Scircumflex" unicode="Ŝ" horiz-adv-x="1052" d="M872 1190l-65-55q-29 57-70 94.5t-83.5 51.5-66.5 18-48 4q-117 0-185.5-73.5T285 1049q0-31 7-58t16-47 29-40 34.5-33 46-31 49.5-27.5 57-28.5q30-15 86.5-42t77.5-37.5 52.5-28T797 641q28-19 48.5-38t45-51 38-76.5T942 377q0-170-124.5-285T516-23q-193 0-317 144-61 70-88 149l77 37q23-67 74-131 44-57 113.5-87T518 59q139 0 234.5 91T848 375 715 590q-59 35-232 119-115 56-166 91t-84 89q-43 71-43 155 0 49 13 96.5t41 91.5 68 78 99 54 130 20q105 0 192.5-49.5T872 1190zm-319 420l-197-131-69 55 266 184 266-184-69-55z"/><glyph glyph-name="scircumflex" unicode="ŝ" horiz-adv-x="684" d="M573 719l-69-37q-21 47-60 70.5T358 776q-66 0-103.5-41T217 643q0-24 8.5-43.5t19-32 34-26 38.5-20 48-19.5q10-4 40.5-15.5t42-16.5 35.5-16 37.5-20.5 30-24T580 379q43-53 43-135 0-68-24-121t-64.5-84T447-7.5 350-23q-106 0-184.5 59.5T61 199l80 24q21-80 79-124t130-44q80 0 133.5 52T537 240q0 66-41.5 102T350 420q-52 22-78.5 34t-56 32.5T168 530q-37 51-37 109 0 94 63.5 154.5T354 854q75 0 132.5-34.5T573 719zm-213 377L176 956l-65 52 249 192 250-192-65-52z"/><glyph glyph-name="Scedilla" unicode="Ş" horiz-adv-x="1052" d="M872 1190l-65-55q-29 57-70 94.5t-83.5 51.5-66.5 18-48 4q-117 0-185.5-73.5T285 1049q0-31 7-58t16-47 29-40 34.5-33 46-31 49.5-27.5 57-28.5q30-15 86.5-42t77.5-37.5 52.5-28T797 641q28-19 48.5-38t45-51 38-76.5T942 377q0-170-124.5-285T516-23q-193 0-317 144-61 70-88 149l77 37q23-67 74-131 44-57 113.5-87T518 59q139 0 234.5 91T848 375 715 590q-59 35-232 119-115 56-166 91t-84 89q-43 71-43 155 0 49 13 96.5t41 91.5 68 78 99 54 130 20q105 0 192.5-49.5T872 1190zM512-102l94-54-221-258-61 37z"/><glyph glyph-name="scedilla" unicode="ş" horiz-adv-x="684" d="M573 719l-69-37q-21 47-60 70.5T358 776q-66 0-103.5-41T217 643q0-24 8.5-43.5t19-32 34-26 38.5-20 48-19.5q10-4 40.5-15.5t42-16.5 35.5-16 37.5-20.5 30-24T580 379q43-53 43-135 0-68-24-121t-64.5-84T447-7.5 350-23q-106 0-184.5 59.5T61 199l80 24q21-80 79-124t130-44q80 0 133.5 52T537 240q0 66-41.5 102T350 420q-52 22-78.5 34t-56 32.5T168 530q-37 51-37 109 0 94 63.5 154.5T354 854q75 0 132.5-34.5T573 719zM348-102l94-41-204-254-58 32z"/><glyph glyph-name="Scaron" unicode="Š" horiz-adv-x="1052" d="M872 1190l-65-55q-29 57-70 94.5t-83.5 51.5-66.5 18-48 4q-117 0-185.5-73.5T285 1049q0-31 7-58t16-47 29-40 34.5-33 46-31 49.5-27.5 57-28.5q30-15 86.5-42t77.5-37.5 52.5-28T797 641q28-19 48.5-38t45-51 38-76.5T942 377q0-170-124.5-285T516-23q-193 0-317 144-61 70-88 149l77 37q23-67 74-131 44-57 113.5-87T518 59q139 0 234.5 91T848 375 715 590q-59 35-232 119-115 56-166 91t-84 89q-43 71-43 155 0 49 13 96.5t41 91.5 68 78 99 54 130 20q105 0 192.5-49.5T872 1190zm-335 397l196 131 70-55-266-184-267 184 70 55z"/><glyph glyph-name="scaron" unicode="š" horiz-adv-x="684" d="M573 719l-69-37q-21 47-60 70.5T358 776q-66 0-103.5-41T217 643q0-24 8.5-43.5t19-32 34-26 38.5-20 48-19.5q10-4 40.5-15.5t42-16.5 35.5-16 37.5-20.5 30-24T580 379q43-53 43-135 0-68-24-121t-64.5-84T447-7.5 350-23q-106 0-184.5 59.5T61 199l80 24q21-80 79-124t130-44q80 0 133.5 52T537 240q0 66-41.5 102T350 420q-52 22-78.5 34t-56 32.5T168 530q-37 51-37 109 0 94 63.5 154.5T354 854q75 0 132.5-34.5T573 719zm-217 340l185 139 65-53-250-193-250 193 66 53z"/><glyph glyph-name="Tcedilla" unicode="Ţ" horiz-adv-x="856" d="M827 1284H473V0h-90v1284H29v82h798v-82zM430-102l94-54-221-258-61 37z"/><glyph glyph-name="tcedilla" unicode="ţ" horiz-adv-x="397" d="M381 758H236V0h-82v758H61v78h93v299h82V836h145v-78zM180-102l94-41L70-397l-58 32z"/><glyph glyph-name="Tcaron" unicode="Ť" horiz-adv-x="856" d="M827 1284H473V0h-90v1284H29v82h798v-82zm-399 303l197 131 69-55-266-184-266 184 69 55z"/><glyph glyph-name="tcaron" unicode="ť" horiz-adv-x="421" d="M381 758H236V0h-82v758H61v78h93v299h82V836h145v-78zm-82 307l94 328 90-29-127-320z"/><glyph glyph-name="Utilde" unicode="Ũ" horiz-adv-x="1298" d="M184 1366h90V512q0-108 11-173t47-122q28-46 69.5-79T488 89t84.5-23 76.5-7q85 0 174.5 36T967 217q36 57 46.5 121.5T1024 512v854h90V512q0-127-14.5-203T1036 162Q910-23 649-23T262 162q-49 71-63.5 147T184 512v854zm258 102l-59 45q22 50 47 78 42 45 92 45t131-34q12-5 35-14t33-12.5 25-7 28-3.5q27 0 51 24 23 26 31 53l59-45q-18-54-57-88t-94-34q-41 0-119 34-4 2-22.5 9.5T596 1529t-22.5 8-25.5 7-22 2q-35 0-57-28-12-15-27-50z"/><glyph glyph-name="utilde" unicode="ũ" horiz-adv-x="897" d="M147 836h82V332q0-144 54-209 57-68 166-68 108 0 165 68 54 65 54 209v504h82V309q0-146-64-229Q607-23 449-23 290-23 211 80q-64 83-64 229v527zm95 161l-54 39q17 50 48 78 39 39 94 39 15 0 31.5-3t35-9.5 29-10.5 30-12.5 21.5-9.5q66-27 96-27 34 0 56 25 7 9 14 21.5t10.5 20.5 3.5 9l52-41q-16-47-54-82-41-35-92-35-38 0-119 35-7 3-22.5 9.5t-22.5 9-19 7-19.5 6.5-17.5 3.5-19 1.5q-37 0-58-24-16-20-24-50z"/><glyph glyph-name="Umacron" unicode="Ū" horiz-adv-x="1298" d="M184 1366h90V512q0-108 11-173t47-122q28-46 69.5-79T488 89t84.5-23 76.5-7q85 0 174.5 36T967 217q36 57 46.5 121.5T1024 512v854h90V512q0-127-14.5-203T1036 162Q910-23 649-23T262 162q-49 71-63.5 147T184 512v854zm189 170v90h553v-90H373z"/><glyph glyph-name="umacron" unicode="ū" horiz-adv-x="897" d="M147 836h82V332q0-144 54-209 57-68 166-68 108 0 165 68 54 65 54 209v504h82V309q0-146-64-229Q607-23 449-23 290-23 211 80q-64 83-64 229v527zm25 174v80h553v-80H172z"/><glyph glyph-name="Ubreve" unicode="Ŭ" horiz-adv-x="1298" d="M184 1366h90V512q0-108 11-173t47-122q28-46 69.5-79T488 89t84.5-23 76.5-7q85 0 174.5 36T967 217q36 57 46.5 121.5T1024 512v854h90V512q0-127-14.5-203T1036 162Q910-23 649-23T262 162q-49 71-63.5 147T184 512v854zm205 326h82q11-42 49-70 48-37 129-37t129 37q38 28 49 70h82q-9-69-59-119-74-74-201-74-126 0-200 74-51 51-60 119z"/><glyph glyph-name="ubreve" unicode="ŭ" horiz-adv-x="897" d="M147 836h82V332q0-144 54-209 57-68 166-68 108 0 165 68 54 65 54 209v504h82V309q0-146-64-229Q607-23 449-23 290-23 211 80q-64 83-64 229v527zm46 338h77q10-45 52-76 52-39 127-39 74 0 126 39 42 31 52 76h78q-8-67-60-119-74-74-196-74-123 0-197 74-51 51-59 119z"/><glyph glyph-name="Uring" unicode="Ů" horiz-adv-x="1298" d="M184 1366h90V512q0-108 11-173t47-122q28-46 69.5-79T488 89t84.5-23 76.5-7q85 0 174.5 36T967 217q36 57 46.5 121.5T1024 512v854h90V512q0-127-14.5-203T1036 162Q910-23 649-23T262 162q-49 71-63.5 147T184 512v854zm301 246q0 68 48.5 116t115.5 48 115.5-48 48.5-116-48.5-116-115.5-48-115.5 48-48.5 116zm80 0q0-37 23.5-60.5T649 1528t60.5 23.5T733 1612t-23.5 60.5T649 1696t-60.5-23.5T565 1612z"/><glyph glyph-name="uring" unicode="ů" horiz-adv-x="897" d="M147 836h82V332q0-144 54-209 57-68 166-68 108 0 165 68 54 65 54 209v504h82V309q0-146-64-229Q607-23 449-23 290-23 211 80q-64 83-64 229v527zm144 288q0 68 45.5 113t112.5 45 112-45 45-113-45-112.5T449 967q-68 0-113 45t-45 112zm74 0q0-37 23.5-60.5T449 1040t60 23.5 23 60.5-23 60.5-60 23.5-60.5-23.5T365 1124z"/><glyph glyph-name="Uhungarumlaut" unicode="Ű" horiz-adv-x="1298" d="M184 1366h90V512q0-108 11-173t47-122q28-46 69.5-79T488 89t84.5-23 76.5-7q85 0 174.5 36T967 217q36 57 46.5 121.5T1024 512v854h90V512q0-127-14.5-203T1036 162Q910-23 649-23T262 162q-49 71-63.5 147T184 512v854zm445 383l106-53-205-256-73 30zm248 0l106-53-205-256-73 30z"/><glyph glyph-name="uhungarumlaut" unicode="ű" horiz-adv-x="897" d="M147 836h82V332q0-144 54-209 57-68 166-68 108 0 165 68 54 65 54 209v504h82V309q0-146-64-229Q607-23 449-23 290-23 211 80q-64 83-64 229v527zm299 434l86-51-202-263-56 33zm228 0l86-51-203-263-55 33z"/><glyph glyph-name="Uogonek" unicode="Ų" horiz-adv-x="1298" d="M184 1366h90V492q0-111 20-191t83-141q50-48 121.5-74.5T649 59q172 0 277 105 34 35 55.5 77t30 93 10.5 86 2 92v854h90V512q0-127-14.5-203T1036 162q-38-55-77-85.5T850 8q-96-51-131-92-47-53-47-115 0-40 24-67 28-33 99-33 61 0 106 18l-18-75q-49-17-92-17-100 0-158 56-47 44-47 114 0 51 35 109 29 46 69 74-130 0-219 25.5T309 104q-76 76-100.5 165T184 492v874z"/><glyph glyph-name="uogonek" unicode="ų" horiz-adv-x="897" d="M147 836h82V332q0-144 54-209 57-68 166-68 108 0 165 68 54 65 54 209v504h82V309q0-78-13.5-131T686 80q-11-14-21.5-24T641 36t-19-14-24.5-14.5T575-6q-68-44-104-90-39-51-39-103 0-42 25-67 33-33 98-33 55 0 107 18l-19-73q-53-17-92-17-96 0-150 54-47 47-47 114 0 58 39 115 25 36 64 65-165 0-246 103-64 84-64 229v527z"/><glyph glyph-name="Ydieresis" unicode="Ÿ" horiz-adv-x="1056" d="M477 0v584L29 1366h102l393-690 402 690h102L567 584V0h-90zM260 1597q0 32 23 55t55 23 55-23 23-55-23-54.5-55-22.5-55 22.5-23 54.5zm381 0q0 32 23 55t55 23 55-23 23-55-23-54.5-55-22.5-55 22.5-23 54.5z"/><glyph glyph-name="Zacute" unicode="Ź" horiz-adv-x="1134" d="M1059 1366L227 82h809V0H76l831 1284H156v82h903zm-330 383l102-51-274-258-65 37z"/><glyph glyph-name="zacute" unicode="ź" horiz-adv-x="925" d="M889 836L213 78h672V0H37l684 758H143v78h746zm-285 434l88-51-215-263-61 33z"/><glyph glyph-name="Zdotaccent" unicode="Ż" horiz-adv-x="1134" d="M1059 1366L227 82h809V0H76l831 1284H156v82h903zm-549 233q0 37 23.5 60.5T594 1683t60.5-23.5T678 1599t-23.5-60-60.5-23-60.5 23-23.5 60z"/><glyph glyph-name="zdotaccent" unicode="ż" horiz-adv-x="925" d="M889 836L213 78h672V0H37l684 758H143v78h746zm-477 243q0 35 22.5 57.5T492 1159t57-22.5 22-57.5-22-57.5-57-22.5-57.5 22.5T412 1079z"/><glyph glyph-name="Zcaron" unicode="Ž" horiz-adv-x="1134" d="M1059 1366L227 82h809V0H76l831 1284H156v82h903zm-465 221l197 131 69-55-266-184-266 184 69 55z"/><glyph glyph-name="zcaron" unicode="ž" horiz-adv-x="925" d="M889 836L213 78h672V0H37l684 758H143v78h746zm-397 223l184 139 65-53-249-193-250 193 65 53z"/><glyph glyph-name="uni018F" unicode="Ə" horiz-adv-x="1583" d="M111 655h1267v21q0 172-79 315.5T1078 1219t-316 84q-118 0-218.5-41T371 1159q-83-69-131-151l-72 57q68 96 164 172 190 147 428 147 147 0 278.5-53.5t227-146 151.5-224 56-280.5q0-150-54.5-281.5T1270 175 1045 30 766-23q-56 0-112.5 8.5T524.5 16t-144 71T252 207Q111 384 111 655zm1259-82H205q3-66 27-146t61-136q62-95 188-163.5T768 59q120 0 226 41t182.5 111.5 127 163.5 66.5 198z"/><glyph glyph-name="florin" unicode="ƒ" horiz-adv-x="1122" d="M377 758l14 78h127l92 481q20 99 68 147 52 52 141 52 59 0 119-29l-16-74q-49 25-95 25-61 0-94-31t-43-90l-90-481h207l-14-78H586L438-31q-33-182-92-241-56-56-151-56-75 0-140 29l17 76q62-27 114-27 66 0 101 35 36 36 63 172l154 801H377z"/><glyph glyph-name="uni01CF" unicode="Ǐ" horiz-adv-x="458" d="M184 1366h90V0h-90v1366zm45 229l164 123 72-57-236-182-235 182 72 57z"/><glyph glyph-name="uni01D0" unicode="ǐ" horiz-adv-x="376" d="M147 836h82V0h-82v836zm41 235l144 123 61-53-205-176-204 176 61 53z"/><glyph glyph-name="uni01DD" unicode="ǝ" horiz-adv-x="989" d="M94 424h715q0 165-96.5 258.5T477 776q-98 0-174-52T186 586l-69 41q21 40 50 76t72.5 72 107 57.5T483 854q190 0 301-123.5T895 418q0-105-34.5-191t-92-139.5T639 5.5 489-23Q317-23 205.5 99T94 424zm709-78H180q15-126 100.5-208.5T489 55q124 0 210 83t104 208z"/><glyph glyph-name="Gcaron" unicode="Ǧ" horiz-adv-x="1581" d="M897 573v82h573q0-272-139-448-89-114-222-172T817-23q-198 0-359.5 90t-254 251T111 680q0 199 95 361t257.5 252.5T823 1384q238 0 428-147 96-76 164-172l-72-57q-48 82-131 151-172 144-391 144-172 0-313.5-83.5T285.5 992 205 676q0-169 78.5-310.5t218.5-224T815 59q162 0 287.5 68.5T1290 291q39 60 63 137t27 145H897zM791 1587l196 131 70-55-266-184-267 184 70 55z"/><glyph glyph-name="gcaron" unicode="ǧ" horiz-adv-x="1064" d="M836 836h82V25q0-235-111.5-365.5T498-471q-170 0-286.5 95.5T88-113h86q10-129 99.5-204.5T498-393q68 0 122.5 19.5t89 48 60 70.5 37.5 78.5T826.5-95t8.5 69 1 51v118Q776 59 688.5 18T506-23q-78 0-151 28.5t-131.5 82-94 139.5T94 418q0 122 50 220.5t147 157T516 854q101 0 183-43t137-121v146zm-328-60q-150 0-239-105.5T180 414q0-154 89.5-256.5T504 55q152 0 244 104.5T840 422q0 151-91 252.5T508 776zm24 283l185 139 65-53-250-193-249 193 65 53z"/><glyph glyph-name="AEacute" unicode="Ǽ" horiz-adv-x="1744" d="M1071 0L889 449H305L127 0H29l551 1366h591l35-82H643l203-496h549l35-81H881l254-625h559l37-82h-660zM338 530h516l-260 644zm670 1219l102-51-274-258-66 37z"/><glyph glyph-name="aeacute" unicode="ǽ" horiz-adv-x="1622" d="M1530 406H813q3-157 94.5-254T1137 55q106 0 181 55.5T1438 244l69-49q-62-97-157-157.5T1135-23q-118 0-206.5 56T791 186Q757 83 665.5 30T444-23q-167 0-259.5 77T92 238q0 34 10 68t36.5 70.5 66 63.5T310 484.5 459 502q81 0 145.5-17.5T727 416q0 170-70.5 265T436 776q-136 0-284-76v84q140 70 288 70 120 0 207.5-59T774 621q53 108 147.5 170.5T1133 854q61 0 117.5-17t106.5-53.5 88-88.5 60.5-126.5T1530 406zm-707 77h621q-19 127-106 210t-208 83q-120 0-204.5-84T823 483zm-366-59q-135 0-207-53t-72-133q0-77 69-130t197-53q75 0 131 18t86.5 47 45 61 14.5 65q0 70-63.5 124T457 424zm467 846l88-51-215-263-62 33z"/><glyph glyph-name="Scommaaccent" unicode="Ș" horiz-adv-x="1052" d="M872 1190l-65-55q-29 57-70 94.5t-83.5 51.5-66.5 18-48 4q-117 0-185.5-73.5T285 1049q0-31 7-58t16-47 29-40 34.5-33 46-31 49.5-27.5 57-28.5q30-15 86.5-42t77.5-37.5 52.5-28T797 641q28-19 48.5-38t45-51 38-76.5T942 377q0-170-124.5-285T516-23q-193 0-317 144-61 70-88 149l77 37q23-67 74-131 44-57 113.5-87T518 59q139 0 234.5 91T848 375 715 590q-59 35-232 119-115 56-166 91t-84 89q-43 71-43 155 0 49 13 96.5t41 91.5 68 78 99 54 130 20q105 0 192.5-49.5T872 1190zM395-389l94 287 91-29-127-279z"/><glyph glyph-name="scommaaccent" unicode="ș" horiz-adv-x="684" d="M573 719l-69-37q-21 47-60 70.5T358 776q-66 0-103.5-41T217 643q0-24 8.5-43.5t19-32 34-26 38.5-20 48-19.5q10-4 40.5-15.5t42-16.5 35.5-16 37.5-20.5 30-24T580 379q43-53 43-135 0-68-24-121t-64.5-84T447-7.5 350-23q-106 0-184.5 59.5T61 199l80 24q21-80 79-124t130-44q80 0 133.5 52T537 240q0 66-41.5 102T350 420q-52 22-78.5 34t-56 32.5T168 530q-37 51-37 109 0 94 63.5 154.5T354 854q75 0 132.5-34.5T573 719zM213-389l94 287 90-29-127-279z"/><glyph glyph-name="Tcommaaccent" unicode="Ț" horiz-adv-x="856" d="M827 1284H473V0h-90v1284H29v82h798v-82zM313-389l95 287 90-29-127-279z"/><glyph glyph-name="tcommaaccent" unicode="ț" horiz-adv-x="397" d="M381 758H236V0h-82v758H61v78h93v299h82V836h145v-78zM86-389l94 287 90-29-127-279z"/><glyph glyph-name="uni0228" unicode="Ȩ" horiz-adv-x="950" d="M840 1366v-82H274V788h553v-81H274V82h566V0H184v1366h656zM516-102l94-54-221-258-61 37z"/><glyph glyph-name="uni0229" unicode="ȩ" horiz-adv-x="989" d="M895 408H180q0-155 98-254t234-99q98 0 174 52t117 139l69-41q-21-40-50-76t-72.5-72.5-107-58T506-23q-190 0-301 124T94 414q0 105 34.5 190.5t92 139 129.5 82T500 854q171 0 283-124.5T895 408zm-709 77h623q-15 126-100.5 208.5T500 776q-124 0-210-83T186 485zm344-587l95-41-205-254-58 32z"/><glyph glyph-name="uni0237" unicode="ȷ" horiz-adv-x="376" d="M147 836h82V-471h-82V836z"/><glyph glyph-name="uni0259" unicode="ə" horiz-adv-x="989" d="M94 424h715q0 165-96.5 258.5T477 776q-98 0-174-52T186 586l-69 41q21 40 50 76t72.5 72 107 57.5T483 854q190 0 301-123.5T895 418q0-105-34.5-191t-92-139.5T639 5.5 489-23Q317-23 205.5 99T94 424zm709-78H180q15-126 100.5-208.5T489 55q124 0 210 83t104 208z"/><glyph glyph-name="afii57929" unicode="ʼ" d="M393 1065l94 328 91-29-127-320z"/><glyph glyph-name="circumflex" unicode="ˆ" d="M512 1096L328 956l-66 52 250 192 250-192-66-52z"/><glyph glyph-name="caron" unicode="ˇ" d="M512 1059l184 139 66-53-250-193-250 193 66 53z"/><glyph glyph-name="uni02C9" unicode="ˉ" d="M236 1010v80h552v-80H236z"/><glyph glyph-name="breve" unicode="˘" d="M256 1174h78q10-46 51-76 52-39 127-39t127 39q41 30 51 76h78q-8-68-59-119-74-74-197-74t-197 74q-51 51-59 119z"/><glyph glyph-name="dotaccent" unicode="˙" d="M432 1079q0 35 22.5 57.5T512 1159t57.5-22.5T592 1079t-22.5-57.5T512 999t-57.5 22.5T432 1079z"/><glyph glyph-name="ring" unicode="˚" d="M354 1124q0 68 45 113t113 45 113-45 45-113q0-67-45-112t-113-45-113 45-45 112zm74 0q0-37 23.5-60.5T512 1040t60.5 23.5T596 1124t-23.5 60.5T512 1208t-60.5-23.5T428 1124z"/><glyph glyph-name="ogonek" unicode="˛" d="M733-281l-18-73q-43-17-92-17-97 0-147 51t-50 117q0 68 47 127 35 44 88 76h82q-56-38-94-86-45-58-45-113 0-44 31-72t92-28q46 0 106 18z"/><glyph glyph-name="tilde" unicode="˜" d="M305 997l-53 39q18 52 47 78 39 39 94 39 15 0 31.5-3t35.5-9.5 28.5-10 30.5-13 22-9.5q66-27 96-27 33 0 55 25 7 9 14.5 21.5t11 20.5 3.5 9l51-41q-17-49-53-82-41-35-92-35-38 0-119 35-6 2-23 9t-22.5 9.5-18.5 7-20.5 6.5-17.5 3.5-19 1.5q-36 0-57-24-18-21-25-50z"/><glyph glyph-name="hungarumlaut" unicode="˝" d="M510 1270l86-51-203-263-55 33zm227 0l86-51-202-263-56 33z"/><glyph glyph-name="acutecomb" unicode="́" horiz-adv-x="4" d="M-354 1270l88-51-215-263-62 33z"/><glyph glyph-name="uni0394" unicode="Δ" horiz-adv-x="1286" d="M1257 0H29l573 1366h82zM643 1235L164 82h958z"/><glyph glyph-name="uni0394" unicode="∆" horiz-adv-x="1286" d="M1257 0H29l573 1366h82zM643 1235L164 82h958z"/><glyph glyph-name="uni03A9" unicode="Ω" horiz-adv-x="1363" d="M57 82h418q-131 67-237 188Q57 478 57 725q0 127 47.5 254T244 1202q173 182 438 182 263 0 438-182 84-86 135.5-206t51.5-265q0-254-181-461-106-121-237-188h418V0H782v90q74 39 151.5 98T1065 313q147 178 147 406 0 131-44.5 241.5T1051 1145q-73 75-170.5 116.5T682 1303q-100 0-197.5-39.5T313 1145q-80-84-120.5-198.5T152 717q0-226 147-404 54-66 131.5-125T582 90V0H57v82z"/><glyph glyph-name="uni03A9" unicode="Ω" horiz-adv-x="1363" d="M57 82h418q-131 67-237 188Q57 478 57 725q0 127 47.5 254T244 1202q173 182 438 182 263 0 438-182 84-86 135.5-206t51.5-265q0-254-181-461-106-121-237-188h418V0H782v90q74 39 151.5 98T1065 313q147 178 147 406 0 131-44.5 241.5T1051 1145q-73 75-170.5 116.5T682 1303q-100 0-197.5-39.5T313 1145q-80-84-120.5-198.5T152 717q0-226 147-404 54-66 131.5-125T582 90V0H57v82z"/><glyph glyph-name="pi" unicode="π" horiz-adv-x="1007" d="M274 0h-81v758H45v78h918v-78H815V0h-82v758H274V0z"/><glyph glyph-name="afii10023" unicode="Ё" horiz-adv-x="950" d="M840 1366v-82H274V788h553v-81H274V82h566V0H184v1366h656zm-592 231q0 32 23 55t55 23 54.5-23 22.5-55-22.5-54.5T326 1520t-55 22.5-23 54.5zm381 0q0 32 23 55t55 23 54.5-23 22.5-55-22.5-54.5T707 1520t-55 22.5-23 54.5z"/><glyph glyph-name="afii10051" unicode="Ђ" horiz-adv-x="1261" d="M868 1284H459V748q145 47 280 47 235 0 342-125 86-100 86-273 0-113-37-199T1030 63q-95-75-260-75-61 0-139 12v82q56-12 129-12 70 0 122.5 14t96.5 53q94 85 94 256 0 135-67 219-83 101-261 101-147 0-286-47V0h-90v1284H29v82h839v-82z"/><glyph glyph-name="afii10052" unicode="Ѓ" horiz-adv-x="819" d="M184 0v1366h607v-82H274V0h-90zm463 1749l103-51-275-258-65 37z"/><glyph glyph-name="afii10053" unicode="Є" horiz-adv-x="1388" d="M1278 1206v-119q-88 103-208.5 159.5T817 1303q-154 0-287.5-71.5T310 1032 209 745h905v-81H205q2-112 39-210.5T342 284t139-122.5 164.5-77T819 59q115 0 238.5 50.5T1278 266V147q-99-87-217.5-128.5T823-23q-200 0-364.5 96t-256 257T111 680q0 193 94.5 355t257 255.5T819 1384q74 0 144-15.5t118-35.5 93-48 65.5-45 38.5-34z"/><glyph glyph-name="afii10054" unicode="Ѕ" horiz-adv-x="1052" d="M872 1190l-65-55q-29 57-70 94.5t-83.5 51.5-66.5 18-48 4q-117 0-185.5-73.5T285 1049q0-31 7-58t16-47 29-40 34.5-33 46-31 49.5-27.5 57-28.5q30-15 86.5-42t77.5-37.5 52.5-28T797 641q28-19 48.5-38t45-51 38-76.5T942 377q0-170-124.5-285T516-23q-193 0-317 144-61 70-88 149l77 37q23-67 74-131 44-57 113.5-87T518 59q139 0 234.5 91T848 375 715 590q-59 35-232 119-10 5-44.5 21.5t-49 24-43 24.5-44.5 31-35.5 35-33.5 44q-43 71-43 155 0 49 13 96.5t41 91.5 68 78 99 54 130 20q105 0 192.5-49.5T872 1190z"/><glyph glyph-name="afii10055" unicode="І" horiz-adv-x="458" d="M184 1366h90V0h-90v1366z"/><glyph glyph-name="afii10056" unicode="Ї" horiz-adv-x="458" d="M184 1366h90V0h-90v1366zM20 1597q0 32 23 55t55 23 55-23 23-55-23-54.5-55-22.5-55 22.5-23 54.5zm263 0q0 32 22.5 55t54.5 23 55-23 23-55-23-54.5-55-22.5-54.5 22.5T283 1597z"/><glyph glyph-name="afii10057" unicode="Ј" horiz-adv-x="538" d="M264 1366h90V266q0-44-2.5-73.5t-18.5-75T287 41q-64-64-170-64-78 0-150 52-37 27-78 92l62 53q27-52 63-78 48-37 107-37 65 0 98 39 45 49 45 168v1100z"/><glyph glyph-name="afii10058" unicode="Љ" horiz-adv-x="1888" d="M315 1366h770V778h238q41 0 78.5-2.5t87-12 90-25 82-44.5 69.5-67 46-95.5 18-128.5q0-63-15-120.5T1730 173t-84.5-90T1520 22.5 1352 0H995v1284H406V489q0-75-2-118t-10.5-106T364 154.5 309 70q-75-82-198-82-32 0-82 12v82q40-12 75-12 81 0 134 53 22 23 37.5 57.5t23 64T310 325t4.5 78.5.5 85.5v877zm770-670V82h230q43 0 70 1.5t72.5 9 85 27.5 71.5 52q86 82 86 231 0 180-141 252-37 19-86 28.5t-82 11-93 1.5h-213z"/><glyph glyph-name="afii10059" unicode="Њ" horiz-adv-x="1994" d="M274 1366V778h828v588h90V778h238q41 0 78.5-2.5t87-12 90-25 82-44.5 69.5-67 46-95.5 18-128.5q0-80-25-150t-76-128-139-91.5T1458 0h-356v696H274V0h-90v1366h90zm918-670V82h229q43 0 70 1.5t72.5 9 85 27.5 71.5 52q86 82 86 231 0 180-141 252-37 19-86 28.5t-81.5 11-92.5 1.5h-213z"/><glyph glyph-name="afii10060" unicode="Ћ" horiz-adv-x="1372" d="M868 1284H459V786h348q186 0 278-45 89-44 116.5-114t27.5-191V0h-90v436q0 39-2.5 64t-12 62-33.5 65-63 47q-63 31-250 31H459V0h-90v1284H29v82h839v-82z"/><glyph glyph-name="afii10061" unicode="Ќ" horiz-adv-x="1105" d="M274 1366V723l646 643h118L377 713 1077 0H954L311 651l-37-35V0h-90v1366h90zm414 383l103-51-275-258-65 37z"/><glyph glyph-name="afii10062" unicode="Ў" horiz-adv-x="1126" d="M29 1366h102l473-885 400 885h94L473 0h-94l174 381zm268 279l72 38q60-131 215-131t215 131l71-38q-29-66-83.5-107.5T683 1483t-99-13-99 13-104 54.5-84 107.5z"/><glyph glyph-name="afii10145" unicode="Џ" horiz-adv-x="1363" d="M184 0v1366h90V82h816v1284h90V0H727v-307h-90V0H184z"/><glyph glyph-name="afii10017" unicode="А" horiz-adv-x="1200" d="M1073 0L891 449H309L127 0H29l575 1407L1171 0h-98zM342 530h516l-256 648z"/><glyph glyph-name="afii10018" unicode="Б" horiz-adv-x="1093" d="M184 0v1366h658v-82H274V778h238q41 0 78.5-2.5t87-12 90-25 82-44.5 69.5-67 46-95.5T983 403q0-63-15-120.5T919 173t-84.5-90T709 22.5 541 0H184zm90 696V82h230q43 0 70 1.5t72.5 9 85 27.5 71.5 52q86 82 86 231 0 180-141 252-38 19-88.5 28.5t-83 11T487 696H274z"/><glyph glyph-name="afii10019" unicode="В" horiz-adv-x="1093" d="M184 0v1366h299q176 0 276.5-93T860 1024q0-201-160-299 132-21 207.5-114.5T983 383q0-177-117.5-280T559 0H184zm90 1284V748h218q59 0 102 11.5t84 45.5q90 74 90 209 0 137-92 213-73 57-227 57H274zm0-618V82h230q64 0 101 2.5t95 22T801 164q88 78 88 209 0 187-146 254-90 39-256 39H274z"/><glyph glyph-name="afii10020" unicode="Г" horiz-adv-x="819" d="M184 0v1366h607v-82H274V0h-90z"/><glyph glyph-name="afii10021" unicode="Д" horiz-adv-x="1249" d="M295 1366h770V82h156v-356h-86V0H115v-274H29V82q70 0 127 51.5T246 266q49 123 49 359v741zm90-82V625q0-253-49-381-35-92-105-162h744v1202H385z"/><glyph glyph-name="afii10022" unicode="Е" horiz-adv-x="950" d="M840 1366v-82H274V788h553v-81H274V82h566V0H184v1366h656z"/><glyph glyph-name="afii10024" unicode="Ж" horiz-adv-x="1630" d="M770 1366h90V723l578 643h118L950 705 1602 0h-119L887 643l-27-27V0h-90v616l-27 27L147 0H29l651 705-606 661h119l577-643v643z"/><glyph glyph-name="afii10025" unicode="З" horiz-adv-x="1134" d="M279 1135l-66 55q118 194 371 194 154 0 247-88 99-92 99-245 0-104-49.5-180T750 752q131-33 202.5-131t71.5-230q0-113-45-196.5T868 63Q817 26 745.5 5T637-19.5 571-23q-170 0-286.5 82.5T111 266l86 41q35-83 103-141.5T438.5 83 578 59q59 0 126 20t109 52q117 87 117 260 0 142-97 222.5T565 694H442v82h123q108 0 189.5 75.5T836 1051q0 107-64 176-71 76-199 76-186 0-294-168z"/><glyph glyph-name="afii10026" unicode="И" horiz-adv-x="1433" d="M1159 0v1139L184-35v1401h90V207l975 1173V0h-90z"/><glyph glyph-name="afii10027" unicode="Й" horiz-adv-x="1433" d="M1159 0v1139L184-35v1401h90V207l975 1173V0h-90zM430 1645l72 38q60-131 215-131t215 131l72-38q-29-66-84-107.5T816 1483t-99-13-99 13-104 54.5-84 107.5z"/><glyph glyph-name="afii10028" unicode="К" horiz-adv-x="1105" d="M274 1366V723l646 643h118L377 713 1077 0H954L311 651l-37-35V0h-90v1366h90z"/><glyph glyph-name="afii10029" unicode="Л" horiz-adv-x="1269" d="M315 1366h770V0h-90v1284H406V489q0-75-2-118t-10.5-106T364 154.5 309 70q-75-82-198-82-32 0-82 12v82q40-12 75-12 81 0 134 53 22 23 37.5 57.5t23 64T310 325t4.5 78.5.5 85.5v877z"/><glyph glyph-name="afii10030" unicode="М" horiz-adv-x="1835" d="M260 0h-90l156 1413L918 150l591 1263L1665 0h-90l-121 1098L918-49 381 1098z"/><glyph glyph-name="afii10031" unicode="Н" horiz-adv-x="1376" d="M274 1366V786h828v580h90V0h-90v705H274V0h-90v1366h90z"/><glyph glyph-name="afii10032" unicode="О" horiz-adv-x="1638" d="M819 1384q196 0 359-93.5t256.5-255T1528 680q0-145-55-275t-149.5-224-226-149T819-23 540.5 32 315 181 166 405t-55 275 55 275.5T315 1180t225.5 149 278.5 55zm0-1325q130 0 244.5 48.5T1259 239t128 197.5 47 243.5q0 173-79.5 315.5t-221 225T819 1303t-314-82.5-220.5-225T205 680q0-172 79.5-314T505 141.5 819 59z"/><glyph glyph-name="afii10033" unicode="П" horiz-adv-x="1376" d="M184 1366h1008V0h-90v1284H274V0h-90v1366z"/><glyph glyph-name="afii10034" unicode="Р" horiz-adv-x="913" d="M451 649H274V0h-90v1366h265q174 0 286.5-93.5T848 1010q0-168-109-264.5T451 649zm-177 635V731h181q135 0 217 74.5t82 202.5-83 202-231 74H274z"/><glyph glyph-name="afii10035" unicode="С" horiz-adv-x="1388" d="M1278 1206v-119q-88 103-208.5 159.5T817 1303q-129 0-243-49.5t-194.5-134-127.5-200T205 676q0-117 37.5-219.5t99.5-174 142-123 165.5-76T819 59q115 0 238.5 50.5T1278 266V147q-99-87-217.5-128.5T823-23q-200 0-364.5 96t-256 257T111 680q0 193 94.5 355t257 255.5T819 1384q74 0 144-15.5t118-35.5 93-48 65.5-45 38.5-34z"/><glyph glyph-name="afii10036" unicode="Т" horiz-adv-x="856" d="M827 1284H473V0h-90v1284H29v82h798v-82z"/><glyph glyph-name="afii10037" unicode="У" horiz-adv-x="1126" d="M29 1366h102l473-885 400 885h94L473 0h-94l174 381z"/><glyph glyph-name="afii10038" unicode="Ф" horiz-adv-x="1679" d="M795 0v193h-58q-146 0-259.5 34.5t-181 88.5-111 127-59 141.5T111 725t15.5 140.5 59 141.5 111 127 181 88.5T737 1257h58v164h90v-164h57q106 0 194.5-18t152-48.5T1402 1117t80.5-89.5T1533 927t28-103 8-99-8-99-28-103-50.5-100.5T1402 333t-113.5-73.5-152-48.5T942 193h-57V0h-90zm0 274v902h-62q-122 0-216.5-28.5t-152-73-94.5-106T219 848t-14-123 14-123 51-120.5 94.5-106 152-73T733 274h62zm90 902V274h61q102 0 185.5 19.5t139.5 54 97 78 64 95.5 33 102 10 102-10 102-33 102-64 95.5-97 78-139.5 54T946 1176h-61z"/><glyph glyph-name="afii10039" unicode="Х" horiz-adv-x="962" d="M47 0l375 696-359 670h99l309-584 311 584h99L524 696 899 0h-98L471 614 145 0H47z"/><glyph glyph-name="afii10040" unicode="Ц" horiz-adv-x="1363" d="M184 0v1366h90V82h816v1284h90V82h155v-356h-86V0H184z"/><glyph glyph-name="afii10041" unicode="Ч" horiz-adv-x="1187" d="M913 0v614q-229-14-348-14-186 0-278 45-89 44-116.5 114T143 950v416h90V950q0-40 2-63.5t11.5-61.5 34-65.5T344 713q63-31 250-31 141 0 319 14v670h91V0h-91z"/><glyph glyph-name="afii10042" unicode="Ш" horiz-adv-x="1884" d="M184 0v1366h90V82h623v1284h90V82h623v1284h90V0H184z"/><glyph glyph-name="afii10043" unicode="Щ" horiz-adv-x="1884" d="M184 0v1366h90V82h623v1284h90V82h623v1284h90V82h155v-356h-86V0H184z"/><glyph glyph-name="afii10044" unicode="Ъ" horiz-adv-x="1249" d="M356 0v1284H29v82h417V778h238q41 0 78.5-2.5t87-12 90-25 82-44.5 69.5-67 46-95.5 18-128.5q0-63-15-120.5T1091 173t-84.5-90T881 22.5 713 0H356zm90 696V82h230q43 0 70 1.5t72.5 9 85 27.5 71.5 52q86 82 86 231 0 180-141 252-37 19-86 28.5t-82 11-93 1.5H446z"/><glyph glyph-name="afii10045" unicode="Ы" horiz-adv-x="1413" d="M184 0v1366h90V778h238q41 0 78.5-2.5t87-12 90-25 82-44.5 69.5-67 46-95.5T983 403q0-63-15-120.5T919 173t-84.5-90T709 22.5 541 0H184zm90 696V82h230q43 0 70 1.5t72.5 9 85 27.5 71.5 52q86 82 86 231 0 180-141 252-37 19-86 28.5t-82 11-93 1.5H274zm865 670h90V0h-90v1366z"/><glyph glyph-name="afii10046" unicode="Ь" horiz-adv-x="1077" d="M184 0v1366h90V778h238q41 0 78.5-2.5t87-12 90-25 82-44.5 69.5-67 46-95.5T983 403q0-63-15-120.5T919 173t-84.5-90T709 22.5 541 0H184zm90 696V82h230q43 0 70 1.5t72.5 9 85 27.5 71.5 52q86 82 86 231 0 180-141 252-37 19-86 28.5t-82 11-93 1.5H274z"/><glyph glyph-name="afii10047" unicode="Э" horiz-adv-x="1388" d="M111 147v119q97-106 220-156.5T569 59q87 0 174 25.5T908 162t138.5 123 97.5 169.5 40 209.5H274v81h906q-11 119-64.5 223.5t-135 177.5-188 115-221.5 42q-132 0-252-56.5T111 1087v119q24 23 54.5 45.5T255 1308t141.5 55 172.5 21q145 0 276-55t226-149 151-224.5 56-275.5q0-141-54.5-270t-148-224.5-227-152T565-23q-119 0-237 41.5T111 147z"/><glyph glyph-name="afii10048" unicode="Ю" horiz-adv-x="1966" d="M274 762h209q31 270 225.5 446t458.5 176q143 0 271-55t219.5-149T1802 955.5t53-275.5-53.5-275-145-224-219-149T1167-23q-144 0-272 55.5T676.5 183 533 407.5 479 680H274V0h-90v1366h90V762zm893-703q168 0 304.5 82.5t213 224.5 76.5 314-76.5 314.5-213 225.5-304.5 83-304.5-83-213-225.5T573 680t76.5-314 213-224.5T1167 59z"/><glyph glyph-name="afii10049" unicode="Я" horiz-adv-x="962" d="M70 0l413 612q-74 3-153 31-20 7-40 17.5T235 699t-60 63.5-44.5 95.5T111 989q0 64 17 119.5t45 94.5 56.5 65.5T289 1313q90 53 256 53h233V0h-90v612H586L176 0H70zm618 1284H545q-120 0-187-33-72-34-112.5-103.5T205 989q0-143 90-223 80-72 237-72h156v590z"/><glyph glyph-name="afii10065" unicode="а" horiz-adv-x="1056" d="M827 690v146h82V0h-82v150Q768 60 681 18.5T502-23q-82 0-156 31T216 94.5 127 234 94 418q0 194 112.5 315T502 854q209 0 325-164zm-321 86q-133 0-229.5-95T180 424q0-96 37-179t113.5-136.5T508 55q76 0 138.5 30.5t102 82 61 117.5T831 424q0 89-30 159t-79 110.5T617.5 755 506 776z"/><glyph glyph-name="afii10066" unicode="б" horiz-adv-x="1064" d="M178 637h4q47 109 148.5 163T549 854q190 0 306-121t116-315q0-134-59-235T753.5 29.5 530-23Q351-23 238 82q-48 45-79.5 105t-44 126.5T98 426t-4 102q0 503 262 674 24 16 54 29.5t49.5 21.5 60 18 51.5 12.5 59 12 50 9.5q88 19 128 44.5t56 63.5h103q-15-34-35.5-62t-48-47.5-50.5-33-58.5-24.5-55-16-55.5-13q-59-12-95-20.5t-96-33.5-102-59q-94-76-141-205t-52-262zM530 55q92 0 163 33t111.5 87T865 291t20 127q0 54-13.5 105.5t-42 97.5-67.5 80.5-94 54.5-119 20q-86 0-156.5-31.5t-114-83-67-114.5T188 418q0-64 22-130t58-112Q361 55 530 55z"/><glyph glyph-name="afii10067" unicode="в" horiz-adv-x="847" d="M147 836h273q115 0 178-50 74-60 74-159 0-115-92-174 56-8 102-47 72-64 72-168 0-117-84-181Q596 0 465 0H147v836zm82-365h191q76 0 119 35 51 40 51 110 0 69-51 109-42 33-119 33H229V471zm0-393h236q93 0 143 37 60 44 60 125 0 73-56 116-48 37-147 37H229V78z"/><glyph glyph-name="afii10068" unicode="г" horiz-adv-x="614" d="M147 0v836h451v-78H229V0h-82z"/><glyph glyph-name="afii10069" unicode="д" horiz-adv-x="901" d="M205 836h549V78h123v-303h-78V0H94v-225H16V78q54 3 93 34.5t61 75.5q35 71 35 226v422zM672 78v680H287V389q0-220-107-311h492z"/><glyph glyph-name="afii10070" unicode="е" horiz-adv-x="989" d="M895 408H180q0-155 98-254t234-99q98 0 174 52t117 139l69-41q-21-40-50-76t-72.5-72.5-107-58T506-23q-190 0-301 124T94 414q0 105 34.5 190.5t92 139 129.5 82T500 854q171 0 283-124.5T895 408zm-709 77h623q-15 126-100.5 208.5T500 776q-124 0-210-83T186 485z"/><glyph glyph-name="afii10072" unicode="ж" horiz-adv-x="1146" d="M532 836h82V438l377 398h107L709 434 1130 0h-110L655 381l-41-41V0h-82v340l-40 41L127 0H16l422 434L49 836h107l376-398v398z"/><glyph glyph-name="afii10073" unicode="з" horiz-adv-x="819" d="M215 659l-68 48q87 147 265 147 120 0 184-59 68-60 68-162 0-122-97-174 56-13 99-56 59-59 59-159 0-129-98-205-83-62-213-62-135 0-219 64-69 55-101 121l74 47q33-71 88-107 64-47 158-47 104 0 159 47 66 54 66 144 0 80-57 123-50 37-154 37h-86v77h64q78 0 124 35 52 41 52 107 0 65-43 108-48 43-129 43-130 0-195-117z"/><glyph glyph-name="afii10074" unicode="и" horiz-adv-x="970" d="M147 836h82V166l594 717V0h-82v666L147-51v887z"/><glyph glyph-name="afii10075" unicode="й" horiz-adv-x="970" d="M147 836h82V166l594 717V0h-82v666L147-51v887zm95 338l69 34q16-64 68.5-106.5T508 1059t128.5 42.5T705 1208l69-34q-10-32-27-61.5t-47-61.5-79.5-51T508 981t-112.5 19-79.5 51-47 61.5-27 61.5z"/><glyph glyph-name="afii10076" unicode="к" horiz-adv-x="811" d="M147 836h82V438l422 398h111L336 438 795 0H676L274 383l-45-43V0h-82v836z"/><glyph glyph-name="afii10077" unicode="л" horiz-adv-x="880" d="M733 836V0h-82v758H266V274q0-136-49-202Q162-4 57-4 44-4 16 0v78q20-4 31-4 72 0 109 55 28 43 28 145v562h549z"/><glyph glyph-name="afii10078" unicode="м" horiz-adv-x="1159" d="M49 0l197 887 334-754 333 754L1110 0h-86L889 653 580-51 270 653 135 0H49z"/><glyph glyph-name="afii10079" unicode="н" horiz-adv-x="929" d="M147 0v836h82V467h471v369h82V0h-82v389H229V0h-82z"/><glyph glyph-name="afii10080" unicode="о" horiz-adv-x="1064" d="M532 854q186 0 312.5-126T971 416 844.5 103.5 532-23 220 103.5 94 416t126 312 312 126zm0-799q150 0 251.5 104T885 416 783.5 672.5 532 776 281 672.5 180 416t101-257T532 55z"/><glyph glyph-name="afii10081" unicode="п" horiz-adv-x="917" d="M147 0v836h623V0h-82v758H229V0h-82z"/><glyph glyph-name="afii10082" unicode="р" horiz-adv-x="1056" d="M229 150v-621h-82V836h82V690q120 164 328 164 185 0 295.5-122T963 424q0-92-28.5-173.5t-80.5-142-130-96T553-23q-72 0-132.5 20T321 49.5t-58.5 55T229 150zm322-95q153 0 239.5 104.5T877 424q0 165-94 258.5T553 776q-63 0-121-22.5T327.5 689 253 579.5 225 428q0-163 86.5-268T551 55z"/><glyph glyph-name="afii10083" unicode="с" horiz-adv-x="905" d="M817 748V639Q697 776 528 776q-152 0-250-103.5T180 414q0-86 30.5-156.5t81-113.5T402 78t122-23q166 0 303 150V94Q696-23 522-23q-188 0-308 124T94 412q0 191 118.5 316.5T528 854q162 0 289-106z"/><glyph glyph-name="afii10084" unicode="т" horiz-adv-x="696" d="M307 0v758H16v78h664v-78H389V0h-82z"/><glyph glyph-name="afii10085" unicode="у" horiz-adv-x="876" d="M217-471L414-14 16 836h95L461 92l305 744h94L311-471h-94z"/><glyph glyph-name="afii10086" unicode="ф" horiz-adv-x="1228" d="M573-471v457Q365-14 236 94 94 215 94 418q0 204 142 325 128 105 337 105v518h82V848q210 0 338-105 142-121 142-325 0-203-142-324Q864-14 655-14v-457h-82zm0 534v707q-175 0-280-86-113-94-113-266 0-173 113-266 50-41 127.5-65T573 63zm82 707V63q75 0 153 24t128 65q113 93 113 266 0 172-113 266-105 86-281 86z"/><glyph glyph-name="afii10087" unicode="х" horiz-adv-x="819" d="M16 0l338 438L45 836h100l265-344 260 344h100L467 438 803 0H702L410 385 117 0H16z"/><glyph glyph-name="afii10088" unicode="ц" horiz-adv-x="909" d="M147 0v836h82V78h451v758h82V78h123v-303h-78V0H147z"/><glyph glyph-name="afii10089" unicode="ч" horiz-adv-x="843" d="M614 0v346q-136-20-219-20-133 0-196 45-27 19-43.5 45.5t-23 60-8 53.5-1.5 54v252h82V584q0-115 55-154 40-27 125-27 90 0 229 21v412h82V0h-82z"/><glyph glyph-name="afii10090" unicode="ш" horiz-adv-x="1318" d="M147 0v836h82V78h389v758h82V78h390v758h81V0H147z"/><glyph glyph-name="afii10091" unicode="щ" horiz-adv-x="1318" d="M147 0v836h82V78h389v758h82V78h390v758h81V78h123v-303h-77V0H147z"/><glyph glyph-name="afii10092" unicode="ъ" horiz-adv-x="851" d="M16 836h287V487h199q146 0 213-77 59-65 59-166 0-113-74-181Q633 0 500 0H221v758H16v78zM303 78h197q85 0 131 39 57 47 57 127 0 83-59 129-48 37-133 37H303V78z"/><glyph glyph-name="afii10093" unicode="ы" d="M147 836h82V487h199q146 0 213-77 59-65 59-166 0-114-73-181Q560 0 426 0H147v836zm82-758h197q85 0 131 39 57 47 57 127 0 83-59 129-48 37-133 37H229V78zm566 758h82V0h-82v836z"/><glyph glyph-name="afii10094" unicode="ь" horiz-adv-x="778" d="M147 836h82V487h199q146 0 213-77 59-65 59-166 0-114-73-181Q560 0 426 0H147v836zm82-758h197q85 0 131 39 57 47 57 127 0 83-59 129-48 37-133 37H229V78z"/><glyph glyph-name="afii10095" unicode="э" horiz-adv-x="843" d="M78 20v86q91-51 225-51 169 0 270 109 86 90 91 225H174v78h490q-16 150-138 242-94 67-229 67-131 0-211-43v82q102 39 211 39 195 0 313-104 140-119 140-330 0-203-125-324Q501-23 303-23 166-23 78 20z"/><glyph glyph-name="afii10096" unicode="ю" horiz-adv-x="1310" d="M229 467h144q19 168 136.5 277.5T795 854q180 0 301-126t121-312-121-312.5T795-23Q628-23 505 90.5T373 389H229V0h-82v836h82V467zM795 55q144 0 239.5 104t95.5 257-95.5 256.5T795 776 555 672.5 459 416t96-257T795 55z"/><glyph glyph-name="afii10097" unicode="я" horiz-adv-x="790" d="M57 0l267 365q-97 3-164 61-70 63-70 166 0 121 76 184 69 60 199 60h278V0h-82v360H418L156 0H57zm504 438v320H365q-87 0-134-37-55-47-55-127t53-119q48-37 136-37h196z"/><glyph glyph-name="afii10071" unicode="ё" horiz-adv-x="989" d="M895 408H180q0-155 98-254t234-99q98 0 174 52t117 139l69-41q-21-40-50-76t-72.5-72.5-107-58T506-23q-190 0-301 124T94 414q0 105 34.5 190.5t92 139 129.5 82T500 854q171 0 283-124.5T895 408zm-709 77h623q-15 126-100.5 208.5T500 776q-124 0-210-83T186 485zm74 592q0 31 21.5 52.5T334 1151t52.5-21.5T408 1077t-21.5-52-52.5-21-52.5 21-21.5 52zm340 0q0 31 21.5 52.5T674 1151t52.5-21.5T748 1077t-21.5-52-52.5-21-52.5 21-21.5 52z"/><glyph glyph-name="afii10099" unicode="ђ" horiz-adv-x="905" d="M147 0v1069H0v78h147v346h82v-346h369v-78H229V623q83 149 256 149 52 0 95.5-13.5t71-35 41.5-37 24-31.5q41-65 41-211v-639q0-154-72-223-55-53-147-53-35 0-72 12v76q25-10 57-10 66 0 103 35 49 47 49 178v624q0 118-33 168-48 82-164 82-140 0-205-116-45-80-45-226V0h-82z"/><glyph glyph-name="afii10100" unicode="ѓ" horiz-adv-x="614" d="M147 0v836h451v-78H229V0h-82zm334 1270l88-51-215-263-61 33z"/><glyph glyph-name="afii10101" unicode="є" horiz-adv-x="903" d="M815 748V639Q695 776 526 776q-138 0-236-88.5T180 467h488v-78H180q4-147 106-240.5T522 55q166 0 303 150V94Q694-23 520-23q-187 0-306.5 124T94 412q0 124 51.5 224T296 795t230 59q162 0 289-106z"/><glyph glyph-name="afii10102" unicode="ѕ" horiz-adv-x="684" d="M573 719l-69-37q-21 47-60 70.5T358 776q-66 0-103.5-41T217 643q0-24 8.5-43.5t19-32 34-26 38.5-20 48-19.5q10-4 40.5-15.5t42-16.5 35.5-16 37.5-20.5 30-24T580 379q43-53 43-135 0-68-24-121t-64.5-84T447-7.5 350-23q-106 0-184.5 59.5T61 199l80 24q21-80 79-124t130-44q80 0 133.5 52T537 240q0 66-41.5 102T350 420q-52 22-78.5 34t-56 32.5T168 530q-37 51-37 109 0 94 63.5 154.5T354 854q75 0 132.5-34.5T573 719z"/><glyph glyph-name="afii10103" unicode="і" horiz-adv-x="376" d="M147 836h82V0h-82v836zm41 202q-31 0-52 21.5t-21 54.5 21 54.5 52 21.5 52.5-21.5T262 1114t-21.5-54.5T188 1038z"/><glyph glyph-name="afii10104" unicode="ї" horiz-adv-x="376" d="M145 836h82V0h-82v836zM16 1116q0 31 21.5 52.5T90 1190t52.5-21.5T164 1116t-21.5-52.5T90 1042t-52.5 21.5T16 1116zm197 0q0 31 21.5 52.5T287 1190t52-21.5 21-52.5-21-52.5-52-21.5-52.5 21.5T213 1116z"/><glyph glyph-name="afii10105" unicode="ј" horiz-adv-x="376" d="M147 836h82V-471h-82V836zm41 202q-31 0-52 21.5t-21 54.5 21 54.5 52 21.5 52.5-21.5T262 1114t-21.5-54.5T188 1038z"/><glyph glyph-name="afii10106" unicode="љ" horiz-adv-x="1282" d="M733 836V487h199q146 0 213-77 59-65 59-166 0-113-74-181-67-63-200-63H651v758H266V274q0-136-49-202Q162-4 57-4 44-4 16 0v78q20-4 31-4 72 0 109 55 28 43 28 145v562h549zm0-758h197q85 0 131 39 57 47 57 127 0 83-59 129-48 37-133 37H733V78z"/><glyph glyph-name="afii10107" unicode="њ" horiz-adv-x="1331" d="M147 0v836h82V487h471v349h82V487h199q146 0 213-77 59-65 59-166 0-114-73-181-67-63-201-63H700v410H229V0h-82zm635 78h197q85 0 131 39 57 47 57 127 0 83-59 129-48 37-133 37H782V78z"/><glyph glyph-name="afii10108" unicode="ћ" horiz-adv-x="905" d="M147 0v1069H0v78h147v346h82v-346h369v-78H229V623q83 149 256 149 52 0 95.5-13.5t71-35 41.5-37 24-31.5q41-65 41-211V0h-82v444q0 118-33 168-48 82-164 82-140 0-205-116-45-80-45-226V0h-82z"/><glyph glyph-name="afii10109" unicode="ќ" horiz-adv-x="811" d="M147 836h82V438l422 398h111L336 438 795 0H676L274 383l-45-43V0h-82v836zm371 434l88-51-215-263-61 33z"/><glyph glyph-name="afii10110" unicode="ў" horiz-adv-x="876" d="M217-471L414-14 16 836h95L461 92l305 744h94L311-471h-94zm-33 1645l70 34q16-64 68.5-106.5T451 1059t128 42.5 68 106.5l70-34q-10-32-27-61.5t-47-61.5-79.5-51T451 981t-112.5 19-80 51-47.5 61.5-27 61.5z"/><glyph glyph-name="afii10193" unicode="џ" horiz-adv-x="909" d="M147 0v836h82V78h451v758h82V0H496v-246h-82V0H147z"/><glyph glyph-name="afii10146" unicode="Ѣ" horiz-adv-x="1249" d="M356 0v1079H29v82h327v260h90v-260h410v-82H446V778h238q41 0 78.5-2.5t87-12 90-25 82-44.5 69.5-67 46-95.5 18-128.5q0-63-15-120.5T1091 173t-84.5-90T881 22.5 713 0H356zm90 696V82h230q43 0 70 1.5t72.5 9 85 27.5 71.5 52q86 82 86 231 0 180-141 252-37 19-86 28.5t-82 11-93 1.5H446z"/><glyph glyph-name="afii10194" unicode="ѣ" horiz-adv-x="851" d="M16 836h205v530h82V836h246v-78H303V487h199q146 0 213-77 59-65 59-166 0-113-74-181Q633 0 500 0H221v758H16v78zM303 78h197q85 0 131 39 57 47 57 127 0 83-59 129-48 37-133 37H303V78z"/><glyph glyph-name="afii10147" unicode="Ѳ" horiz-adv-x="1638" d="M819 1384q196 0 359-93.5t256.5-255T1528 680q0-145-55-275t-149.5-224-226-149T819-23 540.5 32 315 181 166 405t-55 275 55 275.5T315 1180t225.5 149 278.5 55zm0-1325q134 0 248.5 49T1260 239.5t123.5 190T1434 655H205q5-118 50.5-225.5t123-190 192-131.5T819 59zM207 737h1225q-15 167-102.5 297.5T1108 1234t-289 69q-116 0-222.5-41T408 1148.5 272 969t-65-232z"/><glyph glyph-name="afii10195" unicode="ѳ" horiz-adv-x="1064" d="M532 854q186 0 312.5-126T971 416 844.5 103.5 532-23 220 103.5 94 416t126 312 312 126zm351-467H182q9-146 110.5-239T532 55t240 93 111 239zm-701 78h701q-19 146-122.5 228.5T532 776q-80 0-153-33.5t-128.5-106T182 465z"/><glyph glyph-name="afii10148" unicode="Ѵ" horiz-adv-x="1044" d="M29 1366h98L528 203l390 1163h98L528-55z"/><glyph glyph-name="afii10196" unicode="ѵ" horiz-adv-x="798" d="M16 836h90l295-695 291 695h90L401-51z"/><glyph glyph-name="afii10050" unicode="Ґ" horiz-adv-x="819" d="M184 0v1366h521v272h86v-354H274V0h-90z"/><glyph glyph-name="afii10098" unicode="ґ" horiz-adv-x="614" d="M147 0v836h373v225h78V758H229V0h-82z"/><glyph glyph-name="uni0492" unicode="Ғ" horiz-adv-x="819" d="M184 0v707H0v81h184v578h607v-82H274V788h279v-81H274V0h-90z"/><glyph glyph-name="uni0493" unicode="ғ" horiz-adv-x="614" d="M147 0v410H0v77h147v349h451v-78H229V487h205v-77H229V0h-82z"/><glyph glyph-name="uni0494" unicode="Ҕ" horiz-adv-x="1077" d="M791 1284H274V748q145 47 281 47 235 0 342-125 86-100 86-273 0-113-37-199T846 63q-95-75-260-75-62 0-140 12v82q56-12 129-12 71 0 123.5 14t96.5 53q94 85 94 256 0 133-68 219-83 101-260 101-148 0-287-47V0h-90v1366h607v-82z"/><glyph glyph-name="uni0495" unicode="ҕ" horiz-adv-x="778" d="M147 0v836h451v-78H229V483h62q146 0 246-71Q684 307 684 72q0-222-143-365-107-107-265-133v82q122 26 207 115Q598-106 598 76q0 88-33 162.5T473 354q-77 52-182 52h-62V0h-82z"/><glyph glyph-name="uni0496" unicode="Җ" horiz-adv-x="1630" d="M770 1366h90V723l578 643h118L950 705l576-623h76v-356h-86V0h-33L887 643l-27-27V0h-90v616l-27 27L147 0H29l651 705-606 661h119l577-643v643z"/><glyph glyph-name="uni0497" unicode="җ" horiz-adv-x="1146" d="M532 836h82V438l377 398h107L709 434l346-356h75v-303h-77V0h-33L655 381l-41-41V0h-82v340l-40 41L127 0H16l422 434L49 836h107l376-398v398z"/><glyph glyph-name="uni0498" unicode="Ҙ" horiz-adv-x="1134" d="M279 1135l-66 55q55 93 152 145 89 49 213 49 158 0 253-88 99-92 99-245 0-104-53-187-52-80-127-112 100-23 174-97 100-103 100-260 0-86-31-167T907 94q-54-52-135-81.5T612-20v-287h-90v289q-148 3-262 96-92 74-149 188l86 41q44-88 118-153 112-95 263-95 71 0 146.5 27.5T846 160q84 84 84 231 0 139-99 223-94 80-266 80H442v82h103q137 0 219 84 72 72 72 191 0 107-64 176-71 76-201 76-110 0-192-60-59-43-100-108z"/><glyph glyph-name="uni0499" unicode="ҙ" horiz-adv-x="819" d="M215 659l-68 48q87 147 265 147 120 0 184-59 68-60 68-162 0-122-97-174 56-13 99-56 59-59 59-161 0-128-98-203-77-59-176-62v-223h-82v226q-96 5-170 59-62 40-105 123l74 47q33-71 88-107 64-47 158-47 104 0 159 47 66 54 66 144 0 80-57 123-50 37-154 37h-86v77h64q78 0 124 35 52 41 52 107 0 65-43 108-48 43-129 43-130 0-195-117z"/><glyph glyph-name="uni049A" unicode="Қ" horiz-adv-x="1105" d="M184 1366h90V723l646 643h118L377 713 997 82h80v-356h-86V0h-37L311 651l-37-35V0h-90v1366z"/><glyph glyph-name="uni049B" unicode="қ" horiz-adv-x="811" d="M147 836h82V438l422 398h111L336 438 713 78h82v-303h-78V0h-41L274 383l-45-43V0h-82v836z"/><glyph glyph-name="uni049C" unicode="Ҝ" horiz-adv-x="1228" d="M184 1366h90V745h148v287h82V745l551 621h106L573 713 1200 0h-110L504 664V336h-82v328H274V0h-90v1366z"/><glyph glyph-name="uni049D" unicode="ҝ" horiz-adv-x="819" d="M147 836h82V471h88v205h78V471l305 365h95L463 438 803 0H700L395 393V147h-78v246h-88V0h-82v836z"/><glyph glyph-name="uni04A0" unicode="Ҡ" horiz-adv-x="1277" d="M356 0v1284H29v82h417V723l646 643h118L549 713 1249 0h-123L483 651l-37-35V0h-90z"/><glyph glyph-name="uni04A1" unicode="ҡ" horiz-adv-x="884" d="M221 0v758H16v78h287V438l422 398h111L410 438 868 0H750L348 383l-45-43V0h-82z"/><glyph glyph-name="uni04A2" unicode="Ң" horiz-adv-x="1376" d="M184 0v1366h90V786h828v580h90V82h156v-356h-86V0h-160v705H274V0h-90z"/><glyph glyph-name="uni04A3" unicode="ң" horiz-adv-x="929" d="M147 0v836h82V467h471v369h82V78h123v-303h-78V0H700v389H229V0h-82z"/><glyph glyph-name="uni04A4" unicode="Ҥ" horiz-adv-x="1736" d="M184 0v1366h90V786h828v580h606v-82h-516V0h-90v705H274V0h-90z"/><glyph glyph-name="uni04A5" unicode="ҥ" horiz-adv-x="1167" d="M147 0v836h82V467h471v369h451v-78H782V0h-82v389H229V0h-82z"/><glyph glyph-name="uni04AA" unicode="Ҫ" horiz-adv-x="1388" d="M1278 1206v-119q-92 110-216.5 163T817 1303q-256 0-436-185-176-179-176-442 0-255 172-430Q560 59 823 59q255 0 455 207V147Q1096-9 883-20v-287h-90v289q-275 3-476 202-206 203-206 496 0 300 208 504 99 99 228 149.5t272 50.5q117 0 239-42.5t220-135.5z"/><glyph glyph-name="uni04AB" unicode="ҫ" horiz-adv-x="905" d="M817 748V639Q697 776 532 776q-155 0-253-102-99-104-99-260t96-256q47-49 112-76t136-27q94 0 171.5 44T827 205V94Q717-5 575-20v-226h-81v226q-168 5-281 122Q94 225 94 412q0 198 123 321 118 121 307 121 163 0 293-106z"/><glyph glyph-name="uni04AE" unicode="Ү" horiz-adv-x="1056" d="M477 0v584L29 1366h102l393-690 402 690h102L567 584V0h-90z"/><glyph glyph-name="uni04AF" unicode="ү" horiz-adv-x="798" d="M16 836h90l293-695 293 695h90L440 43v-514h-82V43z"/><glyph glyph-name="uni04B0" unicode="Ұ" horiz-adv-x="1056" d="M477 0v502H68v82h409L29 1366h102l393-690 402 690h102L567 584h410v-82H567V0h-90z"/><glyph glyph-name="uni04B1" unicode="ұ" horiz-adv-x="798" d="M16 836h90l293-695 293 695h90L440 43V0h246v-78H440v-393h-82v393H113V0h245v43z"/><glyph glyph-name="uni04B2" unicode="Ҳ" horiz-adv-x="962" d="M47 0l375 696-359 670h99l309-584 311 584h99L524 696 854 82h45v-356h-86V0h-12L471 614 145 0H47z"/><glyph glyph-name="uni04B3" unicode="ҳ" horiz-adv-x="819" d="M16 0l338 438L45 836h100l265-344 260 344h100L467 438 743 78h60v-303h-78V0h-23L410 385 117 0H16z"/><glyph glyph-name="uni04B6" unicode="Ҷ" horiz-adv-x="1187" d="M913 0v614q-229-14-348-14-186 0-278 45-89 44-116.5 114T143 950v416h90V950q0-40 2-63.5t11.5-61.5 34-65.5T344 713q63-31 250-31 141 0 319 14v670h91V82h155v-356h-86V0H913z"/><glyph glyph-name="uni04B7" unicode="ҷ" horiz-adv-x="843" d="M614 0v346q-136-20-219-20-133 0-196 45-27 19-43.5 45.5t-23 60-8 53.5-1.5 54v252h82V584q0-115 55-154 40-27 125-27 90 0 229 21v412h82V78h123v-303h-78V0H614z"/><glyph glyph-name="uni04B8" unicode="Ҹ" horiz-adv-x="1187" d="M913 0v614q-24-2-286-14V336h-82v264q-168 0-258 45-89 44-116.5 114T143 950v416h90V950q0-40 2-63.5t11.5-61.5 34-65.5T344 713q65-31 201-31v350h82V682q103 0 286 14v670h91V0h-91z"/><glyph glyph-name="uni04B9" unicode="ҹ" horiz-adv-x="860" d="M631 0v346q-80-17-172-20V162h-78v164q-50 0-101 12t-81 33q-27 19-43.5 45.5t-23 60-8 53.5-1.5 54v252h82V584q0-118 55-154 43-27 121-27v246h78V403q87 3 172 21v412h82V0h-82z"/><glyph glyph-name="uni04BA" unicode="Һ" horiz-adv-x="1187" d="M274 1366V786h349q186 0 278-45 89-43 116-113t27-192V0h-90v436q0 33-.5 50t-6 50-16.5 54-33 45-54 39q-63 31-250 31H274V0h-90v1366h90z"/><glyph glyph-name="uni04BB" unicode="һ" horiz-adv-x="905" d="M147 0v1493h82V705q83 149 256 149 52 0 95.5-13.5t71-35 41.5-37 24-31.5q41-65 41-211V0h-82v526q0 118-33 168-48 82-164 82-139 0-205-117-45-80-45-225V0h-82z"/><glyph glyph-name="uni04C0" unicode="Ӏ" horiz-adv-x="376" d="M147 1366h82V0h-82v1366z"/><glyph glyph-name="uni04C1" unicode="Ӂ" horiz-adv-x="1630" d="M770 1366h90V723l578 643h118L950 705 1602 0h-119L887 643l-27-27V0h-90v616l-27 27L147 0H29l651 705-606 661h119l577-643v643zm-242 279l72 38q60-131 215-131t215 131l72-38q-29-66-84-107.5T914 1483t-99-13-99 13-104 54.5-84 107.5z"/><glyph glyph-name="uni04C2" unicode="ӂ" horiz-adv-x="1146" d="M532 836h82V438l377 398h107L709 434 1130 0h-110L655 381l-41-41V0h-82v340l-40 41L127 0H16l422 434L49 836h107l376-398v398zm-225 338l70 34q16-64 68-106.5t128-42.5 128.5 42.5T770 1208l70-34q-10-32-27-61.5t-47.5-61.5-80-51T573 981t-112.5 19-79.5 51-47 61.5-27 61.5z"/><glyph glyph-name="uni04C3" unicode="Ӄ" horiz-adv-x="1099" d="M184 1366h90V723l646 643h118L432 756q155 0 237.5-14.5T825 676q105-71 146-187.5t41-275.5q0-150-30.5-258T877-223Q766-328 580-328q-53 0-123 13v82q62-13 118-13 152 0 238 86Q918-52 918 205q0 137-37 233.5T782 588q-102 88-284 88-93 0-224-23V0h-90v1366z"/><glyph glyph-name="uni04C4" unicode="ӄ" horiz-adv-x="813" d="M147 836h82V438l422 398h111L336 440q132 0 221-53 164-96 164-330 0-95-35-187T578-293Q466-401 313-426v82q124 28 207 115 60 63 87.5 140T635 59q0 80-31.5 158T494 336q-76 39-193 39h-72V0h-82v836z"/><glyph glyph-name="uni04C7" unicode="Ӈ" horiz-adv-x="1376" d="M184 0v1366h90V786h828v580h90V-186q0-166-78-236-54-49-143-49-51 0-94 14v84q35-12 75-12 66 0 103 37 47 47 47 186v867H274V0h-90z"/><glyph glyph-name="uni04C8" unicode="ӈ" horiz-adv-x="929" d="M147 0v836h82V467h471v369h82V-186q0-75-15-133.5T705-422q-54-49-136-49-45 0-77 12v76q40-10 61-10 61 0 96 35 51 49 51 188v559H229V0h-82z"/><glyph glyph-name="uni04D0" unicode="Ӑ" horiz-adv-x="1200" d="M1073 0L891 449H309L127 0H29l575 1407L1171 0h-98zM342 530h516l-256 648zm-29 1115l72 38q60-131 215-131t215 131l72-38q-29-66-84-107.5T699 1483t-99-13-99 13-104 54.5-84 107.5z"/><glyph glyph-name="uni04D1" unicode="ӑ" horiz-adv-x="1056" d="M827 690v146h82V0h-82v150Q768 60 681 18.5T502-23q-82 0-156 31T216 94.5 127 234 94 418q0 194 112.5 315T502 854q209 0 325-164zm-321 86q-133 0-229.5-95T180 424q0-96 37-179t113.5-136.5T508 55q76 0 138.5 30.5t102 82 61 117.5T831 424q0 89-30 159t-79 110.5T617.5 755 506 776zm-244 398l70 34q16-64 68-106.5t128-42.5 128.5 42.5T725 1208l70-34q-10-32-27-61.5t-47.5-61.5-80-51T528 981t-112.5 19-79.5 51-47 61.5-27 61.5z"/><glyph glyph-name="uni04D2" unicode="Ӓ" horiz-adv-x="1200" d="M1073 0L891 449H309L127 0H29l575 1407L1171 0h-98zM342 530h516l-256 648zm-10 1067q0 32 23 55t55 23 54.5-23 22.5-55-22.5-54.5T410 1520t-55 22.5-23 54.5zm381 0q0 32 23 55t55 23 54.5-23 22.5-55-22.5-54.5T791 1520t-55 22.5-23 54.5z"/><glyph glyph-name="uni04D3" unicode="ӓ" horiz-adv-x="1056" d="M827 690v146h82V0h-82v150Q768 60 681 18.5T502-23q-82 0-156 31T216 94.5 127 234 94 418q0 194 112.5 315T502 854q209 0 325-164zm-321 86q-133 0-229.5-95T180 424q0-96 37-179t113.5-136.5T508 55q76 0 138.5 30.5t102 82 61 117.5T831 424q0 89-30 159t-79 110.5T617.5 755 506 776zm-230 301q0 31 21.5 52.5T350 1151t52.5-21.5T424 1077t-21.5-52-52.5-21-52.5 21-21.5 52zm340 0q0 31 21.5 52.5T690 1151t52.5-21.5T764 1077t-21.5-52-52.5-21-52.5 21-21.5 52z"/><glyph glyph-name="uni04D4" unicode="Ӕ" horiz-adv-x="1744" d="M1071 0L889 449H305L127 0H29l551 1366h591l35-82H643l203-496h549l35-81H881l254-625h559l37-82h-660zM338 530h516l-260 644z"/><glyph glyph-name="uni04D5" unicode="ӕ" horiz-adv-x="1622" d="M1530 406H813q3-157 94.5-254T1137 55q106 0 181 55.5T1438 244l69-49q-62-97-157-157.5T1135-23q-118 0-206.5 56T791 186Q757 83 665.5 30T444-23q-167 0-259.5 77T92 238q0 34 10 68t36.5 70.5 66 63.5T310 484.5 459 502q81 0 145.5-17.5T727 416q0 170-70.5 265T436 776q-136 0-284-76v84q140 70 288 70 120 0 207.5-59T774 621q53 108 147.5 170.5T1133 854q61 0 117.5-17t106.5-53.5 88-88.5 60.5-126.5T1530 406zm-707 77h621q-19 127-106 210t-208 83q-120 0-204.5-84T823 483zm-366-59q-135 0-207-53t-72-133q0-77 69-130t197-53q75 0 131 18t86.5 47 45 61 14.5 65q0 70-63.5 124T457 424z"/><glyph glyph-name="uni04D6" unicode="Ӗ" horiz-adv-x="950" d="M840 1366v-82H274V788h553v-81H274V82h566V0H184v1366h656zm-615 279l72 38q60-131 215-131t215 131l72-38q-29-66-84-107.5T611 1483t-99-13-99 13-104 54.5-84 107.5z"/><glyph glyph-name="uni04D7" unicode="ӗ" horiz-adv-x="989" d="M895 408H180q0-155 98-254t234-99q98 0 174 52t117 139l69-41q-21-40-50-76t-72.5-72.5-107-58T506-23q-190 0-301 124T94 414q0 105 34.5 190.5t92 139 129.5 82T500 854q171 0 283-124.5T895 408zm-709 77h623q-15 126-100.5 208.5T500 776q-124 0-210-83T186 485zm43 689l70 34q16-64 68.5-106.5T496 1059t128 42.5 68 106.5l70-34q-10-32-27-61.5t-47-61.5-79.5-51T496 981t-112.5 19-80 51-47.5 61.5-27 61.5z"/><glyph glyph-name="uni04D8" unicode="Ә" horiz-adv-x="1583" d="M111 655h1267v21q0 172-79 315.5T1078 1219t-316 84q-118 0-218.5-41T371 1159q-83-69-131-151l-72 57q68 96 164 172 190 147 428 147 147 0 278.5-53.5t227-146 151.5-224 56-280.5q0-150-54.5-281.5T1270 175 1045 30 766-23q-56 0-112.5 8.5T524.5 16t-144 71T252 207Q111 384 111 655zm1259-82H205q3-66 27-146t61-136q62-95 188-163.5T768 59q120 0 226 41t182.5 111.5 127 163.5 66.5 198z"/><glyph glyph-name="afii10846" unicode="ә" horiz-adv-x="989" d="M94 424h715q0 165-96.5 258.5T477 776q-98 0-174-52T186 586l-69 41q21 40 50 76t72.5 72 107 57.5T483 854q190 0 301-123.5T895 418q0-105-34.5-191t-92-139.5T639 5.5 489-23Q317-23 205.5 99T94 424zm709-78H180q15-126 100.5-208.5T489 55q124 0 210 83t104 208z"/><glyph glyph-name="uni04DA" unicode="Ӛ" horiz-adv-x="1583" d="M111 655h1267v21q0 172-79 315.5T1078 1219t-316 84q-118 0-218.5-41T371 1159q-83-69-131-151l-72 57q68 96 164 172 190 147 428 147 147 0 278.5-53.5t227-146 151.5-224 56-280.5q0-150-54.5-281.5T1270 175 1045 30 766-23q-56 0-112.5 8.5T524.5 16t-144 71T252 207Q111 384 111 655zm1259-82H205q3-66 27-146t61-136q62-95 188-163.5T768 59q120 0 226 41t182.5 111.5 127 163.5 66.5 198zM502 1597q0 32 23 55t55 23 54.5-23 22.5-55-22.5-54.5T580 1520t-55 22.5-23 54.5zm381 0q0 32 23 55t55 23 54.5-23 22.5-55-22.5-54.5T961 1520t-55 22.5-23 54.5z"/><glyph glyph-name="uni04DB" unicode="ӛ" horiz-adv-x="989" d="M94 424h715q0 165-96.5 258.5T477 776q-98 0-174-52T186 586l-69 41q21 40 50 76t72.5 72 107 57.5T483 854q190 0 301-123.5T895 418q0-105-34.5-191t-92-139.5T639 5.5 489-23Q317-23 205.5 99T94 424zm709-78H180q15-126 100.5-208.5T489 55q124 0 210 83t104 208zm-555 731q0 31 21.5 52.5T322 1151t52-21.5 21-52.5-21-52-52-21-52.5 21-21.5 52zm340 0q0 31 21.5 52.5T662 1151t52-21.5 21-52.5-21-52-52-21-52.5 21-21.5 52z"/><glyph glyph-name="uni04DC" unicode="Ӝ" horiz-adv-x="1630" d="M770 1366h90V723l578 643h118L950 705 1602 0h-119L887 643l-27-27V0h-90v616l-27 27L147 0H29l651 705-606 661h119l577-643v643zm-223 231q0 32 23 55t55 23 54.5-23 22.5-55-22.5-54.5T625 1520t-55 22.5-23 54.5zm381 0q0 32 23 55t55 23 54.5-23 22.5-55-22.5-54.5-54.5-22.5-55 22.5-23 54.5z"/><glyph glyph-name="uni04DD" unicode="ӝ" horiz-adv-x="1146" d="M532 836h82V438l377 398h107L709 434 1130 0h-110L655 381l-41-41V0h-82v340l-40 41L127 0H16l422 434L49 836h107l376-398v398zm-202 241q0 31 21 52.5t52 21.5 52.5-21.5T477 1077t-21.5-52-52.5-21-52 21-21 52zm340 0q0 31 21 52.5t52 21.5 52.5-21.5T817 1077t-21.5-52-52.5-21-52 21-21 52z"/><glyph glyph-name="uni04DE" unicode="Ӟ" horiz-adv-x="1134" d="M279 1135l-66 55q118 194 371 194 154 0 247-88 99-92 99-245 0-104-49.5-180T750 752q131-33 202.5-131t71.5-230q0-113-45-196.5T868 63Q817 26 745.5 5T637-19.5 571-23q-170 0-286.5 82.5T111 266l86 41q35-83 103-141.5T438.5 83 578 59q59 0 126 20t109 52q117 87 117 260 0 142-97 222.5T565 694H442v82h123q108 0 189.5 75.5T836 1051q0 107-64 176-71 76-199 76-186 0-294-168zm36 462q0 32 23 55t55 23 55-23 23-55-23-54.5-55-22.5-55 22.5-23 54.5zm381 0q0 32 23 55t55 23 55-23 23-55-23-54.5-55-22.5-55 22.5-23 54.5z"/><glyph glyph-name="uni04DF" unicode="ӟ" horiz-adv-x="819" d="M215 659l-68 48q87 147 265 147 120 0 184-59 68-60 68-162 0-122-97-174 56-13 99-56 59-59 59-159 0-129-98-205-83-62-213-62-135 0-219 64-69 55-101 121l74 47q33-71 88-107 64-47 158-47 104 0 159 47 66 54 66 144 0 80-57 123-50 37-154 37h-86v77h64q78 0 124 35 52 41 52 107 0 65-43 108-48 43-129 43-130 0-195-117zm-49 418q0 31 21.5 52.5T240 1151t52-21.5 21-52.5-21-52-52-21-52.5 21-21.5 52zm340 0q0 31 21.5 52.5T580 1151t52-21.5 21-52.5-21-52-52-21-52.5 21-21.5 52z"/><glyph glyph-name="uni04E2" unicode="Ӣ" horiz-adv-x="1433" d="M1159 0v1139L184-35v1401h90V207l975 1173V0h-90zM440 1536v90h553v-90H440z"/><glyph glyph-name="uni04E3" unicode="ӣ" horiz-adv-x="970" d="M147 836h82V166l594 717V0h-82v666L147-51v887zm62 174v80h553v-80H209z"/><glyph glyph-name="uni04E4" unicode="Ӥ" horiz-adv-x="1433" d="M1159 0v1139L184-35v1401h90V207l975 1173V0h-90zM449 1597q0 32 22.5 55t54.5 23 55-23 23-55-23-54.5-55-22.5-54.5 22.5T449 1597zm380 0q0 32 23 55t55 23 55-23 23-55-23-54.5-55-22.5-55 22.5-23 54.5z"/><glyph glyph-name="uni04E5" unicode="ӥ" horiz-adv-x="970" d="M147 836h82V166l594 717V0h-82v666L147-51v887zm95 241q0 31 21 52.5t52 21.5 52.5-21.5T389 1077t-21.5-52-52.5-21-52 21-21 52zm340 0q0 31 21 52.5t52 21.5 52.5-21.5T729 1077t-21.5-52-52.5-21-52 21-21 52z"/><glyph glyph-name="uni04E6" unicode="Ӧ" horiz-adv-x="1638" d="M819 1384q196 0 359-93.5t256.5-255T1528 680q0-145-55-275t-149.5-224-226-149T819-23 540.5 32 315 181 166 405t-55 275 55 275.5T315 1180t225.5 149 278.5 55zm0-1325q130 0 244.5 48.5T1259 239t128 197.5 47 243.5q0 173-79.5 315.5t-221 225T819 1303t-314-82.5-220.5-225T205 680q0-172 79.5-314T505 141.5 819 59zM551 1597q0 32 23 55t55 23 55-23 23-55-23-54.5-55-22.5-55 22.5-23 54.5zm381 0q0 32 23 55t55 23 54.5-23 22.5-55-22.5-54.5-54.5-22.5-55 22.5-23 54.5z"/><glyph glyph-name="uni04E7" unicode="ӧ" horiz-adv-x="1064" d="M532 854q186 0 312.5-126T971 416 844.5 103.5 532-23 220 103.5 94 416t126 312 312 126zm0-799q150 0 251.5 104T885 416 783.5 672.5 532 776 281 672.5 180 416t101-257T532 55zM289 1077q0 31 21 52.5t52 21.5 52.5-21.5T436 1077t-21.5-52-52.5-21-52 21-21 52zm340 0q0 31 21 52.5t52 21.5 52.5-21.5T776 1077t-21.5-52-52.5-21-52 21-21 52z"/><glyph glyph-name="uni04E8" unicode="Ө" horiz-adv-x="1638" d="M819 1384q196 0 359-93.5t256.5-255T1528 680q0-145-55-275t-149.5-224-226-149T819-23 540.5 32 315 181 166 405t-55 275 55 275.5T315 1180t225.5 149 278.5 55zm0-1325q134 0 248.5 49T1260 239.5t123.5 190T1434 655H205q5-118 50.5-225.5t123-190 192-131.5T819 59zM207 737h1225q-15 167-102.5 297.5T1108 1234t-289 69q-116 0-222.5-41T408 1148.5 272 969t-65-232z"/><glyph glyph-name="uni04E9" unicode="ө" horiz-adv-x="1064" d="M532 854q186 0 312.5-126T971 416 844.5 103.5 532-23 220 103.5 94 416t126 312 312 126zm351-467H182q9-146 110.5-239T532 55t240 93 111 239zm-701 78h701q-19 146-122.5 228.5T532 776q-80 0-153-33.5t-128.5-106T182 465z"/><glyph glyph-name="uni04EA" unicode="Ӫ" horiz-adv-x="1638" d="M819 1384q196 0 359-93.5t256.5-255T1528 680q0-145-55-275t-149.5-224-226-149T819-23 540.5 32 315 181 166 405t-55 275 55 275.5T315 1180t225.5 149 278.5 55zm0-1325q134 0 248.5 49T1260 239.5t123.5 190T1434 655H205q5-118 50.5-225.5t123-190 192-131.5T819 59zM207 737h1225q-15 167-102.5 297.5T1108 1234t-289 69q-116 0-222.5-41T408 1148.5 272 969t-65-232zm344 860q0 32 23 55t55 23 55-23 23-55-23-54.5-55-22.5-55 22.5-23 54.5zm381 0q0 32 23 55t55 23 54.5-23 22.5-55-22.5-54.5-54.5-22.5-55 22.5-23 54.5z"/><glyph glyph-name="uni04EB" unicode="ӫ" horiz-adv-x="1064" d="M532 854q186 0 312.5-126T971 416 844.5 103.5 532-23 220 103.5 94 416t126 312 312 126zm351-467H182q9-146 110.5-239T532 55t240 93 111 239zm-701 78h701q-19 146-122.5 228.5T532 776q-80 0-153-33.5t-128.5-106T182 465zm107 612q0 31 21 52.5t52 21.5 52.5-21.5T436 1077t-21.5-52-52.5-21-52 21-21 52zm340 0q0 31 21 52.5t52 21.5 52.5-21.5T776 1077t-21.5-52-52.5-21-52 21-21 52z"/><glyph glyph-name="uni04EE" unicode="Ӯ" horiz-adv-x="1126" d="M29 1366h102l473-885 400 885h94L473 0h-94l174 381zm278 170v90h553v-90H307z"/><glyph glyph-name="uni04EF" unicode="ӯ" horiz-adv-x="876" d="M217-471L414-14 16 836h95L461 92l305 744h94L311-471h-94zm-55 1481v80h553v-80H162z"/><glyph glyph-name="uni04F0" unicode="Ӱ" horiz-adv-x="1126" d="M29 1366h102l473-885 400 885h94L473 0h-94l174 381zm284 231q0 32 23 55t55 23 55-23 23-55-23-54.5-55-22.5-55 22.5-23 54.5zm381 0q0 32 23 55t55 23 55-23 23-55-23-54.5-55-22.5-55 22.5-23 54.5z"/><glyph glyph-name="uni04F1" unicode="ӱ" horiz-adv-x="876" d="M217-471L414-14 16 836h95L461 92l305 744h94L311-471h-94zm-10 1548q0 31 21.5 52.5T281 1151t52-21.5 21-52.5-21-52-52-21-52.5 21-21.5 52zm340 0q0 31 21.5 52.5T621 1151t52-21.5 21-52.5-21-52-52-21-52.5 21-21.5 52z"/><glyph glyph-name="uni04F2" unicode="Ӳ" horiz-adv-x="1126" d="M29 1366h102l473-885 400 885h94L473 0h-94l174 381zm514 383l106-53-205-256-73 30zm248 0l106-53-205-256-74 30z"/><glyph glyph-name="uni04F3" unicode="ӳ" horiz-adv-x="876" d="M217-471L414-14 16 836h95L461 92l305 744h94L311-471h-94zm219 1741l86-51-203-263-55 33zm228 0l86-51-203-263-55 33z"/><glyph glyph-name="uni04F4" unicode="Ӵ" horiz-adv-x="1187" d="M913 0v614q-229-14-348-14-186 0-278 45-89 44-116.5 114T143 950v416h90V950q0-40 2-63.5t11.5-61.5 34-65.5T344 713q63-31 250-31 141 0 319 14v670h91V0h-91zM326 1597q0 32 22.5 55t54.5 23 55-23 23-55-23-54.5-55-22.5-54.5 22.5T326 1597zm381 0q0 32 22.5 55t54.5 23 55-23 23-55-23-54.5-55-22.5-54.5 22.5T707 1597z"/><glyph glyph-name="uni04F5" unicode="ӵ" horiz-adv-x="843" d="M614 0v346q-136-20-219-20-133 0-196 45-27 19-43.5 45.5t-23 60-8 53.5-1.5 54v252h82V584q0-115 55-154 40-27 125-27 90 0 229 21v412h82V0h-82zM178 1077q0 31 21.5 52.5T252 1151t52.5-21.5T326 1077t-21.5-52-52.5-21-52.5 21-21.5 52zm340 0q0 31 21.5 52.5T592 1151t52.5-21.5T666 1077t-21.5-52-52.5-21-52.5 21-21.5 52z"/><glyph glyph-name="uni04F8" unicode="Ӹ" horiz-adv-x="1413" d="M184 0v1366h90V778h238q41 0 78.5-2.5t87-12 90-25 82-44.5 69.5-67 46-95.5T983 403q0-63-15-120.5T919 173t-84.5-90T709 22.5 541 0H184zm90 696V82h230q43 0 70 1.5t72.5 9 85 27.5 71.5 52q86 82 86 231 0 180-141 252-37 19-86 28.5t-82 11-93 1.5H274zm865 670h90V0h-90v1366zm-701 231q0 32 23 55t55 23 55-23 23-55-23-54.5-55-22.5-55 22.5-23 54.5zm381 0q0 32 23 55t55 23 55-23 23-55-23-54.5-55-22.5-55 22.5-23 54.5z"/><glyph glyph-name="uni04F9" unicode="ӹ" d="M147 836h82V487h199q146 0 213-77 59-65 59-166 0-114-73-181Q560 0 426 0H147v836zm82-758h197q85 0 131 39 57 47 57 127 0 83-59 129-48 37-133 37H229V78zm566 758h82V0h-82v836zm-527 241q0 31 21.5 52.5T342 1151t52.5-21.5T416 1077t-21.5-52-52.5-21-52.5 21-21.5 52zm340 0q0 31 21.5 52.5T682 1151t52.5-21.5T756 1077t-21.5-52-52.5-21-52.5 21-21.5 52z"/><glyph glyph-name="uni1E9E" unicode="ẞ" horiz-adv-x="1146" d="M184 0v1024q0 166 119 272 53 47 124 67.5t134 20.5q137 0 232-63 61-40 94.5-104t32.5-140L627 801q67-8 147-38.5T907 688q129-104 129-264 0-84-31-154.5T899 131q-64-57-169-90.5T532 0v82q192 10 304 106 106 93 106 226 0 74-39 137T803 653q-107 66-271 78v82l291 281q-6 92-78 155-62 54-186 54-123 0-194-64-91-82-91-223V0h-90z"/><glyph glyph-name="uni2010" unicode="‐" horiz-adv-x="614" d="M102 377v94h410v-94H102z"/><glyph glyph-name="uni2011" unicode="‑" horiz-adv-x="614" d="M102 377v94h410v-94H102z"/><glyph glyph-name="figuredash" unicode="‒" horiz-adv-x="1105" d="M143 653v78h820v-78H143z"/><glyph glyph-name="endash" unicode="–" horiz-adv-x="1105" d="M143 385v78h820v-78H143z"/><glyph glyph-name="emdash" unicode="—" horiz-adv-x="1515" d="M143 385v78h1229v-78H143z"/><glyph glyph-name="afii00208" unicode="―" horiz-adv-x="1515" d="M143 385v78h1229v-78H143z"/><glyph glyph-name="quoteleft" unicode="‘" horiz-adv-x="466" d="M336 1366L213 952l-82 25 152 409z"/><glyph glyph-name="quoteright" unicode="’" horiz-adv-x="466" d="M131 977l123 414 82-25-152-410z"/><glyph glyph-name="quotesinglbase" unicode="‚" horiz-adv-x="520" d="M131-281l123 414 82-24-152-410z"/><glyph glyph-name="quotedblleft" unicode="“" horiz-adv-x="704" d="M336 1366L213 952l-82 25 152 409zm237 0L451 952l-82 25 151 409z"/><glyph glyph-name="quotedblright" unicode="”" horiz-adv-x="704" d="M131 977l123 414 82-25-152-410zm238 0l123 414 81-25-151-410z"/><glyph glyph-name="quotedblbase" unicode="„" horiz-adv-x="757" d="M131-281l123 414 82-24-152-410zm238 0l123 414 81-24-151-410z"/><glyph glyph-name="dagger" unicode="†" horiz-adv-x="1122" d="M516 1001v492h90v-492h328v-81H606V-328h-90V920H188v81h328z"/><glyph glyph-name="daggerdbl" unicode="‡" horiz-adv-x="1122" d="M606-328h-90v541H188v82h328v625H188v81h328v492h90v-492h328v-81H606V295h328v-82H606v-541z"/><glyph glyph-name="bullet" unicode="•" horiz-adv-x="2048" d="M737 696q0 118 84.5 202.5T1024 983t202.5-84.5T1311 696t-84-202-203-84-203 84-84 202z"/><glyph glyph-name="ellipsis" unicode="…" horiz-adv-x="1241" d="M131 61q0 32 22 54t54 22 54-22 22-54-22-53.5T207-14 153 7.5 131 61zm414 0q0 32 22 54t54 22 53.5-22T696 61 674.5 7.5 621-14 567 7.5 545 61zm413 0q0 32 22 54t54 22 54-22 22-54-22-53.5-54-21.5-54 21.5T958 61z"/><glyph glyph-name="perthousand" unicode="‰" horiz-adv-x="1904" d="M346 1378q124 0 200.5-75.5T623 1110t-76.5-192.5T346 842t-200 75.5T70 1110t76 192.5 200 75.5zm0-463q93 0 144 59.5t51 135.5-51 135.5-144 59.5-143.5-59.5T152 1110t50.5-135.5T346 915zM188 2l807 1395 62-33L250-31zm711 522q124 0 200.5-75.5T1176 256t-76.5-192.5T899-12 699 63.5 623 256t76 192.5T899 524zm0-463q93 0 144 59.5t51 135.5-51 135.5T899 451t-143.5-59.5T705 256t50.5-135.5T899 61zm660 463q124 0 200-75.5t76-192.5-76-192.5T1559-12t-200.5 75.5T1282 256t76.5 192.5T1559 524zm0-463q93 0 143.5 59.5T1753 256t-50.5 135.5T1559 451t-144-59.5-51-135.5 51-135.5T1559 61z"/><glyph glyph-name="guilsinglleft" unicode="‹" horiz-adv-x="495" d="M385 682L164 424l221-258-53-49L66 424l266 307z"/><glyph glyph-name="guilsinglright" unicode="›" horiz-adv-x="495" d="M111 166l221 258-221 258 53 49 266-307-266-307z"/><glyph glyph-name="fraction" unicode="⁄" horiz-adv-x="253" d="M-307 2l807 1395 61-33L-246-31z"/><glyph glyph-name="uni2080" unicode="₀" horiz-adv-x="675" d="M338 829q110 0 192-98 105-127 105-321 0-191-105-322-81-98-192-98-112 0-193 98Q41 218 41 410q0 196 104 321 82 98 193 98zm0-766q80 0 137 74 78 99 78 273 0 168-78 270-60 76-137 76t-137-76q-78-102-78-270 0-174 78-273 57-74 137-74z"/><glyph glyph-name="uni2081" unicode="₁" horiz-adv-x="675" d="M311 0v745H184l25 74h180V0h-78z"/><glyph glyph-name="uni2082" unicode="₂" horiz-adv-x="675" d="M580 0H76l299 346q66 76 84 109 43 67 43 143 0 69-44.5 113.5T338 756q-81 0-127-51-43-47-43-117H94q0 102 66 172 65 69 180 69 107 0 175.5-65.5T584 598q0-85-54-170-4-5-18-24.5T485 366t-20-26L240 74h340V0z"/><glyph glyph-name="uni2083" unicode="₃" horiz-adv-x="675" d="M98 201h74q3-45 25-76 20-28 55.5-45T324 63q66 0 112.5 50T483 236q0 93-82 133-44 20-114 20v74q70 0 119 35 67 49 67 125 0 57-35 95t-98 38-100-39q-37-37-37-92h-74q3 88 59 147 50 57 152 57 98 0 156.5-59T555 625q0-62-31-116t-98-81q66-20 102.5-74T565 229q0-105-69-172T324-10q-69 0-119.5 32T127 96q-29 50-29 105z"/><glyph glyph-name="uni2084" unicode="₄" horiz-adv-x="675" d="M512 846V229h115v-73H512V0h-78v156H16zM160 229h274v389z"/><glyph glyph-name="uni2085" unicode="₅" horiz-adv-x="675" d="M578 819v-74H303l-61-196q36 8 53 8 51 0 99-17t89-50 65.5-89T573 274q0-132-83-208T283-10Q113-10 37 125l78 20q54-82 168-82 92 0 150.5 58.5T492 274q0 95-56 152t-149 57q-82 0-154-37l119 373h326z"/><glyph glyph-name="uni2086" unicode="₆" horiz-adv-x="675" d="M371 829l57-43-170-243q41 20 94 20 116 0 196.5-81.5T629 276 547 71 336-10q-71 0-128.5 25.5T116 83t-51.5 91T47 274q0 101 66 191zM338 63q89 0 149 59t60 152q0 94-59 154.5T338 489t-150-60.5T129 274q0-91 58.5-151T338 63z"/><glyph glyph-name="uni2087" unicode="₇" horiz-adv-x="673" d="M27 39l479 706H59v74h594L96-8z"/><glyph glyph-name="uni2088" unicode="₈" horiz-adv-x="675" d="M236 426q-115 61-115 188 0 92 61.5 153.5T338 829t155.5-61.5T555 614q0-127-115-188 39-14 67.5-39.5t42-49.5 21-53.5 8.5-42 1-24.5q0-103-69.5-165T338-10 165.5 52 96 217q0 12 1 24.5t8.5 42 21 53.5 42 49.5T236 426zm102 37q62 0 100.5 46.5T477 614q0 53-37.5 97.5T338 756t-101.5-44.5T199 614q0-58 38.5-104.5T338 463zm0-400q73 0 116.5 45.5T498 223q0 73-44.5 119.5T338 389t-115.5-46.5T178 223q0-69 43.5-114.5T338 63z"/><glyph glyph-name="uni2089" unicode="₉" horiz-adv-x="675" d="M305-10l-57 43 170 243q-41-20-94-20-116 0-196.5 81.5T47 543t82 205 211 81q71 0 128.5-25.5T560 736t51.5-91T629 545q0-101-66-191zm33 766q-89 0-149-59t-60-152q0-94 59-154.5T338 330t150 60.5T547 545q0 91-58.5 151T338 756z"/><glyph glyph-name="Euro" unicode="€" horiz-adv-x="1122" d="M1032 1288l-41-76q-133 91-297 91-99 0-182.5-39t-139-103-91-133.5T227 883h666l-33-82H213q-8-55-8-123 0-30 4-88h569l-33-82H221q9-49 23-97t48.5-115.5T373 179t124-84.5T672 59q101 0 195 38.5T1032 205V86Q877-23 674-23q-119 0-214.5 39.5T307 113t-97.5 134T152 385t-25 123H-12l32 82h95q-4 58-4 88 0 68 8 123H-12l32 82h113q47 222 202 361.5T705 1384q183 0 327-96z"/><glyph glyph-name="uni20B4" unicode="₴" horiz-adv-x="1122" d="M287 1135l-66 55q66 83 154 135 104 59 229 59 144 0 221-77 36-36 57-87.5t21-101.5q0-62-27-125.5T803 883h184v-82H727L487 590h500v-82H412q-84-96-84-223 0-107 63-166 60-60 172-60 116 0 211 86 79 71 111 162l78-37q-42-96-125-176-63-60-128-88.5T555-23q-141 0-223 72-99 86-99 240 0 117 76 219H135v82h234l239 211H135v82h547q58 47 92.5 108t34.5 121q0 77-45 129-53 62-160 62-104 0-190-54-71-42-127-114z"/><glyph glyph-name="uni20B6" unicode="₶" horiz-adv-x="1122" d="M291 731v635h264q199 0 305-111 94-97 94-245 0-72-25-139t-71-113Q753 649 557 649H381V465h342v-82H381V0h-90v383H137v82h154v184H137v82h154zm90 553V731h180q140 0 223 80 76 73 76 197 0 126-80 200-50 46-107 61t-126 15H381z"/><glyph glyph-name="uni20B6" unicode="⃏" horiz-adv-x="1122" d="M291 731v635h264q199 0 305-111 94-97 94-245 0-72-25-139t-71-113Q753 649 557 649H381V465h342v-82H381V0h-90v383H137v82h154v184H137v82h154zm90 553V731h180q140 0 223 80 76 73 76 197 0 126-80 200-50 46-107 61t-126 15H381z"/><glyph glyph-name="uni20B6" unicode="⃎" horiz-adv-x="1122" d="M291 731v635h264q199 0 305-111 94-97 94-245 0-72-25-139t-71-113Q753 649 557 649H381V465h342v-82H381V0h-90v383H137v82h154v184H137v82h154zm90 553V731h180q140 0 223 80 76 73 76 197 0 126-80 200-50 46-107 61t-126 15H381z"/><glyph glyph-name="uni20B6" unicode="⃍" horiz-adv-x="1122" d="M291 731v635h264q199 0 305-111 94-97 94-245 0-72-25-139t-71-113Q753 649 557 649H381V465h342v-82H381V0h-90v383H137v82h154v184H137v82h154zm90 553V731h180q140 0 223 80 76 73 76 197 0 126-80 200-50 46-107 61t-126 15H381z"/><glyph glyph-name="uni20B6" unicode="⃌" horiz-adv-x="1122" d="M291 731v635h264q199 0 305-111 94-97 94-245 0-72-25-139t-71-113Q753 649 557 649H381V465h342v-82H381V0h-90v383H137v82h154v184H137v82h154zm90 553V731h180q140 0 223 80 76 73 76 197 0 126-80 200-50 46-107 61t-126 15H381z"/><glyph glyph-name="uni20B6" unicode="⃋" horiz-adv-x="1122" d="M291 731v635h264q199 0 305-111 94-97 94-245 0-72-25-139t-71-113Q753 649 557 649H381V465h342v-82H381V0h-90v383H137v82h154v184H137v82h154zm90 553V731h180q140 0 223 80 76 73 76 197 0 126-80 200-50 46-107 61t-126 15H381z"/><glyph glyph-name="uni20B6" unicode="⃊" horiz-adv-x="1122" d="M291 731v635h264q199 0 305-111 94-97 94-245 0-72-25-139t-71-113Q753 649 557 649H381V465h342v-82H381V0h-90v383H137v82h154v184H137v82h154zm90 553V731h180q140 0 223 80 76 73 76 197 0 126-80 200-50 46-107 61t-126 15H381z"/><glyph glyph-name="uni20B6" unicode="⃉" horiz-adv-x="1122" d="M291 731v635h264q199 0 305-111 94-97 94-245 0-72-25-139t-71-113Q753 649 557 649H381V465h342v-82H381V0h-90v383H137v82h154v184H137v82h154zm90 553V731h180q140 0 223 80 76 73 76 197 0 126-80 200-50 46-107 61t-126 15H381z"/><glyph glyph-name="uni20B6" unicode="⃈" horiz-adv-x="1122" d="M291 731v635h264q199 0 305-111 94-97 94-245 0-72-25-139t-71-113Q753 649 557 649H381V465h342v-82H381V0h-90v383H137v82h154v184H137v82h154zm90 553V731h180q140 0 223 80 76 73 76 197 0 126-80 200-50 46-107 61t-126 15H381z"/><glyph glyph-name="uni20B6" unicode="⃇" horiz-adv-x="1122" d="M291 731v635h264q199 0 305-111 94-97 94-245 0-72-25-139t-71-113Q753 649 557 649H381V465h342v-82H381V0h-90v383H137v82h154v184H137v82h154zm90 553V731h180q140 0 223 80 76 73 76 197 0 126-80 200-50 46-107 61t-126 15H381z"/><glyph glyph-name="uni20B6" unicode="⃆" horiz-adv-x="1122" d="M291 731v635h264q199 0 305-111 94-97 94-245 0-72-25-139t-71-113Q753 649 557 649H381V465h342v-82H381V0h-90v383H137v82h154v184H137v82h154zm90 553V731h180q140 0 223 80 76 73 76 197 0 126-80 200-50 46-107 61t-126 15H381z"/><glyph glyph-name="uni20B6" unicode="⃅" horiz-adv-x="1122" d="M291 731v635h264q199 0 305-111 94-97 94-245 0-72-25-139t-71-113Q753 649 557 649H381V465h342v-82H381V0h-90v383H137v82h154v184H137v82h154zm90 553V731h180q140 0 223 80 76 73 76 197 0 126-80 200-50 46-107 61t-126 15H381z"/><glyph glyph-name="uni20B6" unicode="⃄" horiz-adv-x="1122" d="M291 731v635h264q199 0 305-111 94-97 94-245 0-72-25-139t-71-113Q753 649 557 649H381V465h342v-82H381V0h-90v383H137v82h154v184H137v82h154zm90 553V731h180q140 0 223 80 76 73 76 197 0 126-80 200-50 46-107 61t-126 15H381z"/><glyph glyph-name="uni20B6" unicode="⃃" horiz-adv-x="1122" d="M291 731v635h264q199 0 305-111 94-97 94-245 0-72-25-139t-71-113Q753 649 557 649H381V465h342v-82H381V0h-90v383H137v82h154v184H137v82h154zm90 553V731h180q140 0 223 80 76 73 76 197 0 126-80 200-50 46-107 61t-126 15H381z"/><glyph glyph-name="uni20B6" unicode="⃂" horiz-adv-x="1122" d="M291 731v635h264q199 0 305-111 94-97 94-245 0-72-25-139t-71-113Q753 649 557 649H381V465h342v-82H381V0h-90v383H137v82h154v184H137v82h154zm90 553V731h180q140 0 223 80 76 73 76 197 0 126-80 200-50 46-107 61t-126 15H381z"/><glyph glyph-name="uni20B6" unicode="⃁" horiz-adv-x="1122" d="M291 731v635h264q199 0 305-111 94-97 94-245 0-72-25-139t-71-113Q753 649 557 649H381V465h342v-82H381V0h-90v383H137v82h154v184H137v82h154zm90 553V731h180q140 0 223 80 76 73 76 197 0 126-80 200-50 46-107 61t-126 15H381z"/><glyph glyph-name="uni20B6" unicode="⃀" horiz-adv-x="1122" d="M291 731v635h264q199 0 305-111 94-97 94-245 0-72-25-139t-71-113Q753 649 557 649H381V465h342v-82H381V0h-90v383H137v82h154v184H137v82h154zm90 553V731h180q140 0 223 80 76 73 76 197 0 126-80 200-50 46-107 61t-126 15H381z"/><glyph glyph-name="uni20B6" unicode="₿" horiz-adv-x="1122" d="M291 731v635h264q199 0 305-111 94-97 94-245 0-72-25-139t-71-113Q753 649 557 649H381V465h342v-82H381V0h-90v383H137v82h154v184H137v82h154zm90 553V731h180q140 0 223 80 76 73 76 197 0 126-80 200-50 46-107 61t-126 15H381z"/><glyph glyph-name="uni20B6" unicode="₾" horiz-adv-x="1122" d="M291 731v635h264q199 0 305-111 94-97 94-245 0-72-25-139t-71-113Q753 649 557 649H381V465h342v-82H381V0h-90v383H137v82h154v184H137v82h154zm90 553V731h180q140 0 223 80 76 73 76 197 0 126-80 200-50 46-107 61t-126 15H381z"/><glyph glyph-name="uni20B6" unicode="₽" horiz-adv-x="1122" d="M291 731v635h264q199 0 305-111 94-97 94-245 0-72-25-139t-71-113Q753 649 557 649H381V465h342v-82H381V0h-90v383H137v82h154v184H137v82h154zm90 553V731h180q140 0 223 80 76 73 76 197 0 126-80 200-50 46-107 61t-126 15H381z"/><glyph glyph-name="uni20B6" unicode="₼" horiz-adv-x="1122" d="M291 731v635h264q199 0 305-111 94-97 94-245 0-72-25-139t-71-113Q753 649 557 649H381V465h342v-82H381V0h-90v383H137v82h154v184H137v82h154zm90 553V731h180q140 0 223 80 76 73 76 197 0 126-80 200-50 46-107 61t-126 15H381z"/><glyph glyph-name="uni20B6" unicode="₻" horiz-adv-x="1122" d="M291 731v635h264q199 0 305-111 94-97 94-245 0-72-25-139t-71-113Q753 649 557 649H381V465h342v-82H381V0h-90v383H137v82h154v184H137v82h154zm90 553V731h180q140 0 223 80 76 73 76 197 0 126-80 200-50 46-107 61t-126 15H381z"/><glyph glyph-name="uni20B6" unicode="₺" horiz-adv-x="1122" d="M291 731v635h264q199 0 305-111 94-97 94-245 0-72-25-139t-71-113Q753 649 557 649H381V465h342v-82H381V0h-90v383H137v82h154v184H137v82h154zm90 553V731h180q140 0 223 80 76 73 76 197 0 126-80 200-50 46-107 61t-126 15H381z"/><glyph glyph-name="uni20B6" unicode="₹" horiz-adv-x="1122" d="M291 731v635h264q199 0 305-111 94-97 94-245 0-72-25-139t-71-113Q753 649 557 649H381V465h342v-82H381V0h-90v383H137v82h154v184H137v82h154zm90 553V731h180q140 0 223 80 76 73 76 197 0 126-80 200-50 46-107 61t-126 15H381z"/><glyph glyph-name="uni20B6" unicode="₷" horiz-adv-x="1122" d="M291 731v635h264q199 0 305-111 94-97 94-245 0-72-25-139t-71-113Q753 649 557 649H381V465h342v-82H381V0h-90v383H137v82h154v184H137v82h154zm90 553V731h180q140 0 223 80 76 73 76 197 0 126-80 200-50 46-107 61t-126 15H381z"/><glyph glyph-name="uni20B8" unicode="₸" horiz-adv-x="1122" d="M961 1100H606V0h-90v1100H162v82h799v-82zm0 184H162v82h799v-82z"/><glyph glyph-name="afii61352" unicode="№" horiz-adv-x="1925" d="M274 0h-90v1380l918-1155v1141h90V-35L274 1120V0zm1309 1366q124 0 200.5-75.5T1860 1098t-76.5-193-200.5-76-200 76-76 193 76 192.5 200 75.5zm0-463q93 0 144 59.5t51 135.5-51 135-144 59-143.5-59-50.5-135 50.5-135.5T1583 903zm-235-332v95h471v-95h-471z"/><glyph glyph-name="uni2117" unicode="℗" horiz-adv-x="1515" d="M608 1034h146q110 0 168-53 55-51 55-145 0-95-55-150-59-59-189-59h-55V276h-70v758zm70-63V690h65q90 0 127 39 35 35 35 102 0 70-35 105t-114 35h-78zm782-287q0-134-55-270.5T1247 176q-92-91-217.5-143.5T758-20q-147 0-272.5 53T268 176Q165 277 110 413.5T55 684q0 132 55.5 268.5T268 1190q92 90 217.5 143t272.5 53q146 0 271.5-52.5T1247 1190q102-101 157.5-237.5T1460 684zm-702 641q-118 0-229.5-43.5T328 1153q-93-89-148-214.5T125 684q0-131 55-256.5T328 213q89-85 200.5-128.5T758 41t229.5 43.5T1188 213q93 89 148 214.5t55 256.5q0 129-55 254.5T1188 1153q-89 85-200.5 128.5T758 1325z"/><glyph glyph-name="trademark" unicode="™" horiz-adv-x="1474" d="M463 1292H272V588h-82v704H0v74h463v-74zm158-704h-78l92 839 334-712 336 712 92-839h-78l-64 567-286-612-287 612z"/><glyph glyph-name="partialdiff" unicode="∂" horiz-adv-x="1056" d="M215 1303l10 75q130-13 254-67 75-33 139.5-81T728 1129.5t74-96 52-87.5q109-210 109-469 0-181-76-305-60-96-157-145.5T530-23q-126 0-227 63T148 207 94 434q0 193 125.5 327T537 895t301-160h4q-34 138-125 271-109 158-283 235-103 48-219 62zm662-857q0 159-92.5 265T537 817q-154 0-255.5-109.5T180 430q0-89 31-162t82-118.5 112-70T530 55q66 0 127.5 26t111 74 79 123.5T877 446z"/><glyph glyph-name="product" unicode="∏" horiz-adv-x="1388" d="M70 1454v82h1249v-82h-158V-430h158v-82H905v82h166v1884H315V-430h164v-82H70v82h155v1884H70z"/><glyph glyph-name="summation" unicode="∑" horiz-adv-x="1363" d="M66 1536h1134v-440h-82v358H166l518-899-524-985h975v354h82v-436H66v94l516 975-516 885v94z"/><glyph glyph-name="minus" unicode="−" d="M68 635v78h888v-78H68z"/><glyph glyph-name="uni2215" unicode="∕" horiz-adv-x="958" d="M-70-324L963 1522l65-33L-4-356z"/><glyph glyph-name="uni2219" unicode="∙" horiz-adv-x="409" d="M106 696q0 41 29 70t70 29 69.5-29 28.5-70-28.5-69.5T205 598t-70 28.5-29 69.5z"/><glyph glyph-name="radical" unicode="√" horiz-adv-x="1368" d="M874 1694h494v-78H942L442 0h-88L158 645H0v78h223l172-586h6z"/><glyph glyph-name="infinity" unicode="∞" horiz-adv-x="1366" d="M684 639q-56-103-148.5-174.5T336 393q-128 0-211.5 86.5T41 700q0 130 84 214.5T338 999q102 0 194-69t150-174q25 45 57.5 85.5t76.5 77T916 977t116 22q130 0 211.5-84.5T1325 696q0-135-81-219t-212-84q-60 0-116 22.5T816.5 475t-76 78-56.5 86zm41 59q49-99 132-165t171-66q96 0 155.5 66.5T1243 696q0 101-61 165.5T1026 926q-34 0-65-8.5T891 886t-81-70.5T725 698zm-84-2q-20 37-47.5 73T528 842.5 440 903t-102 23q-95 0-155-64t-60-164q0-102 60.5-166.5T340 467q71 0 144 47.5T641 696z"/><glyph glyph-name="integral" unicode="∫" d="M774 1513l-24-73q-39 22-86 22-52 0-78-26-33-33-33-140V-272q0-148-55-197-46-43-138-43-51 0-110 23l24 73q38-22 86-22 52 0 78 26 33 33 33 140v1568q0 148 55 197 46 43 138 43 51 0 110-23z"/><glyph glyph-name="approxequal" unicode="≈" d="M80 700l-55 33q39 80 96 137 76 72 174 72 35 0 79-14t71.5-27 80.5-41q89-45 131.5-60.5T737 784q77 0 133 56 42 42 74 104l55-33q-37-74-79-118-82-86-195-86-51 0-116 24.5T442 813q-30 17-47.5 25.5t-47.5 17-58 8.5q-75 0-131-53-47-44-78-111zm0-301l-55 33q39 80 96 137 76 72 174 72 35 0 79-14t71.5-27 80.5-41q89-45 131.5-60.5T737 483q77 0 133 56 42 42 74 104l55-33q-37-74-79-118-82-86-195-86-51 0-116 24.5T442 512q-30 17-47.5 25.5t-47.5 17-58 8.5q-75 0-131-53-47-44-78-111z"/><glyph glyph-name="notequal" unicode="≠" d="M68 780v78h497l113 240h74L639 858h317v-78H602L502 567h454v-78H465L346 238h-74l119 251H68v78h360l100 213H68z"/><glyph glyph-name="lessequal" unicode="≤" d="M68 774l888 393v-84L158 735l798-348v-84L68 696v78zm0-532h888v-78H68v78z"/><glyph glyph-name="greaterequal" unicode="≥" d="M956 696L68 303v84l798 348-798 348v84l888-393v-78zM68 242h888v-78H68v78z"/><glyph glyph-name="dotmath" unicode="⋅" horiz-adv-x="409" d="M106 696q0 41 29 70t70 29 69.5-29 28.5-70-28.5-69.5T205 598t-70 28.5-29 69.5z"/><glyph glyph-name="lozenge" unicode="◊" horiz-adv-x="1433" d="M184 684l533 737 532-737L717-53zm971 0l-438 602-438-602L717 82z"/><glyph glyph-name="openbullet" unicode="◦" d="M512 1366q122 0 199-75t77-193-77-193.5T512 829t-199 75.5-77 193.5 77 193 199 75zm0-57q-95 0-153-60t-58-151 58-151 153-60 153 60 58 151-58 151-153 60z"/><glyph glyph-name="uniF400" unicode="" horiz-adv-x="4" d="M-354 1270l88-51-215-263-62 33z"/><glyph glyph-name="uniF401" unicode="" horiz-adv-x="4" d="M-373 1749l103-51-275-258-65 37z"/><glyph glyph-name="uniF406" unicode="" d="M252 1692h82q11-42 49-70 48-37 129-37t129 37q38 28 49 70h82q-9-69-59-119-74-74-201-74t-201 74q-50 50-59 119z"/><glyph glyph-name="uniF407" unicode="" d="M553-102l94-54-221-258-61 37z"/><glyph glyph-name="uniF408" unicode="" d="M512 1610l-197-131-69 55 266 184 266-184-69-55z"/><glyph glyph-name="uniF409" unicode="" d="M395-389l94 287 91-29-127-279z"/><glyph glyph-name="uniF40A" unicode="" d="M395 1065l94 328 91-29-127-320z"/><glyph glyph-name="uniF40B" unicode="" d="M428 1599q0 37 23.5 60.5T512 1683t60.5-23.5T596 1599t-23.5-60-60.5-23-60.5 23-23.5 60z"/><glyph glyph-name="uniF40C" unicode="" d="M348 1612q0 68 48 116t116 48 116-48 48-116-48-116-116-48-116 48-48 116zm80 0q0-37 23.5-60.5T512 1528t60.5 23.5T596 1612t-23.5 60.5T512 1696t-60.5-23.5T428 1612z"/><glyph glyph-name="uniF40D" unicode="" d="M305 1468l-59 45q22 50 47 78 42 45 92 45t131-34q12-5 35-14t33-12.5 25-7 28-3.5q27 0 51 24 23 26 31 53l59-45q-18-54-57-88t-94-34q-41 0-119 34-4 2-22.5 9.5T459 1529t-22.5 8-25.5 7-22 2q-35 0-57-28-12-15-27-50z"/><glyph glyph-name="uniF40E" unicode="" d="M737-281l-18-75q-49-17-92-17-91 0-148 48t-57 122q0 68 47 127 35 44 88 76h90q-56-38-94-86-45-58-45-113 0-44 31-72t92-28q46 0 106 18z"/><glyph glyph-name="uniF4C6" unicode="" horiz-adv-x="1187" d="M1004 1366V-186q0-166-78-236-54-49-142-49-55 0-96 14v84q34-12 76-12 65 0 102 37 47 47 47 186v776q-229-14-348-14-186 0-278 45-89 44-116.5 114T143 950v416h90V950q0-40 2-63.5t11.5-61.5 34-65.5T344 713q63-31 250-31 141 0 319 14v670h91z"/><glyph glyph-name="uniF4C7" unicode="" horiz-adv-x="843" d="M614 836h82V-186q0-163-78-236-54-49-139-49-39 0-73 12v76q33-10 63-10 59 0 94 35 51 49 51 188v516q-122-20-217-20-136 0-198 45-27 19-43.5 45.5t-23 60-8 53.5-1.5 54v252h82V584q0-115 55-154 45-27 127-27 72 0 227 21v412z"/><glyph glyph-name="uniF4CC" unicode="" horiz-adv-x="1126" d="M29 1366h102l473-885 400 885h94L473 0h-94l174 381zm669 383l103-51-275-258-65 37z"/><glyph glyph-name="uniF4CD" unicode="" horiz-adv-x="876" d="M217-471L414-14 16 836h95L461 92l305 744h94L311-471h-94zm334 1741l88-51-215-263-62 33z"/><glyph glyph-name="dollar.fitted" unicode="" horiz-adv-x="878" d="M782 1190l-65-55q-5 11-12.5 24.5T678 1197t-41 44-57.5 38-75.5 24V750q145-66 203-109 28-19 48.5-38t45-51 38-76.5T852 377q0-89-41-172T689.5 61 504-16v-203h-82v196q-189 0-313 144-63 72-89 149l78 37q23-67 74-131 45-57 112-86t138-31v635l-51 25q-99 46-148 82.5T143 889q-43 71-43 155 0 139 90 236.5T422 1384v183h82v-183q18-2 34.5-5t53-16 66.5-32 65-56 59-85zM504 653V66q115 24 184.5 112T758 375q0 134-133 215-3 1-16 8.5T569 620t-65 33zm-82 138v512q-105-6-166-81.5T195 1049q0-90 55.5-150.5T422 791z"/><glyph glyph-name="Euro.fitted" unicode="" horiz-adv-x="1130" d="M1077 1288l-41-76q-133 91-297 91-99 0-182.5-39t-139-103-91-133.5T272 883h666l-33-82H258q-8-55-8-123 0-30 4-88h569l-32-82H266q9-49 23-97t48.5-115.5T418 179t124-84.5T717 59q101 0 195 38.5T1077 205V86Q922-23 719-23q-119 0-214.5 39.5T352 113t-97.5 134T197 385t-25 123H33l33 82h94q-4 58-4 88 0 68 8 123H33l33 82h112q47 222 202 361.5T750 1384q183 0 327-96z"/><glyph glyph-name="cent.fitted" unicode="" horiz-adv-x="776" d="M481 1341v-208q138 0 264-105V920q-119 128-264 135V338q155 6 275 147V375Q629 265 481 260V27h-78v233q-170 23-275 142.5T23 692q0 176 105 296t275 142v211h78zM403 338v715q-75-13-133.5-50T177 915.5 126 809t-17-115q0-79 30.5-152t99-130.5T403 338z"/><glyph glyph-name="sterling.fitted" unicode="" horiz-adv-x="976" d="M100 559v82h201l-43 72q-64 108-82 143-47 92-47 172 0 67 26 133.5t78 116.5q106 102 263 102 142 0 237-92 109-109 109-287h-90q0 73-24 135t-62 97q-72 65-172 65-122 0-197-79-74-77-74-181 0-81 56-182 32-60 94-158l35-57h247v-82H434q45-88 45-180 0-115-94-236l133-45q5-2 25.5-9t31-10 28-7.5 33-6.5 30.5-2q66 0 115.5 43t76.5 99l74-45Q893 85 825.5 29T676-27q-25 0-58.5 7T562-6t-69 23.5T430 39Q327 74 279 74q-86 0-187-94L43 45q107 117 244 117 44 45 73 104.5T389 379q0 42-16 92.5T334 559H100z"/><glyph glyph-name="yen.fitted" unicode="" horiz-adv-x="1048" d="M987 801H690L565 590h422v-82H563V0h-90v508H63v82h406L348 801H63v82h238L27 1366h104l389-686 398 686h104L737 883h250v-82z"/><glyph glyph-name="florin.fitted" unicode="" horiz-adv-x="880" d="M313 758l15 78h127l92 481q21 101 67 147 52 52 142 52 58 0 118-29l-16-74q-49 25-94 25-61 0-94-31t-43-90l-90-481h206l-14-78H522L375-31q-33-182-92-241-56-56-152-56-74 0-139 29l16 76q62-27 115-27 65 0 100 35 38 38 64 172l153 801H313z"/><glyph glyph-name="uni20B4.fitted" unicode="" horiz-adv-x="925" d="M186 1135l-65 55q67 84 153 135 104 59 230 59 144 0 221-77 36-36 57-87.5t21-101.5q0-61-27.5-125T702 883h185v-82H627L387 590h500v-82H311q-84-96-84-223 0-106 64-166 60-60 172-60 116 0 211 86 77 69 110 162l78-37q-42-96-125-176-63-60-127.5-88.5T455-23q-142 0-224 72-98 85-98 240 0 117 76 219H35v82h233l240 211H35v82h547q58 47 92.5 108t34.5 121q0 77-45 129-53 62-160 62-105 0-191-54-71-42-127-114z"/><glyph glyph-name="uni20B6.fitted" unicode="" horiz-adv-x="864" d="M186 731v635h265q199 0 305-111 94-97 94-245 0-72-25-139t-71-113Q649 649 453 649H276V465h342v-82H276V0h-90v383H33v82h153v184H33v82h153zm90 553V731h181q140 0 223 80 76 73 76 197 0 126-80 200-50 46-107.5 61T442 1284H276z"/><glyph glyph-name="uni20B8.fitted" unicode="" horiz-adv-x="811" d="M805 1100H451V0h-91v1100H6v82h799v-82zm0 184H6v82h799v-82z"/><glyph glyph-name="currency.fitted" unicode="" horiz-adv-x="1183" d="M113 184l-50 52 185 182Q133 545 133 717q0 169 109 293L57 1194l49 49 185-182q125 115 301 115t301-115l184 182 49-49-184-184q111-121 111-295 0-158-113-293l186-186-49-50-186 187Q766 260 596 260q-172 0-299 109zm862 533q0 158-112.5 271.5T592 1102 322.5 989 211 717q0-158 111.5-270.5T592 334t270.5 112.5T975 717z"/><glyph glyph-name="uniF639" unicode="" horiz-adv-x="1097" d="M549 1384q183 0 321-165 82-98 128-235.5t46-301.5-46-301.5T870 145Q799 61 715 19T549-23 382 19 227 145q-82 98-128 235.5T53 682t46 301.5T227 1219q138 165 322 165zm0-1325q142 0 254 140 147 182 147 483t-147 483q-111 138-254 138t-254-138Q147 982 147 682t148-483Q407 59 549 59z"/><glyph glyph-name="uniF63A" unicode="" horiz-adv-x="929" d="M889 0H47l524 578q111 125 150 184 80 121 80 233 0 131-89.5 219.5T483 1303q-146 0-235-101-80-88-80-223H78q0 88 29.5 162.5T186 1266q114 118 303 118 176 0 291-111t115-278q0-143-98-280-51-71-121-148L238 82h651V0z"/><glyph glyph-name="uniF63B" unicode="" horiz-adv-x="878" d="M43 332h90q3-82 45-146 38-55 106-91t136-36q125 0 216 95t91 223q0 84-36 149t-93 101q-64 41-174 41v82q110 0 184 63 45 38 73 97.5t28 125.5q0 114-70 190.5T446 1303q-126 0-196-80-67-73-70-183H94q3 144 101 246 96 98 251 98 163 0 260-98.5t97-243.5q0-101-51-192T588 713q109-35 171-125.5T821 379q0-171-116.5-286.5T420-23q-96 0-186.5 47T92 156q-49 78-49 176z"/><glyph glyph-name="uniF63C" unicode="" horiz-adv-x="1052" d="M827 1411V342h191v-82H827V0h-90v260H2zM162 342h575v803z"/><glyph glyph-name="uniF63D" unicode="" horiz-adv-x="968" d="M928 1366v-82H469L354 915q54 13 92 13 215 0 345.5-133T922 455q0-143-66.5-253.5T679.5 34 436-23q-121 0-231 54T27 203l79 33q57-85 143-131t189-46q169 0 279 111t110 283q0 173-107.5 283T442 846q-117 0-213-60l177 580h522z"/><glyph glyph-name="uniF63E" unicode="" horiz-adv-x="1042" d="M580 1384l69-53-303-430q86 37 186 37 204 0 340-134.5T1008 461q0-207-138-345.5T520-23q-208 0-345.5 137T37 463q0 152 88 278zM522 59q168 0 279.5 115T913 459q0 174-110.5 285.5T522 856 241.5 743 131 459q0-172 112-286T522 59z"/><glyph glyph-name="uniF63F" unicode="" horiz-adv-x="1069" d="M23 29l884 1255H78v82h989L90-23z"/><glyph glyph-name="uniF640" unicode="" horiz-adv-x="901" d="M623 709q106-40 164.5-135.5T846 362t-54-204.5T648.5 23 451-23 253.5 23t-144 134.5T55 362t59 211.5T279 709q-65 34-107.5 82.5t-58.5 99T92.5 969t-4.5 55q0 155 104.5 257.5T451 1384t258-102.5T813 1024q0-20-1.5-39.5t-12-60-29-74.5-56.5-73.5-91-67.5zm-172 39q111 0 189.5 78.5T719 1024q0 120-77.5 199.5T451 1303q-114 0-191.5-79.5T182 1024q0-119 79-197.5T451 748zm0-689q135 0 218 87t83 216q0 135-84.5 221.5T451 670t-216.5-86.5T150 362q0-129 83-216t218-87z"/><glyph glyph-name="uniF641" unicode="" horiz-adv-x="1040" d="M463-23l-70 54 303 432q-86-37-186-37-204 0-339.5 134.5T35 903q0 206 137 343.5T522 1384q208 0 346-136.5T1006 901q0-152-88-278zm57 1326q-168 0-279.5-115T129 905q0-174 111.5-285.5T520 508q170 0 280.5 113T911 905q0 169-111.5 283.5T520 1303z"/><glyph glyph-name="uniF6BA" unicode="" horiz-adv-x="614" d="M102 645v94h410v-94H102z"/><glyph glyph-name="uniF6BB" unicode="" horiz-adv-x="1105" d="M143 653v78h820v-78H143z"/><glyph glyph-name="uniF6BC" unicode="" horiz-adv-x="1515" d="M143 653v78h1229v-78H143z"/><glyph glyph-name="uniF6C3" unicode="" d="M393-389l94 287 91-29-127-279z"/><glyph glyph-name="uniF6C9" unicode="" d="M647 1749l103-51-275-258-65 37z"/><glyph glyph-name="uniF6CA" unicode="" d="M512 1587l197 131 69-55-266-184-266 184 69 55z"/><glyph glyph-name="uniF6CB" unicode="" d="M244 1597q0 32 23 55t55 23 54.5-23 22.5-55-22.5-54.5T322 1520t-55 22.5-23 54.5zm381 0q0 32 22.5 55t54.5 23 55-23 23-55-23-54.5-55-22.5-54.5 22.5T625 1597z"/><glyph glyph-name="uniF6CE" unicode="" d="M549 1440l-275 258 103 51 237-272z"/><glyph glyph-name="uniF6CF" unicode="" d="M492 1749l106-53-205-256-74 30zm247 0l107-53-205-256-74 30z"/><glyph glyph-name="uniF6D0" unicode="" d="M236 1536v90h552v-90H236z"/><glyph glyph-name="uniF6D1" unicode="" d="M225 1645l72 38q60-131 215-131t215 131l72-38q-29-66-84-107.5T611 1483t-99-13-99 13-104 54.5-84 107.5z"/><glyph glyph-name="uniF6D4" unicode="" d="M246 1174l69 34q16-64 68.5-106.5T512 1059t128.5 42.5T709 1208l69-34q-10-32-27-61.5t-47-61.5-79.5-51T512 981t-112.5 19-79.5 51-47 61.5-27 61.5z"/><glyph glyph-name="uniF6DC" unicode="" horiz-adv-x="385" d="M213 0v1284H0l41 82h262V0h-90z"/><glyph glyph-name="uniF6DE" unicode="" horiz-adv-x="1136" d="M106 385v78h922v-78H106z"/><glyph glyph-name="nbspace" horiz-adv-x="477"/><glyph glyph-name="hyphenminus" horiz-adv-x="614" d="M102 377v94h410v-94H102z"/><glyph glyph-name="dotlessi1" horiz-adv-x="376" d="M147 836h82V0h-82v836z"/></font>
</defs>
</svg>
