<svg xmlns="http://www.w3.org/2000/svg"><defs><font id="FuturaPT-Medium" horiz-adv-x="1024"><font-face font-family="Futura PT Medium" font-weight="450" units-per-em="2048" panose-1="2 11 6 2 2 2 4 2 3 3" ascent="1563" descent="-485" x-height="862" cap-height="1366" bbox="-741 -553 2390 1915" underline-thickness="102" underline-position="-204" unicode-range="U+0020-FB02"/><glyph glyph-name="afii10017.var.accented" unicode="А`" horiz-adv-x="1343" d="M1110 0L967 330H383L233 0H8l680 1446L1335 0h-225zM469 526h414L680 989zm170 963l-98 82 282 284 176-122z"/><glyph glyph-name="afii10022.var.accented" unicode="Е`" d="M918 1366v-197H373V823h528V627H373V197h545V0H164v1366h754zm-439 123l-98 82 283 284 176-122z"/><glyph glyph-name="afii10026.var.accented" unicode="И`" horiz-adv-x="1458" d="M1085 0v920L164-61v1427h209V442l921 981V0h-209zM696 1489l-98 82 283 284 176-122z"/><glyph glyph-name="afii10032.var.accented" unicode="О`" horiz-adv-x="1617" d="M809 1391q151 0 283.5-54.5t226-149 147.5-226 54-279.5-54-279.5-147.5-226-226-149T809-27 525.5 27.5t-226 149-147.5 226T98 682t54 279.5 147.5 226 226 149T809 1391zm0-1225q220 0 361 144.5T1311 682t-141 371.5T809 1198t-361-144.5T307 682t141-371.5T809 166zm-33 1323l-98 82 283 284 176-122z"/><glyph glyph-name="afii10037.var.accented" unicode="У`" horiz-adv-x="1167" d="M12 1366h254l352-729 320 729h217L539 0H322l176 387zm539 123l-98 82 282 284 176-122z"/><glyph glyph-name="afii10045.var.accented" unicode="Ы`" horiz-adv-x="1515" d="M164 0v1366h209V815h155q220 0 342-108 60-52 94.5-130.5T999 406q0-98-43.5-187.5T829 74Q719 0 530 0H164zm209 618V197h147q20 0 33.5.5T598 202t54 11 51.5 22 47 36.5 31.5 55 13 76.5q0 32-6.5 60.5T763 521t-48 50-78 34-113 13H373zm770 748h209V0h-209v1366zm-418 123l-98 82 282 284 176-122z"/><glyph glyph-name="afii10047.var.accented" unicode="Э`" horiz-adv-x="1273" d="M98 1047v245q173 99 396 99 144 0 262-41t217-138q203-201 203-528 0-321-203-524Q786-27 487-27 272-27 98 76v248q88-89 191.5-123.5T487 166q209 0 332 123 124 124 139 305H283v197h671q-18 165-125 276-125 131-340 131-222 0-391-151zm391 442l-98 82 283 284 176-122z"/><glyph glyph-name="afii10048.var.accented" unicode="Ю`" horiz-adv-x="2048" d="M373 823h205q36 215 182 365 199 203 500 203 147 0 275.5-54.5T1755 1188t143-225.5 52-280.5q0-198-89-360.5T1613.5 66 1260-27q-99 0-186 21T921.5 52 809 128t-84 85q-63 77-103.5 183.5T578 627H373V0H164v1366h209V823zm887-657q212 0 346.5 145T1741 682t-134.5 371-346.5 145-347-145-135-371 135-371 347-145zM991 1489l-98 82 283 284 176-122z"/><glyph glyph-name="afii10049.var.accented" unicode="Я`" horiz-adv-x="1093" d="M41 0l405 569q-54 6-110.5 30.5T236 662Q119 764 119 952q0 173 104 285 42 45 92 73.5t105 39 89.5 13.5 84.5 3h336V0H721v547h-49L299 0H41zm680 1174H618q-83 0-138.5-13.5T385 1110q-66-62-66-158 0-110 78-164 73-49 209-49h115v435zm-207 315l-98 82 282 284 176-122z"/><glyph glyph-name="afii10023.var.accented" unicode="Ё`" d="M918 1366v-197H373V823h528V627H373V197h545V0H164v1366h754zm-469 145l-68 60 227 284 129-94zm-320 131q0 40 31 76.5t84 36.5q49 0 81.5-32.5T358 1642q0-50-32-82t-82-32q-54 0-84.5 36.5T129 1642zm594 0q0 48 33 80.5t82 32.5q53 0 83.5-36.5T952 1642q0-41-30-77.5t-84-36.5q-50 0-82.5 32.5T723 1642z"/><glyph glyph-name="afii10065.var.accented" unicode="а`" horiz-adv-x="1085" d="M758 762v100h200V0H758v90Q657-27 500-27q-128 0-225 65.5t-145 169T82 432q0 103 33.5 189t91 143.5 134 89T502 885q161 0 256-123zm-232-57q-107 0-173-79.5T287 428q0-115 66.5-194.5T526 154q102 0 173 71.5T770 426q0 134-71 206.5T526 705zm170 677l185-94-320-295-110 70z"/><glyph glyph-name="afii10070.var.accented" unicode="е`" horiz-adv-x="987" d="M731 291l168-94Q842 95 754 39 651-27 500-27 320-27 209 84q-61 61-94 147T82 414q0 101 35 193.5T219 768q117 117 289 117 167 0 276-113 121-125 121-364v-25H287q3-48 22.5-95.5T360 209q55-55 154-55 80 0 137 43 50 38 80 94zM301 547h399q-12 71-61 117-53 49-135 49-86 0-142-56-45-42-61-110zm350 835l185-94-320-295-110 70z"/><glyph glyph-name="afii10074.var.accented" unicode="и`" horiz-adv-x="1044" d="M127 862h201V373l590 567V0H717v502L127-66v928zm549 520l184-94-319-295-111 70z"/><glyph glyph-name="afii10080.var.accented" unicode="о`" horiz-adv-x="1085" d="M543 885q197 0 329-128.5T1004 430q0-197-132.5-327T543-27 214.5 103 82 430q0 198 132 326.5T543 885zm0-731q118 0 187 74.5T799 428q0 71-22 126t-59 87-81.5 48-93.5 16-93.5-16-81.5-48-59-87-22-126q0-125 69-199.5T543 154zm153 1228l185-94-320-295-110 70z"/><glyph glyph-name="afii10085.var.accented" unicode="у`" horiz-adv-x="987" d="M63-469l318 604L12 862h242l246-504 250 504h225L289-469H63zm584 1851l184-94-319-295-111 70z"/><glyph glyph-name="afii10093.var.accented" unicode="ы`" horiz-adv-x="1187" d="M127 0v862h201V557h114q41 0 67-2t63.5-9.5T642 519t60-50q68-75 68-188 0-129-78-207-27-26-57-42.5T568 9t-61-7.5T440 0H127zm201 172h92q74 0 104 18 45 32 45 89 0 58-43 86-33 20-104 20h-94V172zM860 0v862h201V0H860zM748 1382l184-94-320-295-110 70z"/><glyph glyph-name="afii10095.var.accented" unicode="э`" horiz-adv-x="876" d="M82 649v191q115 45 244 45 217 0 344-127 125-125 125-326 0-200-127-330Q545-27 346-27 209-27 82 23v190q105-59 235-59 126 0 195 69 50 50 63 133H176v168h393q-17 91-86 138-60 43-166 43-120 0-235-56zm375 733l184-94-319-295-111 70z"/><glyph glyph-name="afii10096.var.accented" unicode="ю`" horiz-adv-x="1433" d="M328 543h137q20 120 113 215 127 127 321 127 192 0 322.5-128.5T1352 430q0-197-130-327T899-27q-204 0-332 138-94 102-106 247H328V0H127v862h201V543zm571 162q-104 0-176-69.5T651 428t72-206 176-68 176 68 72 206-72 207.5T899 705zm-29 677l185-94-320-295-110 70z"/><glyph glyph-name="afii10097.var.accented" unicode="я`" horiz-adv-x="856" d="M16 0l271 342q-78 11-137 66-72 69-72 178 0 124 80 198 50 48 110 63t140 15h321V0H528v317h-41L252 0H16zm512 481v209H412q-72 0-105-18-49-29-49-86 0-55 41-84 33-21 111-21h118zm54 901l184-94-320-295-110 70z"/><glyph glyph-name="afii10071.var.accented" unicode="ё`" horiz-adv-x="987" d="M731 291l168-94Q842 95 754 39 651-27 500-27 320-27 209 84q-61 61-94 147T82 414q0 101 35 193.5T219 768q117 117 289 117 167 0 276-113 121-125 121-364v-25H287q3-48 22.5-95.5T360 209q55-55 154-55 80 0 137 43 50 38 80 94zM301 547h399q-12 71-61 117-53 49-135 49-86 0-142-56-45-42-61-110zm242 835l151-75-295-295-77 51zm-437-204q0 50 32 82t81 32q50 0 82.5-32.5T334 1178q0-54-37-84.5t-78-30.5-77 31.5-36 83.5zm553 0q0 49 32.5 81.5T774 1292q54 0 84.5-36.5T889 1178q0-46-34.5-80.5T774 1063q-41 0-78 30.5t-37 84.5z"/><glyph glyph-name="fi" unicode="fi" horiz-adv-x="962" d="M549 678H332V0H131v678H61v184h70v287q0 52 2 83t14.5 74 36.5 78q96 134 299 134 211 0 299-134 35-56 44.5-108t9.5-127v-59H635v36q0 92-25 134-40 65-127 65-92 0-127-65-24-38-24-134V862h217V678zm86 184h201V0H635v862z"/><glyph glyph-name="fl" unicode="fl" horiz-adv-x="962" d="M549 678H332V0H131v678H61v184h70v287q0 52 2 83t14.5 74 36.5 78q96 134 299 134 211 0 299-134 34-52 44-105.5t10-129.5V0H635v1126q0 88-25 134-38 65-127 65-92 0-127-65-24-38-24-134V862h217V678z"/><glyph glyph-name=".notdef" horiz-adv-x="477"/><glyph glyph-name=".null" horiz-adv-x="0"/><glyph glyph-name="nonmarkingreturn" horiz-adv-x="682"/><glyph glyph-name="space" horiz-adv-x="477"/><glyph glyph-name="exclam" unicode="!" horiz-adv-x="516" d="M358 338H158v1028h200V338zM135 98q0 51 36 87t87 36 87-36 36-87-36-87-87-36-87 36-36 87z"/><glyph glyph-name="quotedbl" unicode="&quot;" horiz-adv-x="749" d="M319 1366l-36-549H135l-37 549h221zm332 0l-37-549H467l-37 549h221z"/><glyph glyph-name="numbersign" unicode="#" horiz-adv-x="1228" d="M834 0H633l63 401H463L399 0H199l63 401H41l29 181h221l37 229H106l29 180h221l60 375h200l-59-375h234l59 375h201l-60-375h221l-28-180H963l-37-229h221l-29-181H897zM725 582l37 229H528l-36-229h233z"/><glyph glyph-name="dollar" unicode="$" horiz-adv-x="1163" d="M975 1161l-168-98q-19 48-62 86-57 49-147 49-97 0-152-55-40-40-40-105 0-69 53-114 44-38 129-70l102-41q160-65 228-143 94-105 94-258 0-185-119-312Q799 1 668-18v-207H516v200Q360-12 250 111 148 224 135 377l207 45q0-100 57-174 65-82 179-82 99 0 161 65 64 64 64 164 0 87-60 150-11 11-23 21t-20.5 16-23.5 14-21 11-25 11.5-24 10.5l-131 55q-49 22-104 57t-88 68q-86 90-86 209 0 163 104 264 87 83 215 102v183h152v-181q99-8 178-67 83-64 129-158z"/><glyph glyph-name="percent" unicode="%" horiz-adv-x="1658" d="M397 1378q135 0 232.5-94.5T727 1057q0-131-97-226.5T397 735t-232.5 95.5T68 1057q0 132 97 226.5t232 94.5zm0-495q79 0 124.5 53.5T567 1057t-45.5 120.5T397 1231t-124.5-53.5T227 1057t45.5-120.5T397 883zm-6-846l780 1352 97-56L487-23zm871 592q135 0 232-95t97-227q0-131-96.5-226T1262-14t-233 95-97 226q0 132 97.5 227t232.5 95zm0-496q79 0 124.5 53.5T1432 307t-45.5 120.5T1262 481t-124.5-53.5T1092 307t45.5-120.5T1262 133z"/><glyph glyph-name="ampersand" unicode="&amp;" horiz-adv-x="1323" d="M1100 641l133-139-162-187L1323 0h-254L934 168q-50-53-115-100-68-48-137.5-71.5T520-27Q332-27 221.5 84T111 365q0 65 15 119t44.5 96.5 61 73T307 717q53 39 109 76-135 135-135 282 0 60 19.5 115.5t57 101T459 1364t145 27q78 0 142-25.5t104-68 61-94.5 21-107q0-99-60-178-54-70-170-158l242-295zM809 315L539 643q-96-53-150-113-74-79-74-174 0-86 59.5-146T528 150q75 0 154 53 54 39 127 112zM582 905l75 56q82 59 82 135 0 50-34 86.5T604 1219q-62 0-96.5-33.5T473 1098q0-64 47-119z"/><glyph glyph-name="quotesingle" unicode="'" horiz-adv-x="417" d="M319 1366l-36-549H135l-37 549h221z"/><glyph glyph-name="parenleft" unicode="(" horiz-adv-x="663" d="M541-291l-185-71Q270-180 217 51q-53 238-53 522 0 288 57 543 49 219 135 400l185-72q-83-189-123-371-49-218-49-500 0-275 47-483 45-191 125-381z"/><glyph glyph-name="parenright" unicode=")" horiz-adv-x="663" d="M307-362l-184 71q80 190 125 381 47 208 47 483 0 282-49 500-40 182-123 371l184 72q86-181 135-400 58-259 58-543 0-280-54-522-53-231-139-413z"/><glyph glyph-name="asterisk" unicode="*" horiz-adv-x="1126" d="M279 1341l219-92-15 244h160l-16-242 221 90 51-147-233-57 151-185-123-96-131 199-131-199-123 96 152 181-234 57z"/><glyph glyph-name="plus" unicode="+" d="M68 596v184h348v348h192V780h348V596H608V248H416v348H68z"/><glyph glyph-name="comma" unicode="," horiz-adv-x="655" d="M20-264l209 520 181-70-254-505z"/><glyph glyph-name="hyphen" unicode="-" horiz-adv-x="696" d="M102 332v209h492V332H102z"/><glyph glyph-name="period" unicode="." horiz-adv-x="516" d="M135 98q0 51 36 87t87 36 87-36 36-87-36-87-87-36-87 36-36 87z"/><glyph glyph-name="slash" unicode="/" horiz-adv-x="1400" d="M0-362l1077 1929 164-74L164-436z"/><glyph glyph-name="zero" unicode="0" horiz-adv-x="1163" d="M582-23q-180 0-310 148Q98 325 98 682q0 359 174 559 130 148 310 148 179 0 309-148 174-200 174-559 0-357-174-557Q761-23 582-23zm0 1227q-112 0-185-112-94-140-94-408t94-410q73-112 185-112 111 0 184 112 94 142 94 410t-94 408q-73 112-184 112z"/><glyph glyph-name="one" unicode="1" horiz-adv-x="1163" d="M512 0v1174H274l115 192h332V0H512z"/><glyph glyph-name="two" unicode="2" horiz-adv-x="1163" d="M987 193V0H70l473 573q108 132 164 213 71 104 71 197 0 92-59.5 156.5T551 1204q-109 0-172.5-72T309 956H109q4 93 36.5 171t77.5 128q119 134 320 134 106 0 191-34t138.5-92 82-131.5T983 977q0-141-98-287-52-79-195-246L477 193h510z"/><glyph glyph-name="three" unicode="3" horiz-adv-x="1163" d="M340 1018H139q9 161 117 266 110 105 299 105 187 0 295-113 98-101 98-260 0-103-47-180-48-77-123-115 85-33 135-109 58-85 58-211 0-188-117-305Q735-23 520-23 323-23 215 92q-46 50-78 125.5T98 371h201q15-93 74-148 66-61 166-61 95 0 159 57 72 68 72 193 0 102-61 161-64 62-177 62h-40v176h28q115 0 174 59 54 54 54 146 0 83-54 137-53 51-145 51-99 0-152-55-21-22-35-54t-18-50.5-4-26.5z"/><glyph glyph-name="four" unicode="4" horiz-adv-x="1163" d="M918 1466V451h147V258H918V0H717v258H41zM406 446h311v441z"/><glyph glyph-name="five" unicode="5" horiz-adv-x="1163" d="M977 1366v-192H555l-68-228q40 4 64 4 191 0 315-121 133-127 133-350T860 117Q716-23 481-23q-155 0-262 62-98 59-162 158l158 131q3-9 14-26.5t36.5-46T319 209q68-47 179-47 128 0 209 76 88 88 88 231t-82 221q-82 76-224 76-79 0-159-29-71-26-121-61l203 690h565z"/><glyph glyph-name="six" unicode="6" horiz-adv-x="1163" d="M713 1413l151-113-325-411q41 8 86 8 192 0 315-127 56-59 88.5-143t32.5-176q0-95-34.5-187.5T926 106Q795-23 573-23q-224 0-352 134-119 126-119 309 0 133 66 262 15 29 30 55t34 53.5 30.5 43T299 881t35 45zM584 719q-53 0-107-20.5T387 643q-36-34-58-87.5T307 440q0-55 21-110t59-92q33-32 88.5-54T584 162q50 0 102.5 19.5T776 238t58.5 92.5T856 440t-21.5 110-58.5 93q-35 35-87 55.5T584 719z"/><glyph glyph-name="seven" unicode="7" horiz-adv-x="1163" d="M102 55l680 1119H111v192h1015L266-47z"/><glyph glyph-name="eight" unicode="8" horiz-adv-x="1163" d="M582 621q-98 0-162-64-30-30-47-75.5T356 391q0-92 62-160 61-69 164-69 102 0 163 69 62 68 62 160 0 45-17 90.5T743 557q-64 64-161 64zm0 583q-92 0-150-55-57-57-57-152 0-88 55-143 27-28 69-44.5t83-16.5 82.5 16 68.5 45q55 55 55 143 0 95-57 152-58 55-149 55zm225-493q91-39 143-111 62-83 62-205 0-178-109-291Q785-23 582-23q-204 0-322 127-108 112-108 291 0 124 61 205 52 72 143 111-73 32-120 102-50 79-50 186 0 173 115 285 110 105 281 105 170 0 280-105 115-112 115-285 0-109-49-186-47-70-121-102z"/><glyph glyph-name="nine" unicode="9" horiz-adv-x="1163" d="M451-47L299 66l322 411q-36-8-74-8-193 0-320 127-125 125-125 311 0 100 36.5 188.5T238 1249q137 140 352 140 221 0 352-136 119-123 119-309 0-131-66-260-15-29-30-55t-34-53.5-30.5-43T864 485t-35-45zm129 694q117 0 196 82 38 39 59 93.5T856 932q0 117-80 194-81 78-194 78-55 0-107-22t-88-56q-80-80-80-200 0-123 80-203 35-34 86.5-55T580 647z"/><glyph glyph-name="colon" unicode=":" horiz-adv-x="516" d="M135 762q0 51 36 87t87 36 87-36 36-87-36-87-87-36-87 36-36 87zm0-666q0 51 36 87t87 36 87-36 36-87-36-87-87-36-87 36-36 87z"/><glyph glyph-name="semicolon" unicode=";" horiz-adv-x="655" d="M184 762q0 51 36 87t87 36 87-36 36-87-36-87-87-36-87 36-36 87zM20-264l209 520 181-70-254-505z"/><glyph glyph-name="less" unicode="&lt;" d="M281 680l675-320V164L68 596v168l888 432V999z"/><glyph glyph-name="equal" unicode="=" d="M68 778v172h888V778H68zm0-332v172h888V446H68z"/><glyph glyph-name="greater" unicode="&gt;" d="M743 680L68 999v197l888-432V596L68 164v196z"/><glyph glyph-name="question" unicode="?" horiz-adv-x="888" d="M324 993H115q-4 47-4 70 0 154 92 242 90 86 239 86 153 0 248-91 88-85 88-229 0-166-121-252-45-31-143-71l-61-25q-60-23-82-45-31-31-31-74 0-52 35-80 24-20 61-20 51 0 78 31 33 36 33 108h201q0-142-91-237-87-87-223-87-127 0-215 84-84 84-84 218 0 103 66 176 47 51 178 104 6 2 31 11t34.5 13.5 28 12.5 31.5 16.5 24 18.5q45 42 45 102 0 62-34 96-35 35-95 35-62 0-94-37-35-35-35-108 0-23 9-68zm0-897q0 51 35.5 87t86.5 36 87-36 36-87-36-87-87-36-86.5 36T324 96z"/><glyph glyph-name="at" unicode="@" horiz-adv-x="1499" d="M971 899l20 107h139l-79-412q-13-67-13-92 0-43 20.5-62.5T1104 420q32 0 66.5 25.5T1227 502q34 50 52.5 131.5T1298 778q0 70-19 138t-60 131-99 111-144 77-188 29q-163 0-297.5-77.5T278.5 973 201 672q0-180 94.5-325.5T553 139q102-41 233-41 226 0 416 84l35-127q-189-80-440-80-305 0-496 166-42 36-77.5 80.5t-73 109.5-59 154T70 674q0 203 92 366t255 254.5 365 91.5q134 0 252-42t206-118.5 139-191.5 51-254q0-93-25-188t-74-160q-42-56-105-92.5T1096 303q-64 0-104.5 35.5T940 430q-46-71-115.5-105T686 291q-36 0-73.5 9.5t-77 33.5-69.5 59.5-49.5 94T397 618q0 98 32.5 178.5t85 130 115 76.5 126.5 27q73 0 129.5-33.5T971 899zM707 434q87 0 154 78t67 199q0 88-45 132t-111 44q-90 0-153.5-71.5T555 621q0-90 44-138.5T707 434z"/><glyph glyph-name="A" unicode="A" horiz-adv-x="1343" d="M1110 0L967 330H383L233 0H8l680 1446L1335 0h-225zM469 526h414L680 989z"/><glyph glyph-name="B" unicode="B" horiz-adv-x="1077" d="M164 1366h207q139 0 225.5-22.5T748 1260q108-102 108-271 0-96-41-162-38-65-102-94 105-25 176-98 90-95 90-256 0-151-90-246Q763 0 506 0H164v1366zm209-197V778h63q115 0 170 53 53 51 53 156 0 84-49 131-53 51-166 51h-71zm0-563V197h127q142 0 207 53 31 25 49 65.5t18 85.5q0 89-55 144-63 61-215 61H373z"/><glyph glyph-name="C" unicode="C" horiz-adv-x="1269" d="M1176 1292v-245q-168 151-371 151-221 0-359.5-146.5T307 678q0-218 141.5-365T807 166q202 0 369 158V76Q1004-27 801-27q-285 0-484 189Q98 367 98 678q0 326 219 534 190 179 494 179 210 0 365-99z"/><glyph glyph-name="D" unicode="D" horiz-adv-x="1318" d="M164 1366h287q162 0 282-27.5T958 1233q125-94 194-238t69-313q0-171-70.5-313.5T946 131Q835 52 720.5 26T446 0H164v1366zm209-197V197h90q232 0 362 96 80 61 133.5 160.5T1012 682q0 128-52.5 231.5T827 1075q-130 94-364 94h-90z"/><glyph glyph-name="E" unicode="E" d="M918 1366v-197H373V823h528V627H373V197h545V0H164v1366h754z"/><glyph glyph-name="F" unicode="F" horiz-adv-x="921" d="M848 1366v-197H373V823h458V627H373V0H164v1366h684z"/><glyph glyph-name="G" unicode="G" horiz-adv-x="1531" d="M870 518v193h564v-11q0-356-203-553Q1052-27 766-27q-149 0-260 45T301 160q-99 102-151 234.5T98 676q0 153 55 287t144 223q91 93 226 149t288 56q201 0 356-86 141-79 222-205l-166-117q-75 104-168 156-100 59-242 59-219 0-360-141-68-68-107-170.5T307 674q0-103 37.5-201T449 303q129-137 342-137 181 0 305 121 100 98 114 231H870z"/><glyph glyph-name="H" unicode="H" horiz-adv-x="1331" d="M373 1366V825h585v541h209V0H958v629H373V0H164v1366h209z"/><glyph glyph-name="I" unicode="I" horiz-adv-x="536" d="M164 1366h209V0H164v1366z"/><glyph glyph-name="J" unicode="J" horiz-adv-x="741" d="M369 1366h209V481q0-100-10-173.5T526 170q-18-36-43-67.5T420 40 326.5-9 205-27Q69-27-37 43L66 219q58-49 143-49 100 0 137 92 23 59 23 219v885z"/><glyph glyph-name="K" unicode="K" horiz-adv-x="1200" d="M373 1366V821l528 545h275L559 748 1180 0H901L414 606l-41-41V0H164v1366h209z"/><glyph glyph-name="L" unicode="L" horiz-adv-x="806" d="M164 1366h209V197h401V0H164v1366z"/><glyph glyph-name="M" unicode="M" horiz-adv-x="1744" d="M336 0H123l287 1468L885 408l479 1060L1622 0h-213l-139 823L872-63 479 825z"/><glyph glyph-name="N" unicode="N" horiz-adv-x="1527" d="M373 0H164v1458l991-1038v946h209V-84L373 954V0z"/><glyph glyph-name="O" unicode="O" horiz-adv-x="1617" d="M809 1391q151 0 283.5-54.5t226-149 147.5-226 54-279.5-54-279.5-147.5-226-226-149T809-27 525.5 27.5t-226 149-147.5 226T98 682t54 279.5 147.5 226 226 149T809 1391zm0-1225q220 0 361 144.5T1311 682t-141 371.5T809 1198t-361-144.5T307 682t141-371.5T809 166z"/><glyph glyph-name="P" unicode="P" horiz-adv-x="983" d="M164 1366h301q189 0 299-74 83-55 126.5-144T934 961q0-186-133-299-127-107-334-107h-94V0H164v1366zm209-192V748h94q131 0 198.5 58T733 963q0 27-4.5 51.5t-21.5 55-44.5 52.5-78.5 37-119 15h-92z"/><glyph glyph-name="Q" unicode="Q" horiz-adv-x="1617" d="M1294-27L1192 76Q1031-27 809-27q-151 0-283.5 54t-226 148T152 400.5 98 682q0 148 54 279.5t147.5 226 226 149T809 1391q150 0 282.5-54.5t226.5-149 148-226 54-279.5q0-285-189-489l221-220h-258zM981 541l209-207q121 139 121 348 0 227-141 371.5T809 1198t-361-144.5T307 682t141-371.5T809 166q134 0 235 53L721 541h260z"/><glyph glyph-name="R" unicode="R" horiz-adv-x="1093" d="M164 1366h244q127 0 211-18t149-62q52-35 87.5-82t50-95.5T925 1028t5-63q0-146-82.5-248T627 584L1053 0H801L410 559h-37V0H164v1366zm209-192V739h65q21 0 42 2t58 8 67.5 21 60 38 46.5 63 17 92q0 211-285 211h-71z"/><glyph glyph-name="S" unicode="S" horiz-adv-x="1056" d="M922 1161l-168-98q-19 48-62 86-60 49-147 49-91 0-142-47t-51-117q0-107 148-166l137-55q177-72 249-172t72-229q0-194-123.5-316.5T518-27q-197 0-321 138Q95 224 82 377l207 45q0-100 57-174 65-82 178-82 97 0 161.5 64T750 395q0 49-17 89t-49 67.5-61.5 44T553 629l-131 55q-279 116-279 346 0 70 27 134.5t76.5 115 126.5 81 170 30.5q166 0 274-93 65-58 105-137z"/><glyph glyph-name="T" unicode="T" horiz-adv-x="876" d="M856 1169H543V0H334v1169H20v197h836v-197z"/><glyph glyph-name="U" unicode="U" horiz-adv-x="1339" d="M164 1366h209V543q0-160 43-236 34-58 101.5-99.5T670 166t152.5 41.5T924 307q43 76 43 236v823h209V487q0-214-127-354Q901-27 670-27T291 133Q164 273 164 487v879z"/><glyph glyph-name="V" unicode="V" horiz-adv-x="1228" d="M8 1366h225l381-952 381 952h226L614-88z"/><glyph glyph-name="W" unicode="W" horiz-adv-x="1925" d="M8 1366h225l361-913 369 979 356-979 373 913h225L1307-88 950 881 590-88z"/><glyph glyph-name="X" unicode="X" horiz-adv-x="1118" d="M20 0l431 713-377 653h233l266-463 273 463h233L686 713 1098 0H864L565 522 254 0H20z"/><glyph glyph-name="Y" unicode="Y" horiz-adv-x="1105" d="M449 0v590L0 1366h238l315-547 315 547h238L657 590V0H449z"/><glyph glyph-name="Z" unicode="Z" horiz-adv-x="1134" d="M1073 1366L401 197h656V0H61l672 1169H172v197h901z"/><glyph glyph-name="bracketleft" unicode="[" horiz-adv-x="647" d="M553 1309H381V-178h172v-184H180v1855h373v-184z"/><glyph glyph-name="backslash" unicode="\" horiz-adv-x="1400" d="M1401-362l-164-74L160 1493l164 74z"/><glyph glyph-name="bracketright" unicode="]" horiz-adv-x="647" d="M94-178h172v1487H94v184h373V-362H94v184z"/><glyph glyph-name="asciicircum" unicode="^" d="M512 1208L246 717H33l350 649h258l350-649H778z"/><glyph glyph-name="underscore" unicode="_" horiz-adv-x="819" d="M0-295v176h819v-176H0z"/><glyph glyph-name="grave" unicode="`" d="M494 993l-320 295 184 94 246-319z"/><glyph glyph-name="a" unicode="a" horiz-adv-x="1085" d="M758 762v100h200V0H758v90Q657-27 500-27q-128 0-225 65.5t-145 169T82 432q0 103 33.5 189t91 143.5 134 89T502 885q161 0 256-123zm-232-57q-107 0-173-79.5T287 428q0-115 66.5-194.5T526 154q102 0 173 71.5T770 426q0 134-71 206.5T526 705z"/><glyph glyph-name="b" unicode="b" horiz-adv-x="1085" d="M328 1493V762q95 123 256 123 85 0 161.5-31.5t134-89 91-143.5 33.5-189q0-121-48-224.5t-145-169T586-27Q429-27 328 90V0H127v1493h201zm231-788q-102 0-173-72.5T315 426q0-129 71-200.5T559 154q106 0 173 79.5T799 428q0 118-66.5 197.5T559 705z"/><glyph glyph-name="c" unicode="c" horiz-adv-x="860" d="M795 823V598Q686 705 551 705q-115 0-191-76-73-73-73-199 0-129 78-207 72-69 182-69 66 0 132 27.5T795 264V41Q688-27 532-27q-206 0-327 127Q82 227 82 424q0 203 131 334 127 127 346 127 124 0 236-62z"/><glyph glyph-name="d" unicode="d" horiz-adv-x="1085" d="M758 762v731h200V0H758v90Q657-27 500-27q-128 0-225 65.5t-145 169T82 432q0 103 33.5 189t91 143.5 134 89T502 885q161 0 256-123zm-232-57q-107 0-173-79.5T287 428q0-115 66.5-194.5T526 154q102 0 173 71.5T770 426q0 134-71 206.5T526 705z"/><glyph glyph-name="e" unicode="e" horiz-adv-x="987" d="M731 291l168-94Q842 95 754 39 651-27 500-27 320-27 209 84q-61 61-94 147T82 414q0 101 35 193.5T219 768q117 117 289 117 167 0 276-113 121-125 121-364v-25H287q3-48 22.5-95.5T360 209q55-55 154-55 80 0 137 43 50 38 80 94zM301 547h399q-12 71-61 117-53 49-135 49-86 0-142-56-45-42-61-110z"/><glyph glyph-name="f" unicode="f" horiz-adv-x="552" d="M565 678H348V0H147v678H61v184h86v299q0 180 84 271 80 84 205 84 69 0 129-25v-199q-51 31-96 31-57 0-88-33-33-33-33-102V862h217V678z"/><glyph glyph-name="g" unicode="g" horiz-adv-x="1085" d="M758 768v94h200V70q0-169-29-274T817-379q-112-92-287-92-176 0-282 106-48 48-82.5 120T121-96h194q14-82 64-135 56-60 156-60 99 0 157 58 23 22 38 49.5t20 60.5 6.5 53.5T758-16V96Q661-27 496-27 323-27 211 90 82 226 82 432q0 207 127 334 116 119 293 119 158 0 256-117zm-232-63q-90 0-151-58-40-37-64-94.5T287 428q0-65 23-123.5t63-93.5q64-57 153-57 102 0 168 69 76 81 76 203 0 138-82 217-62 62-162 62z"/><glyph glyph-name="h" unicode="h" horiz-adv-x="995" d="M127 0v1493h201V788q95 97 231 97 170 0 254-117 55-81 55-240V0H668v510q0 34-1.5 53.5T656 611t-27 48q-42 46-113 46-48 0-86.5-20.5T369 633q-41-58-41-217V0H127z"/><glyph glyph-name="i" unicode="i" horiz-adv-x="454" d="M127 862h201V0H127v862zm-29 357q0 55 37 92t92 37 92-37 37-92-37-92-92-37-92 37-37 92z"/><glyph glyph-name="j" unicode="j" horiz-adv-x="454" d="M127 862h201V-469H127V862zm-29 357q0 55 37 92t92 37 92-37 37-92-37-92-92-37-92 37-37 92z"/><glyph glyph-name="k" unicode="k" horiz-adv-x="905" d="M127 1493h201V573l280 289h266L504 504 901 0H647L365 369l-37-37V0H127v1493z"/><glyph glyph-name="l" unicode="l" horiz-adv-x="454" d="M127 1493h201V0H127v1493z"/><glyph glyph-name="m" unicode="m" horiz-adv-x="1437" d="M127 0v862h201v-80q85 103 213 103 69 0 128-32.5t95-94.5q90 127 256 127 79 0 144.5-35.5T1266 750q45-82 45-218V0h-201v475q0 113-18 154-28 76-115 76-72 0-119-64-39-55-39-197V0H618v475q0 113-18 154-28 76-115 76-71 0-118-64-39-55-39-197V0H127z"/><glyph glyph-name="n" unicode="n" horiz-adv-x="993" d="M125 0v862h201v-80q92 103 233 103 169 0 254-117 53-75 53-240V0H666v479q0 53-6 92.5T641.5 635 616 674t-34 21.5-35.5 8T508 705q-33 0-54-3t-48-19-42.5-45.5-26.5-86T326 414V0H125z"/><glyph glyph-name="o" unicode="o" horiz-adv-x="1085" d="M543 885q197 0 329-128.5T1004 430q0-197-132.5-327T543-27 214.5 103 82 430q0 198 132 326.5T543 885zm0-731q118 0 187 74.5T799 428q0 71-22 126t-59 87-81.5 48-93.5 16-93.5-16-81.5-48-59-87-22-126q0-125 69-199.5T543 154z"/><glyph glyph-name="p" unicode="p" horiz-adv-x="1085" d="M328 100v-569H127V862h201v-94q98 117 256 117 176 0 298-124.5T1004 436q0-105-36.5-194.5t-96-147T738 5 586-27q-32 0-68.5 7.5t-92.5 38-97 81.5zm231 605q-102 0-173-72.5T315 426q0-129 71-200.5T559 154q106 0 173 79.5T799 428q0 118-66.5 197.5T559 705z"/><glyph glyph-name="q" unicode="q" horiz-adv-x="1085" d="M758 768v94h200V-469H758V96Q659-27 500-27q-128 0-225 65.5T130 207 82 432q0 103 33.5 189t91 143.5 134 89T502 885q158 0 256-117zm-232-63q-107 0-173-79.5T287 428q0-115 66.5-194.5T526 154q102 0 173 71.5T770 426q0 134-71 206.5T526 705z"/><glyph glyph-name="r" unicode="r" horiz-adv-x="679" d="M127 0v862h201v-78q41 48 84 72 49 29 123 29 89 0 157-41l-82-182q-47 30-102 30-80 0-125-47-19-21-31.5-46.5t-17-55.5-5.5-48.5-1-48.5V0H127z"/><glyph glyph-name="s" unicode="s" horiz-adv-x="737" d="M653 733l-149-98q-45 74-123 74-39 0-62-23-18-18-18-45 0-30 29-49 5-3 12-6.5t22-11.5 33-17l103-51q88-45 121-80 63-63 63-160 0-114-76-196-89-97-241-97-114 0-187 56-78 59-110 157l163 78q20-57 48-82 32-32 88-32 54 0 82 28t28 68q0 36-26 65-30 30-86 54l-74 34q-84 39-119 74-61 58-61 145 0 111 71 185 78 82 211 82 93 0 160-45 58-36 98-107z"/><glyph glyph-name="t" unicode="t" horiz-adv-x="495" d="M487 678H334V0H133v678H49v184h84v316h201V862h153V678z"/><glyph glyph-name="u" unicode="u" horiz-adv-x="991" d="M127 862h201V369q0-108 37-156 46-59 131-59t131 59q37 48 37 156v493h200V362q0-95-18.5-161T772 80Q665-27 492-27 323-27 219 80q-55 55-73.5 121T127 362v500z"/><glyph glyph-name="v" unicode="v" horiz-adv-x="917" d="M12 862h226l221-491 221 491h225L459-61z"/><glyph glyph-name="w" unicode="w" horiz-adv-x="1404" d="M12 862h226l223-493 241 567 242-567 223 493h226L944-61 702 489 461-61z"/><glyph glyph-name="x" unicode="x" horiz-adv-x="1015" d="M12 0l381 467L86 862h238l190-252 193 252h245L635 467 1004 0H762L514 322 258 0H12z"/><glyph glyph-name="y" unicode="y" horiz-adv-x="987" d="M63-469l318 604L12 862h242l246-504 250 504h225L289-469H63z"/><glyph glyph-name="z" unicode="z" horiz-adv-x="983" d="M967 862L412 184h512V0H16l559 678H135v184h832z"/><glyph glyph-name="braceleft" unicode="{" d="M590 1157V813q0-97-25-151-15-30-43-56.5T463 565q70-31 102-96 25-54 25-152V-27q0-96 35-131 34-32 145-32h16v-172h-96q-147 0-211 49-90 67-90 235v391q0 150-115 170v164q115 20 115 170v391q0 168 90 236 64 49 211 49h96v-172h-16q-110 0-145-33-35-35-35-131z"/><glyph glyph-name="bar" unicode="|" d="M414-512v2048h196V-512H414z"/><glyph glyph-name="braceright" unicode="}" d="M471 813v344q0 96-35 131-35 33-145 33h-17v172h97q147 0 211-49 90-68 90-236V817q0-151 114-170V483q-114-19-114-170V-78q0-168-90-235-64-49-211-49h-97v172h17q111 0 145 32 35 35 35 131v344q0 98 25 152 32 65 102 96-31 14-59 40.5T496 662q-25 54-25 151z"/><glyph glyph-name="asciitilde" unicode="~" d="M891 739l117-67q-56-128-136-191-73-57-170-57-50 0-95 13.5T473 489q-127 54-178 54-64 0-105-45-35-35-59-92L16 479q40 100 103 170 76 86 188 86 78 0 225-63 3-2 28-12.5t32.5-14 29-11.5 34.5-11 31.5-6 35.5-3q57 0 100 37t68 88z"/><glyph glyph-name="uni00A0" horiz-adv-x="477"/><glyph glyph-name="exclamdown" unicode="¡" horiz-adv-x="516" d="M158 557h200V-471H158V557zm223 240q0-51-36-87t-87-36-87 36-36 87 36 87 87 36 87-36 36-87z"/><glyph glyph-name="cent" unicode="¢" horiz-adv-x="1163" d="M897 1079V856q-98 105-250 105-108 0-178-70-39-37-59.5-92T389 686q0-130 78-205 74-71 188-71 67 0 130.5 28T897 520V297q-90-60-192-66V27H553v211q-147 23-246 122-123 123-123 324 0 209 140 340 100 94 229 111v206h152v-202q100-8 192-60z"/><glyph glyph-name="sterling" unicode="£" horiz-adv-x="1163" d="M1057 909H856v9q0 62-18 120.5t-54 94.5q-63 63-163 63-111 0-177-63-67-67-67-166 0-93 104-291h267V528H541q24-72 24-133 0-70-28-133l108-39q8-3 34-12t42-14 39-10 41-5q55 0 90 40t51 89l168-98q-48-98-104-154-77-77-199-77-23 0-47 3t-41 6-42.5 10-35 10T606 23t-28 10Q425 90 371 90q-42 0-80.5-28.5T231-31L53 59q24 52 62.5 100.5T197 238q61 41 129 45 30 61 30 127 0 71-30 118H92v148h160q-84 177-84 289 0 178 117 295 133 129 338 129 194 0 309-115 125-125 125-354v-11z"/><glyph glyph-name="currency" unicode="¤" horiz-adv-x="1368" d="M188 1352l203-203q121 98 293 98t293-98l203 203 110-111-203-203q93-120 93-286 0-167-93-287l203-203-110-110-203 202q-121-98-293-98t-293 98L188 152 78 262l203 203q-93 120-93 287 0 166 93 286L78 1241zm496-920q133 0 222 90.5T995 752t-89 229-222 90-222-90-89-229 89-229.5T684 432z"/><glyph glyph-name="yen" unicode="¥" horiz-adv-x="1163" d="M1071 772H778l-84-151h377V477H678V0H485v477H92v144h377l-84 151H92v143h213L57 1366h226l299-547 299 547h225L858 915h213V772z"/><glyph glyph-name="brokenbar" unicode="¦" d="M414 799v737h196V799H414zm0-1311v737h196v-737H414z"/><glyph glyph-name="section" unicode="§" horiz-adv-x="1163" d="M991 1075H799q0 111-35 164-23 35-63 56.5t-89 21.5q-91 0-145-57-21-23-35-59.5t-14-67.5q0-64 41-105 35-35 153-76 112-37 176-66.5T897 811q94-90 94-236 0-117-49-192-48-76-143-125 47-25 79.5-60t46.5-73 19.5-67.5T950-2q0-152-98-250-110-110-287-110-176 0-284 108-63 63-86 143.5T172 37h193q0-48 14-93.5t39-72.5q50-57 147-57 84 0 135 45 54 43 54 121 0 80-64 135-75 65-153 75-43 6-136.5 54T274 326q-90 92-90 241 0 114 56 195 51 76 141 117-67 33-113 98-47 67-47 156 0 148 96 247 108 113 293 113 176 0 281-107 44-45 68-104.5t28-99.5 4-97v-10zM588 772q-87 0-142-55-57-57-57-146 0-88 55-143 57-57 144-57 84 0 143 59 55 55 55 141t-57 146q-55 55-141 55z"/><glyph glyph-name="dieresis" unicode="¨" d="M201 1165q0 54 36.5 90.5T328 1292t90.5-36.5T455 1165t-36.5-90.5T328 1038t-90.5 36.5T201 1165zm368 0q0 54 36.5 90.5T696 1292t90.5-36.5T823 1165t-36.5-90.5T696 1038t-90.5 36.5T569 1165z"/><glyph glyph-name="copyright" unicode="©" horiz-adv-x="1552" d="M68 682q0 202 91 364.5T412 1301t364 92q151 0 283-54t225.5-148 147-226 53.5-283-53.5-283-147-226T1059 25 776-29q-202 0-364 92T159 317.5 68 682zm1302 0q0 169-75.5 307.5t-212 219.5-306.5 81-306.5-81-212-219.5T182 682t76-308 212.5-219.5T776 74t305.5 80.5T1294 374t76 308zm-321 362V866q-52 51-116.5 77T807 969q-51 0-100-18t-91-52-68-91-26-128q0-125 80-204t207-79 240 105V322q-115-64-242-64-189 0-314.5 120.5T367 680q0 187 127.5 307.5T815 1108q124 0 234-64z"/><glyph glyph-name="ordfeminine" unicode="ª" horiz-adv-x="761" d="M518 1294v58h135V807H518v51q-61-65-162-65-121 0-192 71-80 80-80 211t82 217q71 74 184 74 111 0 168-72zm-145-45q-63 0-103-37-51-46-51-135 0-80 45-125t109-45q66 0 110 47 41 43 41 123 0 89-49 135-42 37-102 37zM106 702h547V596H106v106z"/><glyph glyph-name="guillemotleft" unicode="«" horiz-adv-x="1038" d="M287 449l260-338-133-97L82 449l332 434 133-97zm381 0l260-338-133-97-332 435 332 434 133-97z"/><glyph glyph-name="logicalnot" unicode="¬" d="M956 0H756v367H68v180h888V0z"/><glyph glyph-name="uni00AD" unicode="­" horiz-adv-x="696" d="M102 332v209h492V332H102z"/><glyph glyph-name="registered" unicode="®" horiz-adv-x="1552" d="M68 682q0 202 91 364.5T412 1301t364 92q151 0 283-54t225.5-148 147-226 53.5-283-53.5-283-147-226T1059 25 776-29q-202 0-364 92T159 317.5 68 682zm1302 0q0 169-75.5 307.5t-212 219.5-306.5 81-306.5-81-212-219.5T182 682t76-308 212.5-219.5T776 74t305.5 80.5T1294 374t76 308zm-248-369H944L707 616V313H561v766h203q69 0 121.5-17t80.5-41.5 45.5-58 22-59.5 4.5-53q0-83-46-139.5T868 633zM707 950V737h28q78 0 119 29t41 80q0 104-156 104h-32z"/><glyph glyph-name="macron" unicode="¯" d="M174 1040v160h676v-160H174z"/><glyph glyph-name="degree" unicode="°" d="M213 1069q0 125 86 211t213 86 213-86 86-211-86-211-213-86-213 86-86 211zm127 0q0-76 50-127t122-51 122 51 50 127-50 127-122 51-122-51-50-127z"/><glyph glyph-name="plusminus" unicode="±" d="M68 717v184h348v334h192V901h348V717H608V383H416v334H68zm0-594v184h888V123H68z"/><glyph glyph-name="twosuperior" unicode="²" horiz-adv-x="757" d="M643 682V547H49l299 332q69 78 103 127 43 60 43 116t-36 89.5-93 33.5q-67 0-105-44.5T215 1096H72q7 119 75 196 79 88 211 88t207.5-74 75.5-180q0-75-61-174-9-14-17.5-26.5t-18-25-15-20T513 860t-14-16-16.5-18-15.5-17L354 682h289z"/><glyph glyph-name="threesuperior" unicode="³" horiz-adv-x="757" d="M236 1133H92q7 85 47 143 69 104 226 104 129 0 194.5-66.5T625 1151q0-126-107-172 11-4 22-9.5t30-20.5 33.5-34 25-51 10.5-71q0-109-74.5-185T350 532q-194 0-262 160-19 50-22 99h143q4-43 23.5-70.5t47-37.5 42-12.5T350 668q69 0 105.5 36.5T492 795q0 17-4.5 33.5T470 866t-44 34-76 13h-49v136h49q129 0 129 96 0 49-32 74.5t-87 25.5q-57 0-89-30.5t-35-81.5z"/><glyph glyph-name="acute" unicode="´" d="M666 1382l184-94-320-295-110 70z"/><glyph glyph-name="mu" unicode="µ" horiz-adv-x="1073" d="M328-469H127V862h201V442q0-120 34-186 29-54 76.5-77t96.5-23q17 0 35 3.5t43 13 49.5 31.5 42.5 54q40 68 40 197v407h201V0H745v150q-25-80-83.5-127.5T528-25q-67 0-119 39t-81 103v-586z"/><glyph glyph-name="mu" unicode="μ" horiz-adv-x="1073" d="M328-469H127V862h201V442q0-120 34-186 29-54 76.5-77t96.5-23q17 0 35 3.5t43 13 49.5 31.5 42.5 54q40 68 40 197v407h201V0H745v150q-25-80-83.5-127.5T528-25q-67 0-119 39t-81 103v-586z"/><glyph glyph-name="paragraph" unicode="¶" horiz-adv-x="1261" d="M616-195H446v844h-26q-86 0-159.5 30T139 758q-90 90-90 243 0 83 30.5 154t84.5 117q111 94 344 94h608v-156H981V-195H813v1405H616V-195z"/><glyph glyph-name="periodcentered" unicode="·" horiz-adv-x="409" d="M45 696q0 68 46.5 114T205 856t113.5-46T365 696q0-67-46-113t-114-46-114 46-46 113z"/><glyph glyph-name="cedilla" unicode="¸" d="M528-109l168-65-209-275-131 66z"/><glyph glyph-name="onesuperior" unicode="¹" horiz-adv-x="757" d="M332 547v684H172l86 135h225V547H332z"/><glyph glyph-name="ordmasculine" unicode="º" horiz-adv-x="770" d="M385 791q-136 0-219 83-80 80-80 209 0 125 84 205 82 78 215 78 129 0 215-78 84-78 84-209 0-125-80-205-87-83-219-83zm0 460q-68 0-111-43-51-51-51-129 0-75 47-125 44-47 115-47 68 0 113 45 49 52 49 125 0 80-51 131-46 43-111 43zM106 702h558V596H106v106z"/><glyph glyph-name="guillemotright" unicode="»" horiz-adv-x="1038" d="M752 449L492 786l133 97 331-434L625 14l-133 97zm-381 0L111 786l133 97 331-434L244 14l-133 97z"/><glyph glyph-name="onequarter" unicode="¼" horiz-adv-x="1638" d="M332 547v684H172l86 135h221V547H332zM461 35l782 1354 98-58L559-23zm1024 846V291h88V156h-88V0h-148v156H909zm-307-598h159v211z"/><glyph glyph-name="onehalf" unicode="½" horiz-adv-x="1638" d="M332 547v684H172l86 135h221V547H332zm6-512l782 1354 99-58L436-23zm1186 100V0H930l299 332q64 73 102 127 43 60 43 116t-36 89.5-93 33.5q-66 0-104-44.5T1096 549H952q7 118 76 196 80 89 211 89 132 0 207.5-74t75.5-180q0-73-62-174-42-66-112-144l-113-127h289z"/><glyph glyph-name="threequarters" unicode="¾" horiz-adv-x="1638" d="M66 791h143q3-57 39-89 37-34 102-34 67 0 107 37 35 31 35 90 0 55-31 82-36 36-111 36h-49v136h37q26 0 38.5.5t34.5 7.5 38 20q30 23 30 68 0 40-24 67-31 33-95 33-57 0-88-31-29-26-36-81H92q3 107 72 176 71 71 201 71 129 0 198-69 64-64 64-160 0-61-27-104-28-48-82-68 55-20 82-57 39-48 39-129 0-105-66-177-79-84-223-84-138 0-213 82-65 71-71 177zM461 35l782 1354 98-58L559-23zm717 248h159v211zm307 598V291h88V156h-88V0h-148v156H909z"/><glyph glyph-name="questiondown" unicode="¿" horiz-adv-x="888" d="M565-98h209q4-47 4-70 0-154-92-242-90-86-240-86-153 0-247 90-88 85-88 230 0 166 120 252 44 30 144 71l61 25q60 23 82 45 31 31 31 74 0 52-35 80-24 20-61 20-51 0-78-31-33-36-33-108H141q0 143 90 237 86 86 224 86 128 0 215-83 84-84 84-218 0-103-66-176Q641 47 510-6q-7-3-31-11.5t-34.5-13T416-43t-31.5-16.5T360-78q-45-42-45-102 0-61 35-96t94-35q63 0 95 37 34 34 34 108 0 28-8 68zm0 895q0-51-36-87t-87-36-87 36-36 87 36 87 87 36 87-36 36-87z"/><glyph glyph-name="Agrave" unicode="À" horiz-adv-x="1343" d="M1110 0L967 330H383L233 0H8l680 1446L1335 0h-225zM469 526h414L680 989zm236 963l-361 244 176 122 283-284z"/><glyph glyph-name="Aacute" unicode="Á" horiz-adv-x="1343" d="M1110 0L967 330H383L233 0H8l680 1446L1335 0h-225zM469 526h414L680 989zm170 963l-98 82 282 284 176-122z"/><glyph glyph-name="Acircumflex" unicode="Â" horiz-adv-x="1343" d="M1110 0L967 330H383L233 0H8l680 1446L1335 0h-225zM469 526h414L680 989zm207 1137l-203-168-135 115 338 274 338-274-135-115z"/><glyph glyph-name="Atilde" unicode="Ã" horiz-adv-x="1343" d="M1110 0L967 330H383L233 0H8l680 1446L1335 0h-225zM469 526h414L680 989zm457 1241l118-94q-84-172-237-172-54 0-113 27-20 9-35 17t-21 11-13.5 6-16.5 7q-52 18-76 18-72 0-104-86l-121 84q37 67 86 111 64 55 144 55 44 0 100-18 67-29 94-43 60-29 84-29 36 0 66.5 27t44.5 79z"/><glyph glyph-name="Adieresis" unicode="Ä" horiz-adv-x="1343" d="M1110 0L967 330H383L233 0H8l680 1446L1335 0h-225zM469 526h414L680 989zM348 1628q0 54 36.5 90.5T475 1755t90.5-36.5T602 1628t-36.5-90.5T475 1501t-90.5 36.5T348 1628zm402 0q0 54 36.5 90.5T877 1755t90.5-36.5 36.5-90.5-36.5-90.5T877 1501t-90.5 36.5T750 1628z"/><glyph glyph-name="Aring" unicode="Å" horiz-adv-x="1343" d="M1110 0L967 330H383L233 0H8l680 1446L1335 0h-225zM469 526h414L680 989zm16 1160q0 83 59 140.5t140 57.5q83 0 141-57.5t58-140.5q0-81-57.5-140T684 1487q-82 0-140.5 58.5T485 1686zm111 0q0-37 25.5-63t62.5-26 62.5 26 25.5 63-25.5 62.5T684 1774t-62.5-25.5T596 1686z"/><glyph glyph-name="AE" unicode="Æ" horiz-adv-x="1896" d="M1118 0L975 326H395L246 0H20l656 1366h604l86-197H823l144-325h528l86-197h-528l194-450h543l86-197h-758zM487 522h406L698 967z"/><glyph glyph-name="Ccedilla" unicode="Ç" horiz-adv-x="1269" d="M1176 1292v-245q-168 151-371 151-221 0-359.5-146.5T307 678q0-218 141.5-365T807 166q202 0 369 158V76Q1004-27 801-27q-285 0-484 189Q98 367 98 678q0 326 219 534 190 179 494 179 210 0 365-99zM717-109l176-77-229-273-132 66z"/><glyph glyph-name="Egrave" unicode="È" d="M918 1366v-197H373V823h528V627H373V197h545V0H164v1366h754zm-332 123l-361 244 176 122 283-284z"/><glyph glyph-name="Eacute" unicode="É" d="M918 1366v-197H373V823h528V627H373V197h545V0H164v1366h754zm-439 123l-98 82 283 284 176-122z"/><glyph glyph-name="Ecircumflex" unicode="Ê" d="M918 1366v-197H373V823h528V627H373V197h545V0H164v1366h754zm-365 297l-203-168-135 115 338 274 338-274-135-115z"/><glyph glyph-name="Edieresis" unicode="Ë" d="M918 1366v-197H373V823h528V627H373V197h545V0H164v1366h754zm-693 262q0 54 36.5 90.5T352 1755t90.5-36.5T479 1628t-36.5-90.5T352 1501t-90.5 36.5T225 1628zm402 0q0 54 36.5 90.5T754 1755t90.5-36.5T881 1628t-36.5-90.5T754 1501t-90.5 36.5T627 1628z"/><glyph glyph-name="Igrave" unicode="Ì" horiz-adv-x="536" d="M164 1366h209V0H164v1366zm100 94l-284 330 200 72 201-346z"/><glyph glyph-name="Iacute" unicode="Í" horiz-adv-x="536" d="M164 1366h209V0H164v1366zm192 496l201-72-285-330-116 56z"/><glyph glyph-name="Icircumflex" unicode="Î" horiz-adv-x="536" d="M164 1366h209V0H164v1366zm104 297l-162-158-120 101 282 268 283-268-121-101z"/><glyph glyph-name="Idieresis" unicode="Ï" horiz-adv-x="536" d="M164 1366h209V0H164v1366zM29 1628q0 46 30.5 80.5T131 1743q40 0 72.5-35t32.5-80-32.5-80-72.5-35q-41 0-71.5 34.5T29 1628zm274 0q0 46 31 80.5t72 34.5 71.5-34.5T508 1628t-30.5-80.5T406 1513t-72 34.5-31 80.5z"/><glyph glyph-name="Eth" unicode="Ð" horiz-adv-x="1318" d="M164 1366h287q162 0 282-27.5T958 1233q125-94 194-238t69-313q0-158-64.5-301T946 131Q830 46 725 23T446 0H164v664H0v176h164v526zm209-197V840h286V664H373V197h90q232 0 362 96 80 61 133.5 160.5T1012 682q0 128-52.5 231.5T827 1075q-130 94-364 94h-90z"/><glyph glyph-name="Ntilde" unicode="Ñ" horiz-adv-x="1527" d="M373 0H164v1458l991-1038v946h209V-84L373 954V0zm655 1767l119-94q-84-172-238-172-53 0-112 27-20 9-35 17t-21 11-13.5 6-16.5 7q-52 18-76 18-73 0-105-86l-120 84q37 67 86 111 64 55 143 55 44 0 100-18 72-31 95-43 60-29 84-29 36 0 66 27t44 79z"/><glyph glyph-name="Ograve" unicode="Ò" horiz-adv-x="1617" d="M809 1391q151 0 283.5-54.5t226-149 147.5-226 54-279.5-54-279.5-147.5-226-226-149T809-27 525.5 27.5t-226 149-147.5 226T98 682t54 279.5 147.5 226 226 149T809 1391zm0-1225q220 0 361 144.5T1311 682t-141 371.5T809 1198t-361-144.5T307 682t141-371.5T809 166zm84 1323l-361 244 177 122 282-284z"/><glyph glyph-name="Oacute" unicode="Ó" horiz-adv-x="1617" d="M809 1391q151 0 283.5-54.5t226-149 147.5-226 54-279.5-54-279.5-147.5-226-226-149T809-27 525.5 27.5t-226 149-147.5 226T98 682t54 279.5 147.5 226 226 149T809 1391zm0-1225q220 0 361 144.5T1311 682t-141 371.5T809 1198t-361-144.5T307 682t141-371.5T809 166zm-84 1323l-98 82 282 284 176-122z"/><glyph glyph-name="Ocircumflex" unicode="Ô" horiz-adv-x="1617" d="M809 1391q151 0 283.5-54.5t226-149 147.5-226 54-279.5-54-279.5-147.5-226-226-149T809-27 525.5 27.5t-226 149-147.5 226T98 682t54 279.5 147.5 226 226 149T809 1391zm0-1225q220 0 361 144.5T1311 682t-141 371.5T809 1198t-361-144.5T307 682t141-371.5T809 166zm0 1497l-203-168-135 115 338 274 338-274-135-115z"/><glyph glyph-name="Otilde" unicode="Õ" horiz-adv-x="1617" d="M809 1391q151 0 283.5-54.5t226-149 147.5-226 54-279.5-54-279.5-147.5-226-226-149T809-27 525.5 27.5t-226 149-147.5 226T98 682t54 279.5 147.5 226 226 149T809 1391zm0-1225q220 0 361 144.5T1311 682t-141 371.5T809 1198t-361-144.5T307 682t141-371.5T809 166zm250 1601l119-94q-84-172-238-172-54 0-113 27-20 9-35 17t-21 11-13.5 6-16.5 7q-52 18-75 18-73 0-105-86l-121 84q37 67 86 111 64 55 144 55 44 0 100-18 67-29 94-43 60-29 84-29 36 0 66.5 27t44.5 79z"/><glyph glyph-name="Odieresis" unicode="Ö" horiz-adv-x="1617" d="M809 1391q151 0 283.5-54.5t226-149 147.5-226 54-279.5-54-279.5-147.5-226-226-149T809-27 525.5 27.5t-226 149-147.5 226T98 682t54 279.5 147.5 226 226 149T809 1391zm0-1225q220 0 361 144.5T1311 682t-141 371.5T809 1198t-361-144.5T307 682t141-371.5T809 166zM481 1628q0 54 36.5 90.5T608 1755t90.5-36.5T735 1628t-36.5-90.5T608 1501t-90.5 36.5T481 1628zm402 0q0 54 36.5 90.5t90.5 36.5 90.5-36.5 36.5-90.5-36.5-90.5-90.5-36.5-90.5 36.5T883 1628z"/><glyph glyph-name="multiply" unicode="×" d="M90 395l291 293L90 981l129 129 293-291 293 291 129-129-291-293 291-293-129-129-293 291-293-291z"/><glyph glyph-name="Oslash" unicode="Ø" horiz-adv-x="1617" d="M47 55l193 191Q98 440 98 682q0 148 54 279.5t148 226 226.5 149T809 1391q255 0 438-142l191 193 116-117-190-192q156-187 156-451 0-148-54-279.5t-147.5-226-226-149T809-27q-268 0-455 154L164-61zm1170 944L502 266q128-100 307-100 220 0 361 144.5T1311 682q0 186-94 317zM389 385l709 727q-121 86-289 86-220 0-361-144.5T307 682q0-181 82-297z"/><glyph glyph-name="Ugrave" unicode="Ù" horiz-adv-x="1339" d="M164 1366h209V543q0-160 43-236 34-58 101.5-99.5T670 166t152.5 41.5T924 307q43 76 43 236v823h209V487q0-214-127-354Q901-27 670-27T291 133Q164 273 164 487v879zm538 123l-360 244 176 122 283-284z"/><glyph glyph-name="Uacute" unicode="Ú" horiz-adv-x="1339" d="M164 1366h209V543q0-160 43-236 34-58 101.5-99.5T670 166t152.5 41.5T924 307q43 76 43 236v823h209V487q0-214-127-354Q901-27 670-27T291 133Q164 273 164 487v879zm473 123l-98 82 282 284 176-122z"/><glyph glyph-name="Ucircumflex" unicode="Û" horiz-adv-x="1339" d="M164 1366h209V543q0-160 43-236 34-58 101.5-99.5T670 166t152.5 41.5T924 307q43 76 43 236v823h209V487q0-214-127-354Q901-27 670-27T291 133Q164 273 164 487v879zm506 297l-203-168-135 115 338 274 338-274-136-115z"/><glyph glyph-name="Udieresis" unicode="Ü" horiz-adv-x="1339" d="M164 1366h209V543q0-160 43-236 34-58 101.5-99.5T670 166t152.5 41.5T924 307q43 76 43 236v823h209V487q0-214-127-354Q901-27 670-27T291 133Q164 273 164 487v879zm178 262q0 54 36.5 90.5T469 1755t90.5-36.5T596 1628t-36.5-90.5T469 1501t-90.5 36.5T342 1628zm401 0q0 54 36.5 90.5T870 1755t90.5-36.5T997 1628t-36.5-90.5T870 1501t-90.5 36.5T743 1628z"/><glyph glyph-name="Yacute" unicode="Ý" horiz-adv-x="1105" d="M449 0v590L0 1366h238l315-547 315 547h238L657 590V0H449zm71 1489l-98 82 283 284 176-122z"/><glyph glyph-name="Thorn" unicode="Þ" horiz-adv-x="983" d="M164 1366h209v-205h92q189 0 299-74 83-55 126.5-144T934 756q0-186-133-299-127-107-334-107h-94V0H164v1366zm209-397V543h94q131 0 198.5 58T733 758q0 27-4.5 51.5t-21.5 55-44.5 52.5-78.5 37-119 15h-92z"/><glyph glyph-name="germandbls" unicode="ß" horiz-adv-x="1163" d="M360 0H160v684H12v178h148v217q0 182 84 295 107 144 321 144 188 0 301-113 105-105 105-270 0-106-47-177-36-54-99-96 123-56 185-155 67-101 67-244 0-122-45-212.5T922 104Q852 42 751 6.5T535-29v193q78 0 149 27t117 77q71 74 71 195 0 144-108 221-44 31-107.5 48.5T535 750v182h26q99 0 158 61 55 55 55 154 0 84-59 139-57 51-146 51-44 0-85.5-16.5T416 1274q-28-33-42-84t-14-100V0z"/><glyph glyph-name="agrave" unicode="à" horiz-adv-x="1085" d="M758 762v100h200V0H758v90Q657-27 500-27q-128 0-225 65.5t-145 169T82 432q0 103 33.5 189t91 143.5 134 89T502 885q161 0 256-123zm-232-57q-107 0-173-79.5T287 428q0-115 66.5-194.5T526 154q102 0 173 71.5T770 426q0 134-71 206.5T526 705zm19 288l-320 295 185 94 245-319z"/><glyph glyph-name="aacute" unicode="á" horiz-adv-x="1085" d="M758 762v100h200V0H758v90Q657-27 500-27q-128 0-225 65.5t-145 169T82 432q0 103 33.5 189t91 143.5 134 89T502 885q161 0 256-123zm-232-57q-107 0-173-79.5T287 428q0-115 66.5-194.5T526 154q102 0 173 71.5T770 426q0 134-71 206.5T526 705zm99 677l184-94-320-295-110 70z"/><glyph glyph-name="acircumflex" unicode="â" horiz-adv-x="1085" d="M758 762v100h200V0H758v90Q657-27 500-27q-128 0-225 65.5t-145 169T82 432q0 103 33.5 189t91 143.5 134 89T502 885q161 0 256-123zm-232-57q-107 0-173-79.5T287 428q0-115 66.5-194.5T526 154q102 0 173 71.5T770 426q0 134-71 206.5T526 705zm-14 464L332 993l-135 107 315 282 315-282-135-107z"/><glyph glyph-name="atilde" unicode="ã" horiz-adv-x="1085" d="M758 762v100h200V0H758v90Q657-27 500-27q-128 0-225 65.5t-145 169T82 432q0 103 33.5 189t91 143.5 134 89T502 885q161 0 256-123zm-232-57q-107 0-173-79.5T287 428q0-115 66.5-194.5T526 154q102 0 173 71.5T770 426q0 134-71 206.5T526 705zm236 569l119-94q-81-176-238-176-24 0-45.5 5.5t-31 9.5-36.5 17q-82 43-86 45-48 21-75 21-75 0-105-94l-121 84q36 65 86 110 66 55 144 55 45 0 100-20 35-13 94-47 52-31 84-31 48 0 75 37t36 78z"/><glyph glyph-name="adieresis" unicode="ä" horiz-adv-x="1085" d="M758 762v100h200V0H758v90Q657-27 500-27q-128 0-225 65.5t-145 169T82 432q0 103 33.5 189t91 143.5 134 89T502 885q161 0 256-123zm-232-57q-107 0-173-79.5T287 428q0-115 66.5-194.5T526 154q102 0 173 71.5T770 426q0 134-71 206.5T526 705zm-325 460q0 54 36.5 90.5T328 1292t90.5-36.5T455 1165t-36.5-90.5T328 1038t-90.5 36.5T201 1165zm368 0q0 54 36.5 90.5T696 1292t90.5-36.5T823 1165t-36.5-90.5T696 1038t-90.5 36.5T569 1165z"/><glyph glyph-name="aring" unicode="å" horiz-adv-x="1085" d="M758 762v100h200V0H758v90Q657-27 500-27q-128 0-225 65.5t-145 169T82 432q0 103 33.5 189t91 143.5 134 89T502 885q161 0 256-123zm-232-57q-107 0-173-79.5T287 428q0-115 66.5-194.5T526 154q102 0 173 71.5T770 426q0 134-71 206.5T526 705zm-207 481q0 78 57.5 135t135.5 57 135.5-57 57.5-135-57.5-135.5T512 993t-135.5 57.5T319 1186zm105 0q0-37 25.5-62.5T512 1098t62.5 25.5T600 1186t-25.5 62.5T512 1274t-62.5-25.5T424 1186z"/><glyph glyph-name="ae" unicode="æ" horiz-adv-x="1548" d="M203 672v186q115 27 243 27 110 0 179-27 76-29 129-96 48 58 118 88 76 35 179 35 187 0 295-113 120-126 120-364v-25H848q3-47 23-95t51-79q55-55 153-55 80 0 137 43 50 38 80 94l168-94q-57-102-145-158-104-66-258-66-105 0-180 37-77 36-123 103Q694 43 614 6q-77-33-182-33-169 0-264 93-86 83-86 196 0 123 82 201 48 45 118 68.5T426 555q120 0 221-57 0 104-57 155-59 52-176 52-100 0-211-33zm248-289q-94 0-142-43-35-32-35-76 0-45 41-80 50-39 136-39 75 0 129 33 55 35 55 90 0 53-64 88-53 27-120 27zm411 164h400q-12 70-62 117-54 49-135 49-82 0-141-56-46-46-62-110z"/><glyph glyph-name="ccedilla" unicode="ç" horiz-adv-x="860" d="M795 823V598Q686 705 551 705q-115 0-191-76-73-73-73-199 0-129 78-207 72-69 182-69 66 0 132 27.5T795 264V41Q688-27 532-27q-206 0-327 127Q82 227 82 424q0 203 131 334 127 127 346 127 124 0 236-62zM446-109l168-65-208-275-132 66z"/><glyph glyph-name="egrave" unicode="è" horiz-adv-x="987" d="M731 291l168-94Q842 95 754 39 651-27 500-27 320-27 209 84q-61 61-94 147T82 414q0 101 35 193.5T219 768q117 117 289 117 167 0 276-113 121-125 121-364v-25H287q3-48 22.5-95.5T360 209q55-55 154-55 80 0 137 43 50 38 80 94zM301 547h399q-12 71-61 117-53 49-135 49-86 0-142-56-45-42-61-110zm254 446l-319 295 184 94 246-319z"/><glyph glyph-name="eacute" unicode="é" horiz-adv-x="987" d="M731 291l168-94Q842 95 754 39 651-27 500-27 320-27 209 84q-61 61-94 147T82 414q0 101 35 193.5T219 768q117 117 289 117 167 0 276-113 121-125 121-364v-25H287q3-48 22.5-95.5T360 209q55-55 154-55 80 0 137 43 50 38 80 94zM301 547h399q-12 71-61 117-53 49-135 49-86 0-142-56-45-42-61-110zm283 835l184-94-319-295-111 70z"/><glyph glyph-name="ecircumflex" unicode="ê" horiz-adv-x="987" d="M731 291l168-94Q842 95 754 39 651-27 500-27 320-27 209 84q-61 61-94 147T82 414q0 101 35 193.5T219 768q117 117 289 117 167 0 276-113 121-125 121-364v-25H287q3-48 22.5-95.5T360 209q55-55 154-55 80 0 137 43 50 38 80 94zM301 547h399q-12 71-61 117-53 49-135 49-86 0-142-56-45-42-61-110zm182 622L303 993l-135 107 315 282 316-282-135-107z"/><glyph glyph-name="edieresis" unicode="ë" horiz-adv-x="987" d="M731 291l168-94Q842 95 754 39 651-27 500-27 320-27 209 84q-61 61-94 147T82 414q0 101 35 193.5T219 768q117 117 289 117 167 0 276-113 121-125 121-364v-25H287q3-48 22.5-95.5T360 209q55-55 154-55 80 0 137 43 50 38 80 94zM301 547h399q-12 71-61 117-53 49-135 49-86 0-142-56-45-42-61-110zm-113 618q0 54 36.5 90.5T315 1292t90.5-36.5T442 1165t-36.5-90.5T315 1038t-90.5 36.5T188 1165zm369 0q0 54 36.5 90.5T684 1292t90.5-36.5T811 1165t-36.5-90.5T684 1038t-90.5 36.5T557 1165z"/><glyph glyph-name="igrave" unicode="ì" horiz-adv-x="454" d="M127 862h201V0H127v862zm98 111l-235 364 207 47 151-374z"/><glyph glyph-name="iacute" unicode="í" horiz-adv-x="454" d="M127 862h201V0H127v862zm131 522l207-47-236-364-123 37z"/><glyph glyph-name="icircumflex" unicode="î" horiz-adv-x="454" d="M127 862h201V0H127v862zm100 301L84 1014l-111 94 254 256 254-256-110-94z"/><glyph glyph-name="idieresis" unicode="ï" horiz-adv-x="454" d="M127 862h201V0H127v862zm-211 303q0 54 36.5 90.5T43 1292t90.5-36.5T170 1165t-36.5-90.5T43 1038t-90.5 36.5T-84 1165zm369 0q0 54 36.5 90.5T412 1292t90.5-36.5T539 1165t-36.5-90.5T412 1038t-90.5 36.5T285 1165z"/><glyph glyph-name="eth" unicode="ð" horiz-adv-x="1085" d="M174 1231l59 147q233-27 416-141l269 88 40-125-200-61q93-73 153-193 93-182 93-436 0-212-76-338-19-32-45-61t-71-63T698.5-6.5 547-27Q348-27 221 94 82 229 82 438q0 197 131 328 119 119 307 119 141 0 252-97-45 170-207 285L201 952l-41 123 258 84q-112 59-244 72zM543 154q113 0 182 69 34 34 54 88.5T799 428q0 133-72 205-69 72-184 72-107 0-176-66-80-77-80-211 0-129 73-205 65-69 183-69z"/><glyph glyph-name="ntilde" unicode="ñ" horiz-adv-x="993" d="M125 0v862h201v-80q92 103 233 103 169 0 254-117 53-75 53-240V0H666v479q0 53-6 92.5T641.5 635 616 674t-34 21.5-35.5 8T508 705q-33 0-54-3t-48-19-42.5-45.5-26.5-86T326 414V0H125zm623 1274l118-94q-81-176-237-176-24 0-45.5 5.5t-31 9.5-36.5 17q-82 43-86 45-48 21-76 21-74 0-104-94l-121 84q36 65 86 110 66 55 143 55 46 0 101-20 35-13 94-47 52-31 84-31 48 0 75 37t36 78z"/><glyph glyph-name="ograve" unicode="ò" horiz-adv-x="1085" d="M543 885q197 0 329-128.5T1004 430q0-197-132.5-327T543-27 214.5 103 82 430q0 198 132 326.5T543 885zm0-731q118 0 187 74.5T799 428q0 71-22 126t-59 87-81.5 48-93.5 16-93.5-16-81.5-48-59-87-22-126q0-125 69-199.5T543 154zm12 839l-319 295 184 94 246-319z"/><glyph glyph-name="oacute" unicode="ó" horiz-adv-x="1085" d="M543 885q197 0 329-128.5T1004 430q0-197-132.5-327T543-27 214.5 103 82 430q0 198 132 326.5T543 885zm0-731q118 0 187 74.5T799 428q0 71-22 126t-59 87-81.5 48-93.5 16-93.5-16-81.5-48-59-87-22-126q0-125 69-199.5T543 154zm112 1228l185-94-320-295-110 70z"/><glyph glyph-name="ocircumflex" unicode="ô" horiz-adv-x="1085" d="M543 885q197 0 329-128.5T1004 430q0-197-132.5-327T543-27 214.5 103 82 430q0 198 132 326.5T543 885zm0-731q118 0 187 74.5T799 428q0 71-22 126t-59 87-81.5 48-93.5 16-93.5-16-81.5-48-59-87-22-126q0-125 69-199.5T543 154zm0 1015L362 993l-135 107 316 282 315-282-135-107z"/><glyph glyph-name="otilde" unicode="õ" horiz-adv-x="1085" d="M543 885q197 0 329-128.5T1004 430q0-197-132.5-327T543-27 214.5 103 82 430q0 198 132 326.5T543 885zm0-731q118 0 187 74.5T799 428q0 71-22 126t-59 87-81.5 48-93.5 16-93.5-16-81.5-48-59-87-22-126q0-125 69-199.5T543 154zm250 1120l118-94q-81-176-237-176-24 0-45.5 5.5t-31 9.5-36.5 17q-82 43-86 45-48 21-76 21-74 0-104-94l-121 84q36 65 86 110 66 55 143 55 46 0 101-20 35-13 94-47 52-31 84-31 48 0 75 37t36 78z"/><glyph glyph-name="odieresis" unicode="ö" horiz-adv-x="1085" d="M543 885q197 0 329-128.5T1004 430q0-197-132.5-327T543-27 214.5 103 82 430q0 198 132 326.5T543 885zm0-731q118 0 187 74.5T799 428q0 71-22 126t-59 87-81.5 48-93.5 16-93.5-16-81.5-48-59-87-22-126q0-125 69-199.5T543 154zM231 1165q0 54 36.5 90.5T358 1292t90.5-36.5T485 1165t-36.5-90.5T358 1038t-90.5 36.5T231 1165zm369 0q0 54 36.5 90.5T727 1292t90.5-36.5T854 1165t-36.5-90.5T727 1038t-90.5 36.5T600 1165z"/><glyph glyph-name="divide" unicode="÷" d="M389 1051q0 51 36 87t87 36 87-36 36-87-36-87-87-36-87 36-36 87zm0-725q0 51 36 87t87 36 87-36 36-87-36-87-87-36-87 36-36 87zM68 596v184h888V596H68z"/><glyph glyph-name="oslash" unicode="ø" horiz-adv-x="1085" d="M20 14l146 150Q82 274 82 430q0 198 131.5 326.5T543 885q167 0 270-84l145 143 91-94-140-135q95-123 95-285 0-197-132.5-327T543-27q-170 0-283 95L123-80zm746 561L395 195q59-41 148-41 50 0 94 15.5t81 47 59 86T799 428q0 82-33 147zM311 297l363 377q-64 31-131 31-49 0-93.5-16T368 641t-59-87-22-126q0-64 24-131z"/><glyph glyph-name="ugrave" unicode="ù" horiz-adv-x="991" d="M127 862h201V369q0-108 37-156 46-59 131-59t131 59q37 48 37 156v493h200V362q0-95-18.5-161T772 80Q665-27 492-27 323-27 219 80q-55 55-73.5 121T127 362v500zm367 131l-320 295 184 94 246-319z"/><glyph glyph-name="uacute" unicode="ú" horiz-adv-x="991" d="M127 862h201V369q0-108 37-156 46-59 131-59t131 59q37 48 37 156v493h200V362q0-95-18.5-161T772 80Q665-27 492-27 323-27 219 80q-55 55-73.5 121T127 362v500zm498 520l184-94-320-295-110 70z"/><glyph glyph-name="ucircumflex" unicode="û" horiz-adv-x="991" d="M127 862h201V369q0-108 37-156 46-59 131-59t131 59q37 48 37 156v493h200V362q0-95-18.5-161T772 80Q665-27 492-27 323-27 219 80q-55 55-73.5 121T127 362v500zm369 307L315 993l-135 107 316 282 315-282-135-107z"/><glyph glyph-name="udieresis" unicode="ü" horiz-adv-x="991" d="M127 862h201V369q0-108 37-156 46-59 131-59t131 59q37 48 37 156v493h200V362q0-95-18.5-161T772 80Q665-27 492-27 323-27 219 80q-55 55-73.5 121T127 362v500zm57 303q0 54 36.5 90.5T311 1292t90.5-36.5T438 1165t-36.5-90.5T311 1038t-90.5 36.5T184 1165zm369 0q0 54 36.5 90.5T680 1292t90.5-36.5T807 1165t-36.5-90.5T680 1038t-90.5 36.5T553 1165z"/><glyph glyph-name="yacute" unicode="ý" horiz-adv-x="987" d="M63-469l318 604L12 862h242l246-504 250 504h225L289-469H63zm584 1851l184-94-319-295-111 70z"/><glyph glyph-name="thorn" unicode="þ" horiz-adv-x="1085" d="M328 96v-565H127v1962h201V768q98 117 256 117 85 0 161.5-31.5t134-89 91-143.5 33.5-189q0-122-48-225T811 38.5 586-27Q427-27 328 96zm231 58q106 0 173 79.5T799 428q0 118-66.5 197.5T559 705q-102 0-173-72.5T315 426q0-129 71-200.5T559 154z"/><glyph glyph-name="ydieresis" unicode="ÿ" horiz-adv-x="987" d="M63-469l318 604L12 862h242l246-504 250 504h225L289-469H63zm119 1634q0 54 36.5 90.5T309 1292t90.5-36.5T436 1165t-36.5-90.5T309 1038t-90.5 36.5T182 1165zm369 0q0 54 36.5 90.5T678 1292t90.5-36.5T805 1165t-36.5-90.5T678 1038t-90.5 36.5T551 1165z"/><glyph glyph-name="Amacron" unicode="Ā" horiz-adv-x="1343" d="M1110 0L967 330H383L233 0H8l680 1446L1335 0h-225zM469 526h414L680 989zm-154 975v164h738v-164H315z"/><glyph glyph-name="amacron" unicode="ā" horiz-adv-x="1085" d="M758 762v100h200V0H758v90Q657-27 500-27q-128 0-225 65.5t-145 169T82 432q0 103 33.5 189t91 143.5 134 89T502 885q161 0 256-123zm-232-57q-107 0-173-79.5T287 428q0-115 66.5-194.5T526 154q102 0 173 71.5T770 426q0 134-71 206.5T526 705zm-352 335v160h676v-160H174z"/><glyph glyph-name="Abreve" unicode="Ă" horiz-adv-x="1343" d="M1110 0L967 330H383L233 0H8l680 1446L1335 0h-225zM469 526h414L680 989zm395 1264h168q-19-100-82-176-39-47-105.5-83T684 1495t-160.5 36-105.5 83q-63 76-82 176h168q19-68 69-100 45-31 111-31t111 31q50 32 69 100z"/><glyph glyph-name="abreve" unicode="ă" horiz-adv-x="1085" d="M758 762v100h200V0H758v90Q657-27 500-27q-128 0-225 65.5t-145 169T82 432q0 103 33.5 189t91 143.5 134 89T502 885q161 0 256-123zm-232-57q-107 0-173-79.5T287 428q0-115 66.5-194.5T526 154q102 0 173 71.5T770 426q0 134-71 206.5T526 705zm156 602h162q-13-63-37.5-110.5T766 1133q-83-103-250-103-170 0-256 100-61 75-80 177h162q19-67 61-101 38-32 107-32t108 30q47 35 64 103z"/><glyph glyph-name="Aogonek" unicode="Ą" horiz-adv-x="1343" d="M684 1452L1335 0h-65q-57-31-96-70-52-48-52-102 0-28 21-49 21-19 67-19 48 0 101 19l-19-144q-59-30-127-30-101 0-161 57-50 50-50 123 0 70 54 131 38 44 102 84L967 330H383L233 0H8zM469 526h414L680 989z"/><glyph glyph-name="aogonek" unicode="ą" horiz-adv-x="1085" d="M758 762v100h200V0h-51q-57-31-104-78-43-45-43-92 0-32 22-51 21-19 62-19 54 0 104 19l-18-127q-59-39-131-39-95 0-154 59-45 45-45 113 0 71 53 131 40 45 105 84v90Q657-27 500-27 328-27 211 90q-60 61-94.5 149T82 432q0 217 137 344 113 109 277 109 165 0 262-123zm-232-57q-98 0-164-70-75-81-75-207 0-57 20-114t55-93q64-67 168-67 102 0 168 69 72 75 72 209 0 116-74 205-73 68-170 68z"/><glyph glyph-name="Cacute" unicode="Ć" horiz-adv-x="1269" d="M1176 1292v-245q-168 151-371 151-221 0-359.5-146.5T307 678q0-218 141.5-365T807 166q202 0 369 158V76Q1004-27 801-27q-285 0-484 189Q98 367 98 678q0 326 219 534 190 179 494 179 210 0 365-99zm-431 197l-98 82 283 284 176-122z"/><glyph glyph-name="cacute" unicode="ć" horiz-adv-x="860" d="M795 823V598Q686 705 551 705q-115 0-191-76-73-73-73-199 0-129 78-207 72-69 182-69 66 0 132 27.5T795 264V41Q688-27 532-27q-206 0-327 127Q82 227 82 424q0 203 131 334 127 127 346 127 124 0 236-62zm-170 559l184-94-320-295-110 70z"/><glyph glyph-name="Ccircumflex" unicode="Ĉ" horiz-adv-x="1269" d="M1176 1292v-245q-168 151-371 151-221 0-359.5-146.5T307 678q0-218 141.5-365T807 166q202 0 369 158V76Q1004-27 801-27q-285 0-484 189Q98 367 98 678q0 326 219 534 190 179 494 179 210 0 365-99zm-377 371l-203-168-135 115 338 274 338-274-136-115z"/><glyph glyph-name="ccircumflex" unicode="ĉ" horiz-adv-x="860" d="M795 823V598Q686 705 551 705q-115 0-191-76-73-73-73-199 0-129 78-207 72-69 182-69 66 0 132 27.5T795 264V41Q688-27 532-27q-206 0-327 127Q82 227 82 424q0 203 131 334 127 127 346 127 124 0 236-62zm-263 346L352 993l-135 107 315 282 316-282-135-107z"/><glyph glyph-name="Cdotaccent" unicode="Ċ" horiz-adv-x="1269" d="M1176 1292v-245q-168 151-371 151-221 0-359.5-146.5T307 678q0-218 141.5-365T807 166q202 0 369 158V76Q1004-27 801-27q-285 0-484 189Q98 367 98 678q0 326 219 534 190 179 494 179 210 0 365-99zm-517 348q0 58 39.5 98t98.5 40q58 0 97.5-39.5T934 1640q0-58-39-97.5t-98-39.5-98.5 39.5T659 1640z"/><glyph glyph-name="cdotaccent" unicode="ċ" horiz-adv-x="860" d="M795 823V598Q686 705 551 705q-115 0-191-76-73-73-73-199 0-129 78-207 72-69 182-69 66 0 132 27.5T795 264V41Q688-27 532-27q-206 0-327 127Q82 227 82 424q0 203 131 334 127 127 346 127 124 0 236-62zm-387 303q0 56 39 95t94 39 94-39 39-95-39-94.5-94-38.5-94 38.5-39 94.5z"/><glyph glyph-name="Ccaron" unicode="Č" horiz-adv-x="1269" d="M1176 1292v-245q-168 151-371 151-221 0-359.5-146.5T307 678q0-218 141.5-365T807 166q202 0 369 158V76Q1004-27 801-27q-285 0-484 189Q98 367 98 678q0 326 219 534 190 179 494 179 210 0 365-99zm-377 424l202 168 136-115-338-274-338 274 135 115z"/><glyph glyph-name="ccaron" unicode="č" horiz-adv-x="860" d="M795 823V598Q686 705 551 705q-115 0-191-76-73-73-73-199 0-129 78-207 72-69 182-69 66 0 132 27.5T795 264V41Q688-27 532-27q-206 0-327 127Q82 227 82 424q0 203 131 334 127 127 346 127 124 0 236-62zm-263 383l181 176 135-106-316-283-315 283 135 106z"/><glyph glyph-name="Dcaron" unicode="Ď" horiz-adv-x="1318" d="M164 1366h287q162 0 282-27.5T958 1233q125-94 194-238t69-313q0-171-70.5-313.5T946 131Q835 52 720.5 26T446 0H164v1366zm209-197V197h90q232 0 362 96 80 61 133.5 160.5T1012 682q0 128-52.5 231.5T827 1075q-130 94-364 94h-90zm139 547l203 168 135-115-338-274-338 274 135 115z"/><glyph glyph-name="dcaron" unicode="ď" horiz-adv-x="1310" d="M758 762v731h200V0H758v90Q657-27 500-27q-128 0-225 65.5t-145 169T82 432q0 103 33.5 189t91 143.5 134 89T502 885q161 0 256-123zm-232-57q-107 0-173-79.5T287 428q0-115 66.5-194.5T526 154q102 0 173 71.5T770 426q0 134-71 206.5T526 705zm500 274l168 434 180-70-213-421z"/><glyph glyph-name="Dcroat" unicode="Đ" horiz-adv-x="1318" d="M164 1366h287q162 0 282-27.5T958 1233q125-94 194-238t69-313q0-158-64.5-301T946 131Q830 46 725 23T446 0H164v664H0v176h164v526zm209-197V840h286V664H373V197h90q232 0 362 96 80 61 133.5 160.5T1012 682q0 128-52.5 231.5T827 1075q-130 94-364 94h-90z"/><glyph glyph-name="dcroat" unicode="đ" horiz-adv-x="1085" d="M758 762v368H307v156h451v207h200v-207h148v-156H958V0H758v90Q657-27 500-27q-128 0-225 65.5t-145 169T82 432q0 103 33.5 189t91 143.5 134 89T502 885q161 0 256-123zm-232-57q-107 0-173-79.5T287 428q0-115 66.5-194.5T526 154q103 0 173.5 71.5T770 426q0 138-71 208.5T526 705z"/><glyph glyph-name="Emacron" unicode="Ē" d="M918 1366v-197H373V823h528V627H373V197h545V0H164v1366h754zm-754 135v164h737v-164H164z"/><glyph glyph-name="emacron" unicode="ē" horiz-adv-x="987" d="M731 291l168-94Q842 95 754 39 651-27 500-27 320-27 209 84q-61 61-94 147T82 414q0 101 35 193.5T219 768q117 117 289 117 167 0 276-113 121-125 121-364v-25H287q3-48 22.5-95.5T360 209q55-55 154-55 80 0 137 43 50 38 80 94zM301 547h399q-12 71-61 117-53 49-135 49-86 0-142-56-45-42-61-110zm-139 493v160h676v-160H162z"/><glyph glyph-name="Edotaccent" unicode="Ė" d="M918 1366v-197H373V823h528V627H373V197h545V0H164v1366h754zm-502 274q0 59 39.5 98.5T553 1778t97.5-39.5T690 1640q0-58-39-97.5t-98-39.5-98 39.5-39 97.5z"/><glyph glyph-name="edotaccent" unicode="ė" horiz-adv-x="987" d="M731 291l168-94Q842 95 754 39 651-27 500-27 320-27 209 84q-61 61-94 147T82 414q0 101 35 193.5T219 768q117 117 289 117 167 0 276-113 121-125 121-364v-25H287q3-48 22.5-95.5T360 209q55-55 154-55 80 0 137 43 50 38 80 94zM301 547h399q-12 71-61 117-53 49-135 49-86 0-142-56-45-42-61-110zm66 579q0 56 39 95t94 39 94-39 39-95-38.5-94.5T500 993t-94.5 38.5T367 1126z"/><glyph glyph-name="Eogonek" unicode="Ę" d="M918 1366v-197H373V844h528V647H373V197h545V0h-82q-59-32-97-70-51-47-51-102 0-28 21-49 21-19 67-19 48 0 101 19l-19-144q-59-30-127-30-102 0-162 57-49 49-49 123 0 72 53 131 37 43 103 84H164v1366h754z"/><glyph glyph-name="eogonek" unicode="ę" horiz-adv-x="987" d="M731 291l168-94q-44-81-115-134-61-46-127-81.5T563-84q-41-45-41-86 0-31 23-51 21-19 61-19 55 0 105 19l-19-127q-62-39-125-39-104 0-159 59-46 48-46 113 0 56 41 115 23 35 78 73-166 5-272 111-61 59-94 146.5T82 414q0 100 35.5 194T219 768q117 117 289 117 167 0 276-113 121-125 121-364v-25H287q3-48 22.5-95.5T360 209q55-55 154-55 80 0 137 43 50 38 80 94zM301 547h399q-12 71-61 117-53 49-135 49-86 0-142-56-45-42-61-110z"/><glyph glyph-name="Ecaron" unicode="Ě" d="M918 1366v-197H373V823h528V627H373V197h545V0H164v1366h754zm-365 350l203 168 135-115-338-274-338 274 135 115z"/><glyph glyph-name="ecaron" unicode="ě" horiz-adv-x="987" d="M731 291l168-94Q842 95 754 39 651-27 500-27 320-27 209 84q-61 61-94 147T82 414q0 101 35 193.5T219 768q117 117 289 117 167 0 276-113 121-125 121-364v-25H287q3-48 22.5-95.5T360 209q55-55 154-55 80 0 137 43 50 38 80 94zM301 547h399q-12 71-61 117-53 49-135 49-86 0-142-56-45-42-61-110zm199 659l180 176 135-106-315-283-316 283 135 106z"/><glyph glyph-name="Gcircumflex" unicode="Ĝ" horiz-adv-x="1531" d="M870 518v193h564v-11q0-356-203-553Q1052-27 766-27q-149 0-260 45T301 160q-99 102-151 234.5T98 676q0 153 55 287t144 223q91 93 226 149t288 56q201 0 356-86 141-79 222-205l-166-117q-75 104-168 156-100 59-242 59-219 0-360-141-68-68-107-170.5T307 674q0-103 37.5-201T449 303q129-137 342-137 181 0 305 121 100 98 114 231H870zm-63 1145l-203-168-135 115 338 274 338-274-135-115z"/><glyph glyph-name="gcircumflex" unicode="ĝ" horiz-adv-x="1085" d="M758 768v94h200V70q0-169-29-274T817-379q-112-92-287-92-176 0-282 106-48 48-82.5 120T121-96h194q14-82 64-135 56-60 156-60 99 0 157 58 23 22 38 49.5t20 60.5 6.5 53.5T758-16V96Q661-27 496-27 323-27 211 90 82 226 82 432q0 207 127 334 116 119 293 119 158 0 256-117zm-232-63q-90 0-151-58-40-37-64-94.5T287 428q0-65 23-123.5t63-93.5q64-57 153-57 102 0 168 69 76 81 76 203 0 138-82 217-62 62-162 62zm-14 464L332 993l-135 107 315 282 315-282-135-107z"/><glyph glyph-name="Gbreve" unicode="Ğ" horiz-adv-x="1531" d="M870 518v193h564v-11q0-356-203-553Q1052-27 766-27q-149 0-260 45T301 160q-99 102-151 234.5T98 676q0 153 55 287t144 223q91 93 226 149t288 56q201 0 356-86 141-79 222-205l-166-117q-75 104-168 156-100 59-242 59-219 0-360-141-68-68-107-170.5T307 674q0-103 37.5-201T449 303q129-137 342-137 181 0 305 121 100 98 114 231H870zm117 1272h168q-19-100-82-176-39-47-105.5-83T807 1495t-160.5 36-105.5 83q-63 76-82 176h168q19-68 69-100 45-31 111-31t111 31q50 32 69 100z"/><glyph glyph-name="gbreve" unicode="ğ" horiz-adv-x="1085" d="M758 768v94h200V70q0-169-29-274T817-379q-112-92-287-92-176 0-282 106-48 48-82.5 120T121-96h194q14-82 64-135 56-60 156-60 99 0 157 58 23 22 38 49.5t20 60.5 6.5 53.5T758-16V96Q661-27 496-27 323-27 211 90 82 226 82 432q0 207 127 334 116 119 293 119 158 0 256-117zm-232-63q-90 0-151-58-40-37-64-94.5T287 428q0-65 23-123.5t63-93.5q64-57 153-57 102 0 168 69 76 81 76 203 0 138-82 217-62 62-162 62zm156 602h162q-13-63-37.5-110.5T766 1133q-83-103-250-103-170 0-256 100-61 75-80 177h162q19-67 61-101 38-32 107-32t108 30q47 35 64 103z"/><glyph glyph-name="Gdotaccent" unicode="Ġ" horiz-adv-x="1531" d="M870 518v193h564v-11q0-356-203-553Q1052-27 766-27q-149 0-260 45T301 160q-99 102-151 234.5T98 676q0 153 55 287t144 223q91 93 226 149t288 56q201 0 356-86 141-79 222-205l-166-117q-75 104-168 156-100 59-242 59-219 0-360-141-68-68-107-170.5T307 674q0-103 37.5-201T449 303q129-137 342-137 181 0 305 121 100 98 114 231H870zM672 1640q0 59 39.5 98.5T809 1778t97.5-39.5T946 1640q0-58-39-97.5t-98-39.5-98 39.5-39 97.5z"/><glyph glyph-name="gdotaccent" unicode="ġ" horiz-adv-x="1085" d="M758 768v94h200V70q0-169-29-274T817-379q-112-92-287-92-176 0-282 106-48 48-82.5 120T121-96h194q14-82 64-135 56-60 156-60 99 0 157 58 23 22 38 49.5t20 60.5 6.5 53.5T758-16V96Q661-27 496-27 323-27 211 90 82 226 82 432q0 207 127 334 116 119 293 119 158 0 256-117zm-232-63q-90 0-151-58-40-37-64-94.5T287 428q0-65 23-123.5t63-93.5q64-57 153-57 102 0 168 69 76 81 76 203 0 138-82 217-62 62-162 62zm-145 421q0 56 39 95t94 39 94-39 39-95-38.5-94.5T514 993t-94.5 38.5T381 1126z"/><glyph glyph-name="Gcommaaccent" unicode="Ģ" horiz-adv-x="1531" d="M870 518v193h564v-11q0-356-203-553Q1052-27 766-27q-149 0-260 45T301 160q-99 102-151 234.5T98 676q0 153 55 287t144 223q91 93 226 149t288 56q201 0 356-86 141-79 222-205l-166-117q-75 104-168 156-100 59-242 59-219 0-360-141-68-68-107-170.5T307 674q0-103 37.5-201T449 303q129-137 342-137 181 0 305 121 100 98 114 231H870zM573-496l148 394 180-70-184-381z"/><glyph glyph-name="gcommaaccent" unicode="ģ" horiz-adv-x="1085" d="M758 768v94h200V70q0-169-29-274T817-379q-112-92-287-92-176 0-282 106-48 48-82.5 120T121-96h194q14-82 64-135 56-60 156-60 99 0 157 58 23 22 38 49.5t20 60.5 6.5 53.5T758-16V96Q661-27 496-27 323-27 211 90 82 226 82 432q0 207 127 334 116 119 293 119 158 0 256-117zm-232-63q-90 0-151-58-40-37-64-94.5T287 428q0-65 23-123.5t63-93.5q64-57 153-57 102 0 168 69 76 81 76 203 0 138-82 217-62 62-162 62zm222 669L600 981l-180 70 184 381z"/><glyph glyph-name="Hcircumflex" unicode="Ĥ" horiz-adv-x="1331" d="M373 1366V825h585v541h209V0H958v629H373V0H164v1366h209zm293 297l-203-168-135 115 338 274 338-274-136-115z"/><glyph glyph-name="hcircumflex" unicode="ĥ" horiz-adv-x="995" d="M127 0v1493h201V788q95 97 231 97 170 0 254-117 55-81 55-240V0H668v510q0 34-1.5 53.5T656 611t-27 48q-42 46-113 46-48 0-86.5-20.5T369 633q-41-58-41-217V0H127zm98 1661L45 1485l-135 106 315 283 316-283-135-106z"/><glyph glyph-name="Hbar" unicode="Ħ" horiz-adv-x="1331" d="M373 1366v-109h585v109h209v-109h123v-172h-123V0H958v629H373V0H164v1085H41v172h123v109h209zm585-281H373V825h585v260z"/><glyph glyph-name="hbar" unicode="ħ" horiz-adv-x="995" d="M127 0v1130H-20v156h147v207h201v-207h409v-156H328V788q95 97 231 97 170 0 254-117 55-81 55-240V0H668v510q0 34-1.5 53.5T656 611t-27 48q-42 46-113 46-48 0-86.5-20.5T369 633q-41-58-41-217V0H127z"/><glyph glyph-name="Imacron" unicode="Ī" horiz-adv-x="536" d="M164 1366h209V0H164v1366zm-184 135v164h577v-164H-20z"/><glyph glyph-name="imacron" unicode="ī" horiz-adv-x="454" d="M127 862h201V0H127v862zm-147 178v160h495v-160H-20z"/><glyph glyph-name="Iogonek" unicode="Į" horiz-adv-x="536" d="M164 1366h209V0q-66-36-105-80-43-46-43-92 0-64 82-64 38 0 107 15l-19-144q-67-30-133-30-86 0-145.5 49.5T57-215q0 70 54 131 38 44 102 84h-49v1366z"/><glyph glyph-name="iogonek" unicode="į" horiz-adv-x="454" d="M127 862h201V0q-66-36-105-80-43-46-43-92 0-64 82-64 46 0 107 15l-19-127q-55-39-127-39-84 0-143.5 48T20-215q0 70 54 131 41 47 104 84h-51v862zm-29 357q0 55 37 92t92 37 92-37 37-92-37-92-92-37-92 37-37 92z"/><glyph glyph-name="Idotaccent" unicode="İ" horiz-adv-x="536" d="M164 1366h209V0H164v1366zm-33 274q0 59 39.5 98.5T268 1778t98-40 40-98-39.5-97.5T268 1503q-58 0-97.5 39.5T131 1640z"/><glyph glyph-name="dotlessi" unicode="ı" horiz-adv-x="454" d="M127 862h201V0H127v862z"/><glyph glyph-name="Jcircumflex" unicode="Ĵ" horiz-adv-x="741" d="M369 1366h209V481q0-100-10-173.5T526 170q-18-36-43-67.5T420 40 326.5-9 205-27Q69-27-37 43L66 219q58-49 143-49 100 0 137 92 23 59 23 219v885zm102 297l-203-168-135 115 338 274 338-274-135-115z"/><glyph glyph-name="jcircumflex" unicode="ĵ" horiz-adv-x="454" d="M127 862h201V-469H127V862zm100 307L47 993l-135 107 315 282 316-282-135-107z"/><glyph glyph-name="Kcommaaccent" unicode="Ķ" horiz-adv-x="1200" d="M373 1366V821l528 545h275L559 748 1180 0H901L414 606l-41-41V0H164v1366h209zm16-1862l148 394 180-70-185-381z"/><glyph glyph-name="kcommaaccent" unicode="ķ" horiz-adv-x="905" d="M127 1493h201V573l280 289h266L504 504 901 0H647L365 369l-37-37V0H127v1493zM266-496l148 394 180-70-184-381z"/><glyph glyph-name="Lacute" unicode="Ĺ" horiz-adv-x="806" d="M164 1366h209V197h401V0H164v1366zm151 123l-98 82 283 284 176-122z"/><glyph glyph-name="lacute" unicode="ĺ" horiz-adv-x="454" d="M127 1493h201V0H127v1493zm231 422l185-94-320-295-110 69z"/><glyph glyph-name="Lcommaaccent" unicode="Ļ" horiz-adv-x="806" d="M164 1366h209V197h401V0H164v1366zM266-496l148 394 180-70-184-381z"/><glyph glyph-name="lcommaaccent" unicode="ļ" horiz-adv-x="454" d="M127 1493h201V0H127v1493zM41-496l147 394 181-70-185-381z"/><glyph glyph-name="Lcaron" unicode="Ľ" horiz-adv-x="806" d="M164 1366h209V197h401V0H164v1366zm307-408l168 435 180-70-213-422z"/><glyph glyph-name="lcaron" unicode="ľ" horiz-adv-x="675" d="M127 1493h201V0H127v1493zm262-514l168 434 180-70-213-421z"/><glyph glyph-name="Ldot" unicode="Ŀ" horiz-adv-x="806" d="M164 1366h209V197h401V0H164v1366zm358-682q0 58 39 97.5t98 39.5 98.5-39.5T797 684t-39.5-97.5T659 547t-98 39.5-39 97.5z"/><glyph glyph-name="ldot" unicode="ŀ" horiz-adv-x="720" d="M127 1493h201V0H127v1493zm328-750q0 56 39 95t94 39 94-39 39-95q0-55-38.5-94T588 610t-94.5 39-38.5 94z"/><glyph glyph-name="Lslash" unicode="Ł" horiz-adv-x="806" d="M164 1366h209V852l245 158V838L373 680V197h401V0H164v588L0 483v172l164 105v606z"/><glyph glyph-name="lslash" unicode="ł" horiz-adv-x="454" d="M127 1493h201v-440l127 98V987l-127-98V0H127v766L0 668v163l127 99v563z"/><glyph glyph-name="Nacute" unicode="Ń" horiz-adv-x="1527" d="M373 0H164v1458l991-1038v946h209V-84L373 954V0zm358 1489l-98 82 282 284 177-122z"/><glyph glyph-name="nacute" unicode="ń" horiz-adv-x="993" d="M125 0v862h201v-80q92 103 233 103 169 0 254-117 53-75 53-240V0H666v479q0 53-6 92.5T641.5 635 616 674t-34 21.5-35.5 8T508 705q-33 0-54-3t-48-19-42.5-45.5-26.5-86T326 414V0H125zm526 1382l185-94-320-295-110 70z"/><glyph glyph-name="Ncommaaccent" unicode="Ņ" horiz-adv-x="1527" d="M373 0H164v1458l991-1038v946h209V-84L373 954V0zm200-496l148 394 180-70-184-381z"/><glyph glyph-name="ncommaaccent" unicode="ņ" horiz-adv-x="993" d="M125 0v862h201v-80q92 103 233 103 169 0 254-117 53-75 53-240V0H666v479q0 53-6 92.5T641.5 635 616 674t-34 21.5-35.5 8T508 705q-33 0-54-3t-48-19-42.5-45.5-26.5-86T326 414V0H125zm162-496l147 394 180-70-184-381z"/><glyph glyph-name="Ncaron" unicode="Ň" horiz-adv-x="1527" d="M373 0H164v1458l991-1038v946h209V-84L373 954V0zm391 1716l203 168 135-115-338-274-338 274 135 115z"/><glyph glyph-name="ncaron" unicode="ň" horiz-adv-x="993" d="M125 0v862h201v-80q92 103 233 103 169 0 254-117 53-75 53-240V0H666v479q0 53-6 92.5T641.5 635 616 674t-34 21.5-35.5 8T508 705q-33 0-54-3t-48-19-42.5-45.5-26.5-86T326 414V0H125zm407 1206l181 176 135-106-316-283-315 283 135 106z"/><glyph glyph-name="Omacron" unicode="Ō" horiz-adv-x="1617" d="M809 1391q151 0 283.5-54.5t226-149 147.5-226 54-279.5-54-279.5-147.5-226-226-149T809-27 525.5 27.5t-226 149-147.5 226T98 682t54 279.5 147.5 226 226 149T809 1391zm0-1225q220 0 361 144.5T1311 682t-141 371.5T809 1198t-361-144.5T307 682t141-371.5T809 166zM440 1501v164h738v-164H440z"/><glyph glyph-name="omacron" unicode="ō" horiz-adv-x="1085" d="M543 885q197 0 329-128.5T1004 430q0-197-132.5-327T543-27 214.5 103 82 430q0 198 132 326.5T543 885zm0-731q118 0 187 74.5T799 428q0 71-22 126t-59 87-81.5 48-93.5 16-93.5-16-81.5-48-59-87-22-126q0-125 69-199.5T543 154zm-338 886v160h676v-160H205z"/><glyph glyph-name="Obreve" unicode="Ŏ" horiz-adv-x="1617" d="M809 1391q151 0 283.5-54.5t226-149 147.5-226 54-279.5-54-279.5-147.5-226-226-149T809-27 525.5 27.5t-226 149-147.5 226T98 682t54 279.5 147.5 226 226 149T809 1391zm0-1225q220 0 361 144.5T1311 682t-141 371.5T809 1198t-361-144.5T307 682t141-371.5T809 166zm180 1624h168q-19-100-82-176-39-47-105.5-83T809 1495t-160.5 36-105.5 83q-63 76-82 176h168q19-68 69-100 45-31 111-31t111 31q50 32 69 100z"/><glyph glyph-name="obreve" unicode="ŏ" horiz-adv-x="1085" d="M543 885q197 0 329-128.5T1004 430q0-197-132.5-327T543-27 214.5 103 82 430q0 198 132 326.5T543 885zm0-731q118 0 187 74.5T799 428q0 71-22 126t-59 87-81.5 48-93.5 16-93.5-16-81.5-48-59-87-22-126q0-125 69-199.5T543 154zm170 1153h161q-13-63-37-110.5t-40-63.5q-83-103-250-103-170 0-256 100-61 75-80 177h162q19-67 61-101 38-32 107-32t108 30q47 35 64 103z"/><glyph glyph-name="Ohungarumlaut" unicode="Ő" horiz-adv-x="1617" d="M809 1391q151 0 283.5-54.5t226-149 147.5-226 54-279.5-54-279.5-147.5-226-226-149T809-27 525.5 27.5t-226 149-147.5 226T98 682t54 279.5 147.5 226 226 149T809 1391zm0-1225q220 0 361 144.5T1311 682t-141 371.5T809 1198t-361-144.5T307 682t141-371.5T809 166zm-37 1689l160-106-320-260-90 74zm410 0l159-106-319-260-90 74z"/><glyph glyph-name="ohungarumlaut" unicode="ő" horiz-adv-x="1085" d="M543 885q197 0 329-128.5T1004 430q0-197-132.5-327T543-27 214.5 103 82 430q0 198 132 326.5T543 885zm0-731q118 0 187 74.5T799 428q0 71-22 126t-59 87-81.5 48-93.5 16-93.5-16-81.5-48-59-87-22-126q0-125 69-199.5T543 154zm-37 1228l168-94-299-295-86 70zm368 0l168-94-299-295-86 70z"/><glyph glyph-name="OE" unicode="Œ" horiz-adv-x="2166" d="M2060 1366v-197h-544V844h528V647h-528V197h544V0h-753v188q-54-63-122-108t-136.5-67-126-31T809-27q-201 0-364.5 94t-255 256.5T98 682q0 148 54 279.5t147.5 226 226 149T809 1391q37 0 73-3t94-16.5 110-35.5 112-65.5 109-101.5v197h753zM809 1198q-220 0-361-144.5T307 682t141-371.5T809 166t361 144.5T1311 682t-141 371.5T809 1198z"/><glyph glyph-name="oe" unicode="œ" horiz-adv-x="1716" d="M1460 291l168-94q-57-102-145-158-106-66-248-66-122 0-205 45-85 45-131 121-66-83-156-125-90-41-213-41-192 0-317 131Q82 238 82 440q0 176 117 301 62 64 151 104t193 40q119 0 209-43 92-43 147-123 52 77 135 123 84 43 203 43 169 0 276-113 121-125 121-364v-25h-618q3-47 23-95t51-79q55-55 153-55 80 0 137 43 50 38 80 94zM543 154q101 0 178 67 78 75 78 207 0 129-68 201-73 76-188 76-111 0-181-70-37-37-56-93.5T287 426q0-57 20-113t58-94q65-65 178-65zm487 393h400q-12 70-62 117-53 49-135 49-85 0-141-56-46-43-62-110z"/><glyph glyph-name="Racute" unicode="Ŕ" horiz-adv-x="1093" d="M164 1366h244q127 0 211-18t149-62q52-35 87.5-82t50-95.5T925 1028t5-63q0-146-82.5-248T627 584L1053 0H801L410 559h-37V0H164v1366zm209-192V739h65q21 0 42 2t58 8 67.5 21 60 38 46.5 63 17 92q0 211-285 211h-71zm106 315l-98 82 283 284 176-122z"/><glyph glyph-name="racute" unicode="ŕ" horiz-adv-x="679" d="M127 0v862h201v-78q41 48 84 72 49 29 123 29 89 0 157-41l-82-182q-47 30-102 30-80 0-125-47-19-21-31.5-46.5t-17-55.5-5.5-48.5-1-48.5V0H127zm457 1382l184-94-319-295-111 70z"/><glyph glyph-name="Rcommaaccent" unicode="Ŗ" horiz-adv-x="1093" d="M164 1366h244q127 0 211-18t149-62q52-35 87.5-82t50-95.5T925 1028t5-63q0-146-82.5-248T627 584L1053 0H801L410 559h-37V0H164v1366zm209-192V739h65q21 0 42 2t58 8 67.5 21 60 38 46.5 63 17 92q0 211-285 211h-71zm-4-1670l147 394 180-70-184-381z"/><glyph glyph-name="rcommaaccent" unicode="ŗ" horiz-adv-x="679" d="M127 0v862h201v-78q41 48 84 72 49 29 123 29 89 0 157-41l-82-182q-47 30-102 30-80 0-125-47-19-21-31.5-46.5t-17-55.5-5.5-48.5-1-48.5V0H127zm16-496l148 394 180-70-184-381z"/><glyph glyph-name="Rcaron" unicode="Ř" horiz-adv-x="1093" d="M164 1366h244q127 0 211-18t149-62q52-35 87.5-82t50-95.5T925 1028t5-63q0-146-82.5-248T627 584L1053 0H801L410 559h-37V0H164v1366zm209-192V739h65q21 0 42 2t58 8 67.5 21 60 38 46.5 63 17 92q0 211-285 211h-71zm119 542l202 168 135-115-337-274-338 274 135 115z"/><glyph glyph-name="rcaron" unicode="ř" horiz-adv-x="679" d="M127 0v862h201v-78q41 48 84 72 49 29 123 29 89 0 157-41l-82-182q-47 30-102 30-80 0-125-47-19-21-31.5-46.5t-17-55.5-5.5-48.5-1-48.5V0H127zm303 1206l180 176 135-106-315-283-315 283 135 106z"/><glyph glyph-name="Sacute" unicode="Ś" horiz-adv-x="1056" d="M922 1161l-168-98q-19 48-62 86-60 49-147 49-91 0-142-47t-51-117q0-107 148-166l137-55q177-72 249-172t72-229q0-194-123.5-316.5T518-27q-197 0-321 138Q95 224 82 377l207 45q0-100 57-174 65-82 178-82 97 0 161.5 64T750 395q0 49-17 89t-49 67.5-61.5 44T553 629l-131 55q-279 116-279 346 0 70 27 134.5t76.5 115 126.5 81 170 30.5q166 0 274-93 65-58 105-137zm-426 328l-99 82 283 284 176-122z"/><glyph glyph-name="sacute" unicode="ś" horiz-adv-x="737" d="M653 733l-149-98q-45 74-123 74-39 0-62-23-18-18-18-45 0-30 29-49 5-3 12-6.5t22-11.5 33-17l103-51q88-45 121-80 63-63 63-160 0-114-76-196-89-97-241-97-114 0-187 56-78 59-110 157l163 78q20-57 48-82 32-32 88-32 54 0 82 28t28 68q0 36-26 65-30 30-86 54l-74 34q-84 39-119 74-61 58-61 145 0 111 71 185 78 82 211 82 93 0 160-45 58-36 98-107zm-131 649l185-94-320-295-111 70z"/><glyph glyph-name="Scircumflex" unicode="Ŝ" horiz-adv-x="1056" d="M922 1161l-168-98q-19 48-62 86-60 49-147 49-91 0-142-47t-51-117q0-107 148-166l137-55q177-72 249-172t72-229q0-194-123.5-316.5T518-27q-197 0-321 138Q95 224 82 377l207 45q0-100 57-174 65-82 178-82 97 0 161.5 64T750 395q0 49-17 89t-49 67.5-61.5 44T553 629l-131 55q-279 116-279 346 0 70 27 134.5t76.5 115 126.5 81 170 30.5q166 0 274-93 65-58 105-137zm-390 502l-202-168-135 115 337 274 338-274-135-115z"/><glyph glyph-name="scircumflex" unicode="ŝ" horiz-adv-x="737" d="M653 733l-149-98q-45 74-123 74-39 0-62-23-18-18-18-45 0-30 29-49 5-3 12-6.5t22-11.5 33-17l103-51q88-45 121-80 63-63 63-160 0-114-76-196-89-97-241-97-114 0-187 56-78 59-110 157l163 78q20-57 48-82 32-32 88-32 54 0 82 28t28 68q0 36-26 65-30 30-86 54l-74 34q-84 39-119 74-61 58-61 145 0 111 71 185 78 82 211 82 93 0 160-45 58-36 98-107zm-284 436L188 993 53 1100l316 282 315-282-135-107z"/><glyph glyph-name="Scedilla" unicode="Ş" horiz-adv-x="1056" d="M922 1161l-168-98q-19 48-62 86-60 49-147 49-91 0-142-47t-51-117q0-107 148-166l137-55q177-72 249-172t72-229q0-194-123.5-316.5T518-27q-197 0-321 138Q95 224 82 377l207 45q0-100 57-174 65-82 178-82 97 0 161.5 64T750 395q0 49-17 89t-49 67.5-61.5 44T553 629l-131 55q-279 116-279 346 0 70 27 134.5t76.5 115 126.5 81 170 30.5q166 0 274-93 65-58 105-137zM492-109l176-77-230-273-131 66z"/><glyph glyph-name="scedilla" unicode="ş" horiz-adv-x="737" d="M653 733l-149-98q-45 74-123 74-39 0-62-23-18-18-18-45 0-30 29-49 5-3 12-6.5t22-11.5 33-17l103-51q88-45 121-80 63-63 63-160 0-114-76-196-89-97-241-97-114 0-187 56-78 59-110 157l163 78q20-57 48-82 32-32 88-32 54 0 82 28t28 68q0 36-26 65-30 30-86 54l-74 34q-84 39-119 74-61 58-61 145 0 111 71 185 78 82 211 82 93 0 160-45 58-36 98-107zM344-109l168-65-209-275-131 66z"/><glyph glyph-name="Scaron" unicode="Š" horiz-adv-x="1056" d="M922 1161l-168-98q-19 48-62 86-60 49-147 49-91 0-142-47t-51-117q0-107 148-166l137-55q177-72 249-172t72-229q0-194-123.5-316.5T518-27q-197 0-321 138Q95 224 82 377l207 45q0-100 57-174 65-82 178-82 97 0 161.5 64T750 395q0 49-17 89t-49 67.5-61.5 44T553 629l-131 55q-279 116-279 346 0 70 27 134.5t76.5 115 126.5 81 170 30.5q166 0 274-93 65-58 105-137zm-390 555l203 168 135-115-338-274-337 274 135 115z"/><glyph glyph-name="scaron" unicode="š" horiz-adv-x="737" d="M653 733l-149-98q-45 74-123 74-39 0-62-23-18-18-18-45 0-30 29-49 5-3 12-6.5t22-11.5 33-17l103-51q88-45 121-80 63-63 63-160 0-114-76-196-89-97-241-97-114 0-187 56-78 59-110 157l163 78q20-57 48-82 32-32 88-32 54 0 82 28t28 68q0 36-26 65-30 30-86 54l-74 34q-84 39-119 74-61 58-61 145 0 111 71 185 78 82 211 82 93 0 160-45 58-36 98-107zm-284 473l180 176 135-106-315-283-316 283 135 106z"/><glyph glyph-name="Tcedilla" unicode="Ţ" horiz-adv-x="876" d="M856 1169H543V0H334v1169H20v197h836v-197zM410-109l176-77-230-273-131 66z"/><glyph glyph-name="tcedilla" unicode="ţ" horiz-adv-x="495" d="M487 678H334V0H133v678H49v184h84v316h201V862h153V678zM201-109l168-65-209-275-131 66z"/><glyph glyph-name="Tcaron" unicode="Ť" horiz-adv-x="876" d="M856 1169H543V0H334v1169H20v197h836v-197zm-418 547l203 168 135-115-338-274-338 274 136 115z"/><glyph glyph-name="tcaron" unicode="ť" horiz-adv-x="696" d="M487 678H334V0H133v678H49v184h84v316h201V862h153V678zm-77 301l168 434 180-70-213-421z"/><glyph glyph-name="Utilde" unicode="Ũ" horiz-adv-x="1339" d="M164 1366h209V543q0-160 43-236 34-58 101.5-99.5T670 166t152.5 41.5T924 307q43 76 43 236v823h209V487q0-214-127-354Q901-27 670-27T291 133Q164 273 164 487v879zm756 338l118-94q-81-176-237-176-24 0-45.5 5.5t-31 9.5-36.5 17q-82 43-86 45-48 21-76 21-74 0-104-94l-121 84q36 65 86 110 67 56 143 56 43 0 101-21 35-13 94-47 52-31 84-31 48 0 75 37t36 78z"/><glyph glyph-name="utilde" unicode="ũ" horiz-adv-x="991" d="M127 862h201V369q0-108 37-156 46-59 131-59t131 59q37 48 37 156v493h200V362q0-95-18.5-161T772 80Q665-27 492-27 323-27 219 80q-55 55-73.5 121T127 362v500zm618 412l119-94q-81-176-237-176-24 0-45.5 5.5t-31 9.5-36.5 17q-82 43-86 45-48 21-76 21-74 0-104-94l-121 84q36 65 86 110 66 55 143 55 46 0 101-20 35-13 94-47 52-31 84-31 48 0 74.5 37t35.5 78z"/><glyph glyph-name="Umacron" unicode="Ū" horiz-adv-x="1339" d="M164 1366h209V543q0-160 43-236 34-58 101.5-99.5T670 166t152.5 41.5T924 307q43 76 43 236v823h209V487q0-214-127-354Q901-27 670-27T291 133Q164 273 164 487v879zm137 135v164h737v-164H301z"/><glyph glyph-name="umacron" unicode="ū" horiz-adv-x="991" d="M127 862h201V369q0-108 37-156 46-59 131-59t131 59q37 48 37 156v493h200V362q0-95-18.5-161T772 80Q665-27 492-27 323-27 219 80q-55 55-73.5 121T127 362v500zm31 178v160h676v-160H158z"/><glyph glyph-name="Ubreve" unicode="Ŭ" horiz-adv-x="1339" d="M164 1366h209V543q0-160 43-236 34-58 101.5-99.5T670 166t152.5 41.5T924 307q43 76 43 236v823h209V487q0-214-127-354Q901-27 670-27T291 133Q164 273 164 487v879zm686 424h168q-19-100-82-176-39-47-105.5-83T670 1495t-161 36-106 83q-62 74-81 176h167q19-67 70-100 45-31 111-31 65 0 110 31 51 33 70 100z"/><glyph glyph-name="ubreve" unicode="ŭ" horiz-adv-x="991" d="M127 862h201V369q0-108 37-156 46-59 131-59t131 59q37 48 37 156v493h200V362q0-95-18.5-161T772 80Q665-27 492-27 323-27 219 80q-55 55-73.5 121T127 362v500zm539 445h161q-13-63-37-110.5t-40-63.5q-83-103-250-103-170 0-256 100-61 75-80 177h162q19-67 61-101 38-32 107-32t108 30q47 35 64 103z"/><glyph glyph-name="Uring" unicode="Ů" horiz-adv-x="1339" d="M164 1366h209V543q0-160 43-236 34-58 101.5-99.5T670 166t152.5 41.5T924 307q43 76 43 236v823h209V487q0-214-127-354Q901-27 670-27T291 133Q164 273 164 487v879zm307 320q0 83 59 140.5t140 57.5q83 0 140.5-57.5T868 1686q0-81-57.5-140T670 1487q-82 0-140.5 58.5T471 1686zm111 0q0-37 25.5-63t62.5-26 62.5 26 25.5 63-25.5 62.5T670 1774t-62.5-25.5T582 1686z"/><glyph glyph-name="uring" unicode="ů" horiz-adv-x="991" d="M127 862h201V369q0-108 37-156 46-59 131-59t131 59q37 48 37 156v493h200V362q0-95-18.5-161T772 80Q665-27 492-27 323-27 219 80q-55 55-73.5 121T127 362v500zm176 324q0 78 57.5 135t135.5 57 135-57 57-135-57-135.5T496 993t-135.5 57.5T303 1186zm105 0q0-37 25.5-62.5T496 1098t62.5 25.5T584 1186t-25.5 62.5T496 1274t-62.5-25.5T408 1186z"/><glyph glyph-name="Uhungarumlaut" unicode="Ű" horiz-adv-x="1339" d="M164 1366h209V543q0-160 43-236 34-58 101.5-99.5T670 166t152.5 41.5T924 307q43 76 43 236v823h209V487q0-214-127-354Q901-27 670-27T291 133Q164 273 164 487v879zm469 489l160-106-320-260-90 74zm409 0l160-106-319-260-90 74z"/><glyph glyph-name="uhungarumlaut" unicode="ű" horiz-adv-x="991" d="M127 862h201V369q0-108 37-156 46-59 131-59t131 59q37 48 37 156v493h200V362q0-95-18.5-161T772 80Q665-27 492-27 323-27 219 80q-55 55-73.5 121T127 362v500zm332 520l168-94-299-295-86 70zm368 0l168-94-299-295-86 70z"/><glyph glyph-name="Uogonek" unicode="Ų" horiz-adv-x="1339" d="M164 1366h209V543q0-161 43-236 34-58 101.5-99.5T670 166t152.5 41.5T924 307q28 47 35.5 102t7.5 134v823h209V487q0-87-18.5-165T1081 170q-67-86-186-154-18-11-51-28t-55-30-39-28q-56-44-56-102 0-32 25-51 22-17 57-17 55 0 107 19l-19-144q-62-30-133-30-102 0-162 63-43 46-43 117 0 64 45 121 25 35 78 74-103 0-197.5 39.5T291 133Q164 273 164 487v879z"/><glyph glyph-name="uogonek" unicode="ų" horiz-adv-x="991" d="M127 862h201V367q0-106 37-156 45-57 131-57t131 57q37 50 37 156v495h200V362q0-58-4-96t-25.5-91.5T772 80q-11-11-23.5-21.5t-29-21.5T695 21 665.5 3 641-12q-80-50-100-72-41-44-41-86 0-34 20-51 21-19 70-19 46 0 98 19l-18-127q-62-39-125-39-105 0-160 59-45 45-45 113 0 60 39 111 31 42 80 79Q313-14 219 80q-41 41-62.5 94.5T131 266t-4 96v500z"/><glyph glyph-name="Ydieresis" unicode="Ÿ" horiz-adv-x="1105" d="M449 0v590L0 1366h238l315-547 315 547h238L657 590V0H449zM225 1628q0 54 36.5 90.5T352 1755t90.5-36.5T479 1628t-36.5-90.5T352 1501t-90.5 36.5T225 1628zm402 0q0 54 36.5 90.5T754 1755t90.5-36.5T881 1628t-36.5-90.5T754 1501t-90.5 36.5T627 1628z"/><glyph glyph-name="Zacute" unicode="Ź" horiz-adv-x="1134" d="M1073 1366L401 197h656V0H61l672 1169H172v197h901zm-512 123l-98 82 282 284 177-122z"/><glyph glyph-name="zacute" unicode="ź" horiz-adv-x="983" d="M967 862L412 184h512V0H16l559 678H135v184h832zm-322 520l184-94-319-295-111 70z"/><glyph glyph-name="Zdotaccent" unicode="Ż" horiz-adv-x="1134" d="M1073 1366L401 197h656V0H61l672 1169H172v197h901zm-616 274q0 59 39.5 98.5T594 1778t97.5-39.5T731 1640q0-58-39.5-97.5T594 1503t-97.5 39.5T457 1640z"/><glyph glyph-name="zdotaccent" unicode="ż" horiz-adv-x="983" d="M967 862L412 184h512V0H16l559 678H135v184h832zm-568 264q0 56 39 95t94 39q56 0 95-39t39-95q0-55-39-94t-95-39-94.5 38.5T399 1126z"/><glyph glyph-name="Zcaron" unicode="Ž" horiz-adv-x="1134" d="M1073 1366L401 197h656V0H61l672 1169H172v197h901zm-479 350l203 168 135-115-338-274-338 274 135 115z"/><glyph glyph-name="zcaron" unicode="ž" horiz-adv-x="983" d="M967 862L412 184h512V0H16l559 678H135v184h832zm-435 344l181 176 135-106-316-283-315 283 135 106z"/><glyph glyph-name="uni018F" unicode="Ə" horiz-adv-x="1531" d="M305 979l-147 135q66 87 149 146 181 131 416 131 314 0 516-209 195-202 195-500 0-301-209-510Q1026-27 735-27q-328 0-508 254Q98 409 98 668v63h1125q-10 139-81.5 247t-181 164-237.5 56q-77 0-146-20.5t-120.5-56T369 1052t-64-73zm901-440H322q13-132 90-228 116-145 325-145 115 0 208 43t155 115q78 90 106 215z"/><glyph glyph-name="florin" unicode="ƒ" horiz-adv-x="1163" d="M1040 1497l-36-190q-44 20-91 20-64 0-104-43-37-42-57-151l-50-271h230l-29-160H674L569 131q-15-79-22-111.5T522-75t-42.5-103.5T422-252q-61-59-160.5-88T41-360l33 190h12q129 0 184 55 26 25 45 70.5T341.5 35t18.5 94l105 573H291l28 160h175l53 295q32 183 119 270 89 89 235 89 71 0 139-19z"/><glyph glyph-name="uni01CF" unicode="Ǐ" horiz-adv-x="536" d="M164 1366h209V0H164v1366zm104 350l162 158 121-100-283-269-282 269 120 100z"/><glyph glyph-name="uni01D0" unicode="ǐ" horiz-adv-x="454" d="M127 862h201V0H127v862zm100 352l144 150 110-94-254-256-254 256 111 94z"/><glyph glyph-name="uni01DD" unicode="ǝ" horiz-adv-x="999" d="M272 598L90 659q51 105 150 164 105 62 239 62 190 0 305-107 61-57 97.5-148.5T918 422q0-211-132-340Q674-27 496-27 325-27 219 76q-62 61-99.5 157T82 444v52h627q-4 45-24 87.5T637 651q-57 54-160 54-76 0-129-33-40-22-76-74zm422-266H295q5-39 21-78t40-61q48-48 136-48 85 0 139 54t63 133z"/><glyph glyph-name="Gcaron" unicode="Ǧ" horiz-adv-x="1531" d="M870 518v193h564v-11q0-356-203-553Q1052-27 766-27q-149 0-260 45T301 160q-99 102-151 234.5T98 676q0 153 55 287t144 223q91 93 226 149t288 56q201 0 356-86 141-79 222-205l-166-117q-75 104-168 156-100 59-242 59-219 0-360-141-68-68-107-170.5T307 674q0-103 37.5-201T449 303q129-137 342-137 181 0 305 121 100 98 114 231H870zM766 1716l203 168 135-115-338-274-338 274 135 115z"/><glyph glyph-name="gcaron" unicode="ǧ" horiz-adv-x="1085" d="M758 768v94h200V70q0-169-29-274T817-379q-112-92-287-92-176 0-282 106-48 48-82.5 120T121-96h194q14-82 64-135 56-60 156-60 99 0 157 58 23 22 38 49.5t20 60.5 6.5 53.5T758-16V96Q661-27 496-27 323-27 211 90 82 226 82 432q0 207 127 334 116 119 293 119 158 0 256-117zm-232-63q-90 0-151-58-40-37-64-94.5T287 428q0-65 23-123.5t63-93.5q64-57 153-57 102 0 168 69 76 81 76 203 0 138-82 217-62 62-162 62zm17 501l180 176 135-106-315-283-316 283 135 106z"/><glyph glyph-name="AEacute" unicode="Ǽ" horiz-adv-x="1896" d="M1118 0L975 326H395L246 0H20l656 1366h604l86-197H823l144-325h528l86-197h-528l194-450h543l86-197h-758zM487 522h406L698 967zm428 967l-98 82 283 284 176-122z"/><glyph glyph-name="aeacute" unicode="ǽ" horiz-adv-x="1548" d="M203 672v186q115 27 243 27 110 0 179-27 76-29 129-96 48 58 118 88 76 35 179 35 187 0 295-113 120-126 120-364v-25H848q3-47 23-95t51-79q55-55 153-55 80 0 137 43 50 38 80 94l168-94q-57-102-145-158-104-66-258-66-105 0-180 37-77 36-123 103Q694 43 614 6q-77-33-182-33-169 0-264 93-86 83-86 196 0 123 82 201 48 45 118 68.5T426 555q120 0 221-57 0 104-57 155-59 52-176 52-100 0-211-33zm248-289q-94 0-142-43-35-32-35-76 0-45 41-80 50-39 136-39 75 0 129 33 55 35 55 90 0 53-64 88-53 27-120 27zm411 164h400q-12 70-62 117-54 49-135 49-82 0-141-56-46-46-62-110zm66 835l184-94-319-295-111 70z"/><glyph glyph-name="Scommaaccent" unicode="Ș" horiz-adv-x="1056" d="M922 1161l-168-98q-19 48-62 86-60 49-147 49-91 0-142-47t-51-117q0-107 148-166l137-55q177-72 249-172t72-229q0-194-123.5-316.5T518-27q-197 0-321 138Q95 224 82 377l207 45q0-100 57-174 65-82 178-82 97 0 161.5 64T750 395q0 49-17 89t-49 67.5-61.5 44T553 629l-131 55q-279 116-279 346 0 70 27 134.5t76.5 115 126.5 81 170 30.5q166 0 274-93 65-58 105-137zM328-496l147 394 180-70-184-381z"/><glyph glyph-name="scommaaccent" unicode="ș" horiz-adv-x="737" d="M653 733l-149-98q-45 74-123 74-39 0-62-23-18-18-18-45 0-30 29-49 5-3 12-6.5t22-11.5 33-17l103-51q88-45 121-80 63-63 63-160 0-114-76-196-89-97-241-97-114 0-187 56-78 59-110 157l163 78q20-57 48-82 32-32 88-32 54 0 82 28t28 68q0 36-26 65-30 30-86 54l-74 34q-84 39-119 74-61 58-61 145 0 111 71 185 78 82 211 82 93 0 160-45 58-36 98-107zM164-496l147 394 181-70-185-381z"/><glyph glyph-name="Tcommaaccent" unicode="Ț" horiz-adv-x="876" d="M856 1169H543V0H334v1169H20v197h836v-197zM266-496l148 394 180-70-184-381z"/><glyph glyph-name="tcommaaccent" unicode="ț" horiz-adv-x="495" d="M487 678H334V0H133v678H49v184h84v316h201V862h153V678zM61-496l148 394 180-70-184-381z"/><glyph glyph-name="uni0228" unicode="Ȩ" d="M918 1366v-197H373V823h528V627H373V197h545V0H164v1366h754zM532-109l177-77-230-273-131 66z"/><glyph glyph-name="uni0229" unicode="ȩ" horiz-adv-x="987" d="M731 291l168-94Q842 95 754 39 651-27 500-27 320-27 209 84q-61 61-94 147T82 414q0 101 35 193.5T219 768q117 117 289 117 167 0 276-113 121-125 121-364v-25H287q3-48 22.5-95.5T360 209q55-55 154-55 80 0 137 43 50 38 80 94zM301 547h399q-12 71-61 117-53 49-135 49-86 0-142-56-45-42-61-110zm209-656l168-65-209-275-131 66z"/><glyph glyph-name="uni0237" unicode="ȷ" horiz-adv-x="454" d="M127 862h201V-469H127V862z"/><glyph glyph-name="uni0259" unicode="ə" horiz-adv-x="999" d="M272 598L90 659q51 105 150 164 105 62 239 62 190 0 305-107 61-57 97.5-148.5T918 422q0-211-132-340Q674-27 496-27 325-27 219 76q-62 61-99.5 157T82 444v52h627q-4 45-24 87.5T637 651q-57 54-160 54-76 0-129-33-40-22-76-74zm422-266H295q5-39 21-78t40-61q48-48 136-48 85 0 139 54t63 133z"/><glyph glyph-name="afii57929" unicode="ʼ" d="M328 979l168 434 180-70-213-421z"/><glyph glyph-name="circumflex" unicode="ˆ" d="M512 1169L332 993l-135 107 315 282 315-282-135-107z"/><glyph glyph-name="caron" unicode="ˇ" d="M512 1206l180 176 135-106-315-283-315 283 135 106z"/><glyph glyph-name="uni02C9" unicode="ˉ" d="M174 1040v160h676v-160H174z"/><glyph glyph-name="breve" unicode="˘" d="M682 1307h162q-13-63-37.5-110.5T766 1133q-83-103-250-103-170 0-256 100-61 75-80 177h162q19-67 61-101 38-32 107-32t108 30q47 35 64 103z"/><glyph glyph-name="dotaccent" unicode="˙" d="M379 1126q0 56 39 95t94 39 94-39 39-95-38.5-94.5T512 993t-94.5 38.5T379 1126z"/><glyph glyph-name="ring" unicode="˚" d="M319 1186q0 78 57.5 135t135.5 57 135.5-57 57.5-135-57.5-135.5T512 993t-135.5 57.5T319 1186zm105 0q0-37 25.5-62.5T512 1098t62.5 25.5T600 1186t-25.5 62.5T512 1274t-62.5-25.5T424 1186z"/><glyph glyph-name="ogonek" unicode="˛" d="M510 0h149q-64-35-104-80-43-46-43-92 0-64 82-64 46 0 106 15l-18-127q-60-39-127-39-85 0-144 46.5T352-215q0 70 54 131 41 47 104 84z"/><glyph glyph-name="tilde" unicode="˜" d="M762 1274l119-94q-81-176-238-176-24 0-45.5 5.5t-31 9.5-36.5 17q-82 43-86 45-48 21-75 21-75 0-105-94l-121 84q36 65 86 110 66 55 144 55 45 0 100-20 35-13 94-47 52-31 84-31 48 0 75 37t36 78z"/><glyph glyph-name="hungarumlaut" unicode="˝" d="M475 1382l168-94-299-295-86 70zm369 0l168-94-299-295-86 70z"/><glyph glyph-name="acutecomb" unicode="́" horiz-adv-x="4" d="M-354 1382l184-94-319-295-111 70z"/><glyph glyph-name="uni0394" unicode="Δ" horiz-adv-x="1368" d="M1319 0H49l524 1366h213zM680 1083L352 197h656z"/><glyph glyph-name="uni0394" unicode="∆" horiz-adv-x="1368" d="M1319 0H49l524 1366h213zM680 1083L352 197h656z"/><glyph glyph-name="uni03A9" unicode="Ω" horiz-adv-x="1363" d="M766 0v221q145 61 233 185 99 134 99 313 0 229-142 366-118 113-274 113t-274-113Q266 948 266 719q0-179 99-313 88-124 233-185V0H57v197h330q-163 82-254 239-76 131-76 295 0 307 191 494 168 166 434 166t434-166q191-187 191-494 0-164-76-295-91-157-254-239h330V0H766z"/><glyph glyph-name="uni03A9" unicode="Ω" horiz-adv-x="1363" d="M766 0v221q145 61 233 185 99 134 99 313 0 229-142 366-118 113-274 113t-274-113Q266 948 266 719q0-179 99-313 88-124 233-185V0H57v197h330q-163 82-254 239-76 131-76 295 0 307 191 494 168 166 434 166t434-166q191-187 191-494 0-164-76-295-91-157-254-239h330V0H766z"/><glyph glyph-name="pi" unicode="π" horiz-adv-x="1134" d="M399 0H199v678H45v184h1045V678H936V0H735v678H399V0z"/><glyph glyph-name="afii10023" unicode="Ё" d="M918 1366v-197H373V823h528V627H373V197h545V0H164v1366h754zm-705 262q0 54 36.5 90.5T340 1755t90.5-36.5T467 1628t-36.5-90.5T340 1501t-90.5 36.5T213 1628zm401 0q0 54 36.5 90.5T741 1755t90.5-36.5T868 1628t-36.5-90.5T741 1501t-90.5 36.5T614 1628z"/><glyph glyph-name="afii10051" unicode="Ђ" horiz-adv-x="1368" d="M995 1169H545V788q146 48 280 48 163 0 267-62 178-105 178-366 0-240-150-345-104-75-286-75-56 0-138 12v193q60-13 131-13 106 0 160 43 70 57 70 183 0 145-109 204-63 33-157 33-75 0-146-17t-100-30V0H336v1169H20v197h975v-197z"/><glyph glyph-name="afii10052" unicode="Ѓ" horiz-adv-x="876" d="M164 0v1366h684v-197H373V0H164zm315 1489l-98 82 283 284 176-122z"/><glyph glyph-name="afii10053" unicode="Є" horiz-adv-x="1269" d="M1176 1292v-245q-165 151-371 151-236 0-365-143-96-105-121-256h672V602H313q14-165 125-285 64-71 160-111t209-40q202 0 369 158V76Q1004-27 801-27q-285 0-484 189Q98 367 98 678q0 326 219 534 190 179 494 179 210 0 365-99z"/><glyph glyph-name="afii10054" unicode="Ѕ" horiz-adv-x="1056" d="M922 1161l-168-98q-19 48-62 86-60 49-147 49-91 0-142-47t-51-117q0-107 148-166l137-55q177-72 249-172t72-229q0-194-123.5-316.5T518-27q-197 0-321 138Q95 224 82 377l207 45q0-100 57-174 65-82 178-82 97 0 161.5 64T750 395q0 49-17 89t-49 67.5-61.5 44T553 629l-131 55q-279 116-279 346 0 70 27 134.5t76.5 115 126.5 81 170 30.5q166 0 274-93 65-58 105-137z"/><glyph glyph-name="afii10055" unicode="І" horiz-adv-x="536" d="M164 1366h209V0H164v1366z"/><glyph glyph-name="afii10056" unicode="Ї" horiz-adv-x="536" d="M164 1366h209V0H164v1366zM29 1628q0 46 30.5 80.5T131 1743q40 0 72.5-35t32.5-80-32.5-80-72.5-35q-41 0-71.5 34.5T29 1628zm274 0q0 46 31 80.5t72 34.5 71.5-34.5T508 1628t-30.5-80.5T406 1513t-72 34.5-31 80.5z"/><glyph glyph-name="afii10057" unicode="Ј" horiz-adv-x="741" d="M369 1366h209V481q0-100-10-173.5T526 170q-18-36-43-67.5T420 40 326.5-9 205-27Q69-27-37 43L66 219q58-49 143-49 100 0 137 92 23 59 23 219v885z"/><glyph glyph-name="afii10058" unicode="Љ" horiz-adv-x="1843" d="M295 1366h872V815h156q220 0 342-108 60-52 94.5-130.5T1794 406q0-98-43.5-187.5T1624 74Q1514 0 1325 0H958v1169H504V489q0-72-3.5-119T485 263t-41-107.5T369 70Q268-12 121-12 79-12 29 0v193q43-13 75-13 76 0 123 47 25 24 40 59t20.5 87.5T294 456t1 95v815zm872-748V197h148q20 0 33.5.5t44.5 4.5 53.5 11 51.5 22 47 36.5 31 55 13 76.5q0 32-6.5 60.5t-25 57.5-47.5 50-78 34-113 13h-152z"/><glyph glyph-name="afii10059" unicode="Њ" horiz-adv-x="1843" d="M373 1366V825h585v541h209V825h156q220 0 342-108 129-113 129-301 0-109-44-199T1624 74Q1514 0 1325 0H958v629H373V0H164v1366h209zm794-737V197h148q156 0 221 65 53 53 53 152 0 97-57 151-68 64-213 64h-152z"/><glyph glyph-name="afii10060" unicode="Ћ" horiz-adv-x="1413" d="M995 1169H545V805q126 14 264 14 242 0 348-84 133-105 133-332V0h-209v373q0 44-2 70.5t-19.5 70.5-51.5 70q-55 43-217 43-103 0-246-15V0H336v1169H20v197h975v-197z"/><glyph glyph-name="afii10061" unicode="Ќ" horiz-adv-x="1200" d="M373 1366V821l528 545h275L559 748 1180 0H901L414 606l-41-41V0H164v1366h209zm194 123l-98 82 283 284 176-122z"/><glyph glyph-name="afii10062" unicode="Ў" horiz-adv-x="1167" d="M12 1366h254l352-729 320 729h217L539 0H322l176 387zm252 338l164 74q11-39 37-65t57.5-35.5 48.5-12 31-2.5 31 2.5 48.5 12T739 1713t37 65l164-74q-25-60-66.5-103.5t-90-65-93-31-88.5-9.5-88.5 9.5-93 31-90 65T264 1704z"/><glyph glyph-name="afii10145" unicode="Џ" horiz-adv-x="1310" d="M164 0v1366h209V197h565v1169h209V0H754v-340H557V0H164z"/><glyph glyph-name="afii10017" unicode="А" horiz-adv-x="1343" d="M1110 0L967 330H383L233 0H8l680 1446L1335 0h-225zM469 526h414L680 989z"/><glyph glyph-name="afii10018" unicode="Б" horiz-adv-x="1077" d="M164 0v1366h684v-197H373V815h135q220 0 342-108 60-52 94.5-130.5T979 406q0-98-43.5-187.5T809 74Q699 0 510 0H164zm209 618V197h127q20 0 33.5.5T578 202t53.5 11 51.5 22 47 36.5 31 55 13 76.5q0 32-6.5 60.5t-25 57.5-47.5 50-78 34-113 13H373z"/><glyph glyph-name="afii10019" unicode="В" horiz-adv-x="1077" d="M164 1366h207q139 0 225.5-22.5T748 1260q108-102 108-271 0-96-41-162-38-65-102-94 105-25 176-98 90-95 90-256 0-151-90-246Q763 0 506 0H164v1366zm209-197V778h63q115 0 170 53 53 51 53 156 0 84-49 131-53 51-166 51h-71zm0-563V197h127q142 0 207 53 31 25 49 65.5t18 85.5q0 89-55 144-63 61-215 61H373z"/><glyph glyph-name="afii10020" unicode="Г" horiz-adv-x="876" d="M164 0v1366h684v-197H373V0H164z"/><glyph glyph-name="afii10021" unicode="Д" horiz-adv-x="1331" d="M295 1366h852V197h156v-504h-197V0H225v-307H29v504q70-3 127 49.5T246 381q49 123 49 358v627zm209-197V739q0-257-47-381-36-93-107-161h588v972H504z"/><glyph glyph-name="afii10022" unicode="Е" d="M918 1366v-197H373V823h528V627H373V197h545V0H164v1366h754z"/><glyph glyph-name="afii10024" unicode="Ж" horiz-adv-x="1732" d="M762 1366h209V815l487 551h254l-563-627L1724 0h-258l-462 602-33-37V0H762v565l-33 37L266 0H8l576 739-564 627h254l488-551v551z"/><glyph glyph-name="afii10025" unicode="З" horiz-adv-x="1167" d="M281 1057l-138 133q77 102 176 147 104 52 248 52 204 0 318-109 98-94 98-240 0-99-45-170-42-71-123-118 111-30 184-121 70-90 70-232 0-185-137-305Q792-25 563-25 369-25 227 82 117 167 53 303l185 94q40-105 127-166 90-63 225-63t209 74q65 65 65 168 0 104-80 159-35 24-84.5 37T618 621t-81 2H414v196h110q52 0 107.5 13.5T721 874q61 51 61 140 0 91-65 141-52 41-158 41-99 0-166-39-65-37-112-100z"/><glyph glyph-name="afii10026" unicode="И" horiz-adv-x="1458" d="M1085 0v920L164-61v1427h209V442l921 981V0h-209z"/><glyph glyph-name="afii10027" unicode="Й" horiz-adv-x="1458" d="M1085 0v920L164-61v1427h209V442l921 981V0h-209zM391 1704l164 74q11-39 37-65t57.5-35.5 48.5-12 31-2.5 31 2.5 48.5 12T866 1713t37 65l164-74q-25-60-66.5-103.5t-90-65-93-31-88.5-9.5-88.5 9.5-93 31-90 65T391 1704z"/><glyph glyph-name="afii10028" unicode="К" horiz-adv-x="1200" d="M373 1366V821l528 545h275L559 748 1180 0H901L414 606l-41-41V0H164v1366h209z"/><glyph glyph-name="afii10029" unicode="Л" horiz-adv-x="1331" d="M295 1366h872V0H958v1169H504V489q0-72-3.5-119T485 263t-41-107.5T369 70Q268-12 121-12 79-12 29 0v193q43-13 75-13 76 0 123 47 25 24 40 59t20.5 87.5T294 456t1 95v815z"/><glyph glyph-name="afii10030" unicode="М" horiz-adv-x="1744" d="M336 0H123l287 1468L885 408l479 1060L1622 0h-213l-139 823L872-63 479 825z"/><glyph glyph-name="afii10031" unicode="Н" horiz-adv-x="1331" d="M373 1366V825h585v541h209V0H958v629H373V0H164v1366h209z"/><glyph glyph-name="afii10032" unicode="О" horiz-adv-x="1617" d="M809 1391q151 0 283.5-54.5t226-149 147.5-226 54-279.5-54-279.5-147.5-226-226-149T809-27 525.5 27.5t-226 149-147.5 226T98 682t54 279.5 147.5 226 226 149T809 1391zm0-1225q220 0 361 144.5T1311 682t-141 371.5T809 1198t-361-144.5T307 682t141-371.5T809 166z"/><glyph glyph-name="afii10033" unicode="П" horiz-adv-x="1331" d="M164 1366h1003V0H958v1169H373V0H164v1366z"/><glyph glyph-name="afii10034" unicode="Р" horiz-adv-x="983" d="M164 1366h301q189 0 299-74 83-55 126.5-144T934 961q0-186-133-299-127-107-334-107h-94V0H164v1366zm209-192V748h94q131 0 198.5 58T733 963q0 27-4.5 51.5t-21.5 55-44.5 52.5-78.5 37-119 15h-92z"/><glyph glyph-name="afii10035" unicode="С" horiz-adv-x="1269" d="M1176 1292v-245q-168 151-371 151-221 0-359.5-146.5T307 678q0-218 141.5-365T807 166q202 0 369 158V76Q1004-27 801-27q-285 0-484 189Q98 367 98 678q0 326 219 534 190 179 494 179 210 0 365-99z"/><glyph glyph-name="afii10036" unicode="Т" horiz-adv-x="876" d="M856 1169H543V0H334v1169H20v197h836v-197z"/><glyph glyph-name="afii10037" unicode="У" horiz-adv-x="1167" d="M12 1366h254l352-729 320 729h217L539 0H322l176 387z"/><glyph glyph-name="afii10038" unicode="Ф" horiz-adv-x="1691" d="M741 0v193h-36q-155 0-273.5 41.5T241 349.5t-107.5 168T98 725t35.5 207.5 107.5 168 190.5 115T705 1257h36v164h209v-164h37q155 0 273.5-41.5t190-115 107-168T1593 725t-35.5-207.5-107-168-190-115T987 193h-37V0H741zm0 385v680h-41q-195 0-294-93.5T307 725t99-246.5T700 385h41zm209 680V385h41q195 0 294 93.5t99 246.5-99 246.5-294 93.5h-41z"/><glyph glyph-name="afii10039" unicode="Х" horiz-adv-x="1118" d="M20 0l431 713-377 653h233l266-463 273 463h233L686 713 1098 0H864L565 522 254 0H20z"/><glyph glyph-name="afii10040" unicode="Ц" horiz-adv-x="1351" d="M164 0v1366h209V197h565v1169h209V197h176v-504h-197V0H164z"/><glyph glyph-name="afii10041" unicode="Ч" horiz-adv-x="1241" d="M868 0v561q-187-14-278-14-228 0-334 84-133 105-133 332v403h209V993q0-31 1.5-51t7.5-53 22.5-60 42.5-47q55-43 217-43 106 0 245 15v612h209V0H868z"/><glyph glyph-name="afii10042" unicode="Ш" horiz-adv-x="1921" d="M164 0v1366h209V197h483v1169h209V197h483v1169h209V0H164z"/><glyph glyph-name="afii10043" unicode="Щ" horiz-adv-x="1961" d="M164 0v1366h209V197h483v1169h209V197h483v1169h209V197h176v-504h-196V0H164z"/><glyph glyph-name="afii10044" unicode="Ъ" horiz-adv-x="1212" d="M328 0v1169H20v197h517V815h155q220 0 342-108 60-52 94.5-130.5T1163 406q0-98-43.5-187.5T993 74Q883 0 694 0H328zm209 618V197h147q20 0 33.5.5T762 202t53.5 11 51.5 22 47 36.5 31 55 13 76.5q0 32-6.5 60.5t-25 57.5-47.5 50-78 34-113 13H537z"/><glyph glyph-name="afii10045" unicode="Ы" horiz-adv-x="1515" d="M164 0v1366h209V815h155q220 0 342-108 60-52 94.5-130.5T999 406q0-98-43.5-187.5T829 74Q719 0 530 0H164zm209 618V197h147q20 0 33.5.5T598 202t54 11 51.5 22 47 36.5 31.5 55 13 76.5q0 32-6.5 60.5T763 521t-48 50-78 34-113 13H373zm770 748h209V0h-209v1366z"/><glyph glyph-name="afii10046" unicode="Ь" horiz-adv-x="1048" d="M164 0v1366h209V815h155q220 0 342-108 60-52 94.5-130.5T999 406q0-98-43.5-187.5T829 74Q719 0 530 0H164zm209 618V197h147q20 0 33.5.5T598 202t54 11 51.5 22 47 36.5 31.5 55 13 76.5q0 32-6.5 60.5T763 521t-48 50-78 34-113 13H373z"/><glyph glyph-name="afii10047" unicode="Э" horiz-adv-x="1273" d="M98 1047v245q173 99 396 99 144 0 262-41t217-138q203-201 203-528 0-321-203-524Q786-27 487-27 272-27 98 76v248q88-89 191.5-123.5T487 166q209 0 332 123 124 124 139 305H283v197h671q-18 165-125 276-125 131-340 131-222 0-391-151z"/><glyph glyph-name="afii10048" unicode="Ю" horiz-adv-x="2048" d="M373 823h205q36 215 182 365 199 203 500 203 147 0 275.5-54.5T1755 1188t143-225.5 52-280.5q0-198-89-360.5T1613.5 66 1260-27q-99 0-186 21T921.5 52 809 128t-84 85q-63 77-103.5 183.5T578 627H373V0H164v1366h209V823zm887-657q212 0 346.5 145T1741 682t-134.5 371-346.5 145-347-145-135-371 135-371 347-145z"/><glyph glyph-name="afii10049" unicode="Я" horiz-adv-x="1093" d="M41 0l405 569q-54 6-110.5 30.5T236 662Q119 764 119 952q0 173 104 285 42 45 92 73.5t105 39 89.5 13.5 84.5 3h336V0H721v547h-49L299 0H41zm680 1174H618q-83 0-138.5-13.5T385 1110q-66-62-66-158 0-110 78-164 73-49 209-49h115v435z"/><glyph glyph-name="afii10065" unicode="а" horiz-adv-x="1085" d="M758 762v100h200V0H758v90Q657-27 500-27q-128 0-225 65.5t-145 169T82 432q0 103 33.5 189t91 143.5 134 89T502 885q161 0 256-123zm-232-57q-107 0-173-79.5T287 428q0-115 66.5-194.5T526 154q102 0 173 71.5T770 426q0 134-71 206.5T526 705z"/><glyph glyph-name="afii10066" unicode="б" horiz-adv-x="1085" d="M778 1454h205q-22-106-94-184t-176-107l-135-37q-56-16-83.5-25.5t-70-37T354 997q-33-44-51-109.5T283 764h2q90 121 293 121 181 0 301-123 125-128 125-328 0-201-132-331T543-27 227 88q-50 47-81.5 105.5t-44 124-16 109T82 530q0 202 30 345t101 247q97 145 258 185l143 34q142 35 164 113zM543 154q118 0 187 74.5T799 428q0 71-22 126t-59 87-81.5 48-93.5 16-93.5-16-81.5-48-59-87-22-126q0-125 69-199.5T543 154z"/><glyph glyph-name="afii10067" unicode="в" horiz-adv-x="905" d="M127 862h338q128 0 197-51 79-64 79-166 0-117-102-168 67-13 117-57 67-60 67-166 0-125-94-197Q652 0 530 0H127v862zm201-336h102q52 0 80 19 39 24 39 69 0 44-35 68-24 16-88 16h-98V526zm0-362h149q68 0 105 24 41 27 41 76 0 53-39 76-34 22-101 22H328V164z"/><glyph glyph-name="afii10068" unicode="г" horiz-adv-x="671" d="M127 0v862h528V678H328V0H127z"/><glyph glyph-name="afii10069" unicode="д" horiz-adv-x="995" d="M201 862h647V184h131v-430H795V0H193v-246H8v430q54 3 94.5 35.5T166 297q35 74 35 227v338zm446-678v494H393V449q0-188-100-265h354z"/><glyph glyph-name="afii10070" unicode="е" horiz-adv-x="987" d="M731 291l168-94Q842 95 754 39 651-27 500-27 320-27 209 84q-61 61-94 147T82 414q0 101 35 193.5T219 768q117 117 289 117 167 0 276-113 121-125 121-364v-25H287q3-48 22.5-95.5T360 209q55-55 154-55 80 0 137 43 50 38 80 94zM301 547h399q-12 71-61 117-53 49-135 49-86 0-142-56-45-42-61-110z"/><glyph glyph-name="afii10072" unicode="ж" horiz-adv-x="1277" d="M539 862h200V543l260 319h242L907 469 1274 0h-250L764 346l-25-29V0H539v317l-25 29L254 0H4l367 469L37 862h242l260-319v319z"/><glyph glyph-name="afii10073" unicode="з" horiz-adv-x="901" d="M244 639L115 752q48 58 131 96 86 37 203 37 133 0 219-60 90-64 90-176 0-72-37-119-31-41-82-61 79-17 125-63 55-55 55-144 0-116-74-190-99-99-303-99-135 0-225 52-92 55-135 153l160 82q28-62 75-90 50-33 129-33 95 0 138 43 30 33 30 76 0 44-26 70-16 17-44 25.5t-46.5 9.5-53.5 1h-90v164h76q62 0 98 23 37 28 37 76t-37 73q-33 23-96 23-59 0-113-25-40-19-75-57z"/><glyph glyph-name="afii10074" unicode="и" horiz-adv-x="1044" d="M127 862h201V373l590 567V0H717v502L127-66v928z"/><glyph glyph-name="afii10075" unicode="й" horiz-adv-x="1044" d="M127 862h201V373l590 567V0H717v502L127-66v928zm66 373l163 47q39-133 168-133 66 0 106 32t62 101l164-47q-22-80-81-137t-123.5-81T524 993t-127.5 24-123 81-80.5 137z"/><glyph glyph-name="afii10076" unicode="к" horiz-adv-x="905" d="M127 862h201V555l286 307h267L504 485 901 0H647L360 354l-32-32V0H127v862z"/><glyph glyph-name="afii10077" unicode="л" horiz-adv-x="962" d="M836 862V0H635v678H381V336q0-159-82-248-54-60-130-80T16 0v184q42-10 81 2t61 37q30 37 30 113v526h648z"/><glyph glyph-name="afii10078" unicode="м" horiz-adv-x="1187" d="M29 0l209 940 356-657 356 657L1159 0H954l-86 432L594-66 319 432 233 0H29z"/><glyph glyph-name="afii10079" unicode="н" horiz-adv-x="1011" d="M127 0v862h201V543h356v319h201V0H684v358H328V0H127z"/><glyph glyph-name="afii10080" unicode="о" horiz-adv-x="1085" d="M543 885q197 0 329-128.5T1004 430q0-197-132.5-327T543-27 214.5 103 82 430q0 198 132 326.5T543 885zm0-731q118 0 187 74.5T799 428q0 71-22 126t-59 87-81.5 48-93.5 16-93.5-16-81.5-48-59-87-22-126q0-125 69-199.5T543 154z"/><glyph glyph-name="afii10081" unicode="п" horiz-adv-x="1003" d="M127 862h750V0H676v678H328V0H127v862z"/><glyph glyph-name="afii10082" unicode="р" horiz-adv-x="1085" d="M328 100v-569H127V862h201v-94q98 117 256 117 176 0 298-124.5T1004 436q0-105-36.5-194.5t-96-147T738 5 586-27q-32 0-68.5 7.5t-92.5 38-97 81.5zm231 605q-102 0-173-72.5T315 426q0-129 71-200.5T559 154q106 0 173 79.5T799 428q0 118-66.5 197.5T559 705z"/><glyph glyph-name="afii10083" unicode="с" horiz-adv-x="860" d="M795 823V598Q686 705 551 705q-115 0-191-76-73-73-73-199 0-129 78-207 72-69 182-69 66 0 132 27.5T795 264V41Q688-27 532-27q-206 0-327 127Q82 227 82 424q0 203 131 334 127 127 346 127 124 0 236-62z"/><glyph glyph-name="afii10084" unicode="т" horiz-adv-x="737" d="M721 678H469V0H268v678H16v184h705V678z"/><glyph glyph-name="afii10085" unicode="у" horiz-adv-x="987" d="M63-469l318 604L12 862h242l246-504 250 504h225L289-469H63z"/><glyph glyph-name="afii10086" unicode="ф" horiz-adv-x="1372" d="M586-469v455Q363-17 231 98 86 221 86 432q0 209 143 332 131 113 357 113v489h200V877q226 0 357-113 143-123 143-332 0-211-145-334Q1009-17 786-14v-455H586zm0 635v530q-121 0-189-45-15-9-30-23.5t-34-40-30.5-66T291 432q0-146 100-215 76-54 195-51zm200 530V166q119-3 195 51 100 69 100 215 0 49-11.5 89.5t-30.5 66-34 40-30 23.5q-68 45-189 45z"/><glyph glyph-name="afii10087" unicode="х" horiz-adv-x="1015" d="M12 0l381 467L86 862h238l190-252 193 252h245L635 467 1004 0H762L514 322 258 0H12z"/><glyph glyph-name="afii10088" unicode="ц" horiz-adv-x="1028" d="M127 0v862h201V184h340v678h200V184h144v-430H827V0H127z"/><glyph glyph-name="afii10089" unicode="ч" horiz-adv-x="921" d="M594 0v334q-97-19-176-19-147 0-228 64-37 29-57 70.5t-23.5 70T106 586v276h201V627q0-88 51-119 36-21 101-21 71 0 135 23v352h201V0H594z"/><glyph glyph-name="afii10090" unicode="ш" horiz-adv-x="1429" d="M127 0v862h201V184h286v678h201V184h287v678h201V0H127z"/><glyph glyph-name="afii10091" unicode="щ" horiz-adv-x="1462" d="M127 0v862h201V184h286v678h201V184h287v678h201V184h143v-430h-184V0H127z"/><glyph glyph-name="afii10092" unicode="ъ" horiz-adv-x="892" d="M201 0v678H16v184h385V557h115q41 0 67-2t63.5-9.5T716 519t60-50q68-75 68-188 0-129-78-207-27-26-57-42.5T642 9t-61-7.5T514 0H201zm200 172h93q74 0 104 18 45 32 45 89 0 58-43 86-33 20-104 20h-95V172z"/><glyph glyph-name="afii10093" unicode="ы" horiz-adv-x="1187" d="M127 0v862h201V557h114q41 0 67-2t63.5-9.5T642 519t60-50q68-75 68-188 0-129-78-207-27-26-57-42.5T568 9t-61-7.5T440 0H127zm201 172h92q74 0 104 18 45 32 45 89 0 58-43 86-33 20-104 20h-94V172zM860 0v862h201V0H860z"/><glyph glyph-name="afii10094" unicode="ь" horiz-adv-x="819" d="M127 0v862h201V557h114q41 0 67-2t63.5-9.5T642 519t60-50q68-75 68-188 0-129-78-207-27-26-57-42.5T568 9t-61-7.5T440 0H127zm201 172h92q74 0 104 18 45 32 45 89 0 58-43 86-33 20-104 20h-94V172z"/><glyph glyph-name="afii10095" unicode="э" horiz-adv-x="876" d="M82 649v191q115 45 244 45 217 0 344-127 125-125 125-326 0-200-127-330Q545-27 346-27 209-27 82 23v190q105-59 235-59 126 0 195 69 50 50 63 133H176v168h393q-17 91-86 138-60 43-166 43-120 0-235-56z"/><glyph glyph-name="afii10096" unicode="ю" horiz-adv-x="1433" d="M328 543h137q20 120 113 215 127 127 321 127 192 0 322.5-128.5T1352 430q0-197-130-327T899-27q-204 0-332 138-94 102-106 247H328V0H127v862h201V543zm571 162q-104 0-176-69.5T651 428t72-206 176-68 176 68 72 206-72 207.5T899 705z"/><glyph glyph-name="afii10097" unicode="я" horiz-adv-x="856" d="M16 0l271 342q-78 11-137 66-72 69-72 178 0 124 80 198 50 48 110 63t140 15h321V0H528v317h-41L252 0H16zm512 481v209H412q-72 0-105-18-49-29-49-86 0-55 41-84 33-21 111-21h118z"/><glyph glyph-name="afii10071" unicode="ё" horiz-adv-x="987" d="M731 291l168-94Q842 95 754 39 651-27 500-27 320-27 209 84q-61 61-94 147T82 414q0 101 35 193.5T219 768q117 117 289 117 167 0 276-113 121-125 121-364v-25H287q3-48 22.5-95.5T360 209q55-55 154-55 80 0 137 43 50 38 80 94zM301 547h399q-12 71-61 117-53 49-135 49-86 0-142-56-45-42-61-110zm-92 618q0 54 36.5 90.5T336 1292t90.5-36.5T463 1165t-36.5-90.5T336 1038t-90.5 36.5T209 1165zm369 0q0 54 36.5 90.5T705 1292t90-36.5 36-90.5-36-90.5-90-36.5-90.5 36.5T578 1165z"/><glyph glyph-name="afii10099" unicode="ђ" horiz-adv-x="995" d="M127 0v1049H-20v155h147v289h201v-289h409v-155H328V707q94 96 231 96 170 0 254-117 55-81 55-240v-622q0-76-17.5-137T778-416q-70-55-184-55-87 0-135 18v181q49-19 96-19 66 0 94 45 19 33 19 123v551q0 35-1.5 54T656 529.5 629 578q-41 45-113 45-48 0-86.5-20.5T369 551q-41-58-41-217V0H127z"/><glyph glyph-name="afii10100" unicode="ѓ" horiz-adv-x="671" d="M127 0v862h528V678H328V0H127zm416 1382l184-94-319-295-111 70z"/><glyph glyph-name="afii10101" unicode="є" horiz-adv-x="876" d="M795 827V614q-97 91-240 91-101 0-168-56-56-46-80-123h393V362H301q8-88 72-145 72-63 186-63 136 0 236 94V35q-94-62-263-62-199 0-327 131Q82 230 82 430q0 210 139 338 125 117 330 117 136 0 244-58z"/><glyph glyph-name="afii10102" unicode="ѕ" horiz-adv-x="737" d="M653 733l-149-98q-45 74-123 74-39 0-62-23-18-18-18-45 0-30 29-49 5-3 12-6.5t22-11.5 33-17l103-51q88-45 121-80 63-63 63-160 0-114-76-196-89-97-241-97-114 0-187 56-78 59-110 157l163 78q20-57 48-82 32-32 88-32 54 0 82 28t28 68q0 36-26 65-30 30-86 54l-74 34q-84 39-119 74-61 58-61 145 0 111 71 185 78 82 211 82 93 0 160-45 58-36 98-107z"/><glyph glyph-name="afii10103" unicode="і" horiz-adv-x="454" d="M127 862h201V0H127v862zm-29 357q0 55 37 92t92 37 92-37 37-92-37-92-92-37-92 37-37 92z"/><glyph glyph-name="afii10104" unicode="ї" horiz-adv-x="475" d="M137 862h201V0H137v862zm223 486q39 0 70-34t31-93-31-93-70-34-69.5 34-30.5 93 30.5 93 69.5 34zm-245 0q39 0 69.5-34t30.5-93-30.5-93-69.5-34-70 34-31 93 31 93 70 34z"/><glyph glyph-name="afii10105" unicode="ј" horiz-adv-x="454" d="M127 862h201V-469H127V862zm-29 357q0 55 37 92t92 37 92-37 37-92-37-92-92-37-92 37-37 92z"/><glyph glyph-name="afii10106" unicode="љ" horiz-adv-x="1327" d="M836 862V557h114q41 0 67-2t63.5-9.5T1150 519t60-50q68-75 68-188 0-129-78-207-27-26-57-42.5T1076 9t-61-7.5T948 0H635v678H381V336q0-159-82-248Q212-4 68-4 48-4 16 0v184q24-4 39-4 31 0 59.5 12t43.5 31q30 37 30 113v526h648zm0-690h92q74 0 104 18 45 32 45 89 0 58-43 86-33 20-104 20h-94V172z"/><glyph glyph-name="afii10107" unicode="њ" horiz-adv-x="1376" d="M127 0v862h201V557h356v305h201V557h114q41 0 67-2t64-9.5 70-26.5 60-50q67-74 67-188 0-129-78-207-27-26-57-42.5T1125 9t-61-7.5T997 0H684v385H328V0H127zm758 172h92q74 0 104 18 45 32 45 89 0 58-43 86-33 20-104 20h-94V172z"/><glyph glyph-name="afii10108" unicode="ћ" horiz-adv-x="995" d="M127 0v1049H-20v155h147v289h201v-289h409v-155H328V707q94 96 231 96 170 0 254-117 55-81 55-240V0H668v428q0 35-1.5 54T656 529.5 629 578q-41 45-113 45-48 0-86.5-20.5T369 551q-41-58-41-217V0H127z"/><glyph glyph-name="afii10109" unicode="ќ" horiz-adv-x="905" d="M127 862h201V555l286 307h267L504 485 901 0H647L360 354l-32-32V0H127v862zm479 520l185-94-320-295-111 70z"/><glyph glyph-name="afii10110" unicode="ў" horiz-adv-x="987" d="M63-469l318 604L12 862h242l246-504 250 504h225L289-469H63zm107 1704l164 47q39-133 168-133 66 0 106 32t62 101l164-47q-22-80-81-137t-123.5-81T502 993t-127.5 24-123.5 81-81 137z"/><glyph glyph-name="afii10193" unicode="џ" horiz-adv-x="995" d="M127 0v862h201V184h340v678h200V0H590v-266H406V0H127z"/><glyph glyph-name="afii10146" unicode="Ѣ" horiz-adv-x="1212" d="M328 0v1030H20v193h308v198h209v-198h368v-193H537V815h155q220 0 342-108 60-54 94.5-131.5T1163 408q0-100-43.5-189.5T993 74Q883 0 694 0H328zm209 618V197h147q45 0 76 3t73.5 19 71.5 45q53 53 53 139 0 96-57 150-67 65-213 65H537z"/><glyph glyph-name="afii10194" unicode="ѣ" horiz-adv-x="892" d="M16 862h185v504h200V862h246V690H401V557h115q41 0 67-2t63.5-9.5T716 519t60-50q68-75 68-188 0-129-78-207-27-26-57-42.5T642 9t-61-7.5T514 0H201v690H16v172zm385-690h93q74 0 104 18 45 32 45 89 0 58-43 86-33 20-104 20h-95V172z"/><glyph glyph-name="afii10147" unicode="Ѳ" horiz-adv-x="1617" d="M809 1391q151 0 283.5-54.5t226-149 147.5-226 54-279.5-54-279.5-147.5-226-226-149T809-27 525.5 27.5t-226 149-147.5 226T98 682t54 279.5 147.5 226 226 149T809 1391zm496-803H313q24-179 161-300.5T809 166t335 121.5T1305 588zM313 784h992q-26 174-161.5 294T809 1198t-334.5-120T313 784z"/><glyph glyph-name="afii10195" unicode="ѳ" horiz-adv-x="1085" d="M543 885q197 0 329-128.5T1004 430q0-197-132.5-327T543-27 214.5 103 82 430q0 198 132 326.5T543 885zm248-531H295q17-96 85-148t163-52 163 52 85 148zM295 518h496q-20 83-84.5 135T543 705t-163.5-52T295 518z"/><glyph glyph-name="afii10148" unicode="Ѵ" horiz-adv-x="1228" d="M8 1366h225l381-952 381 952h226L614-88z"/><glyph glyph-name="afii10196" unicode="ѵ" horiz-adv-x="917" d="M12 862h226l221-491 221 491h225L459-61z"/><glyph glyph-name="afii10050" unicode="Ґ" horiz-adv-x="876" d="M164 0v1366h487v307h197v-504H373V0H164z"/><glyph glyph-name="afii10098" unicode="ґ" horiz-adv-x="671" d="M127 0v862h344v246h184V678H328V0H127z"/><glyph glyph-name="uni0492" unicode="Ғ" horiz-adv-x="876" d="M164 0v659H-20v177h184v530h684v-197H373V836h307V659H373V0H164z"/><glyph glyph-name="uni0493" unicode="ғ" horiz-adv-x="671" d="M127 0v344H-20v164h147v354h528V678H328V508h204V344H328V0H127z"/><glyph glyph-name="uni0494" unicode="Ҕ" horiz-adv-x="1196" d="M823 1169H373V788q146 48 280 48 163 0 267-62 178-105 178-366 0-240-150-345-104-75-286-75-56 0-138 12v193q60-13 131-13 106 0 160 43 70 57 70 183 0 145-109 204-63 33-158 33-75 0-145.5-17T373 596V0H164v1366h659v-197z"/><glyph glyph-name="uni0495" unicode="ҕ" horiz-adv-x="901" d="M127 0v862h528V678H328V483h61q91 0 174.5-27T702 377q51-48 84-124.5T819 76q0-225-157-369-125-113-293-133v184q95 14 159 84 86 90 86 232 0 116-67 176-60 53-176 53h-43V0H127z"/><glyph glyph-name="uni0496" unicode="Җ" horiz-adv-x="1753" d="M762 1366h209V815l487 551h254l-563-627 422-542h153v-504h-196V0h-62l-462 602-33-37V0H762v565l-33 37L266 0H8l576 739-564 627h254l488-551v551z"/><glyph glyph-name="uni0497" unicode="җ" horiz-adv-x="1290" d="M539 862h200V543l260 319h242L907 469l223-285h144v-430h-184V0h-66L764 346l-25-29V0H539v317l-25 29L254 0H4l367 469L37 862h242l260-319v319z"/><glyph glyph-name="uni0498" unicode="Ҙ" horiz-adv-x="1167" d="M281 1057l-138 133q77 102 176 147 104 52 248 52 204 0 318-109 98-94 98-240 0-99-45-170-42-71-123-118 111-30 184-121 70-90 70-232 0-185-137-305Q834 9 702-12v-328H506v320Q348-10 227 82 114 168 53 303l185 94q40-105 127-166 90-63 225-63t209 74q65 65 65 168 0 104-80 159-35 24-84.5 37T618 621t-81 2H414v196h110q52 0 107.5 13.5T721 874q61 51 61 140 0 91-65 141-52 41-158 41-99 0-166-39-65-37-112-100z"/><glyph glyph-name="uni0499" unicode="ҙ" horiz-adv-x="901" d="M244 639L115 752q48 58 131 96 86 37 203 37 133 0 219-60 90-64 90-176 0-72-37-119-31-41-82-61 79-17 125-63 55-55 55-144 0-116-74-190-73-73-180-86v-252H381v248q-105 2-186 59-75 52-113 137l160 82q28-62 75-90 50-33 129-33 95 0 138 43 30 33 30 76 0 44-26 70-16 17-44 25.5t-46.5 9.5-53.5 1h-90v164h76q62 0 98 23 37 28 37 76t-37 73q-33 23-96 23-59 0-113-25-40-19-75-57z"/><glyph glyph-name="uni049A" unicode="Қ" horiz-adv-x="1208" d="M164 1366h209V821l528 545h275L559 748l457-551h164v-504H983V0h-82L414 606l-41-41V0H164v1366z"/><glyph glyph-name="uni049B" unicode="қ" horiz-adv-x="917" d="M127 862h201V555l286 307h267L504 485l248-301h149v-430H717V0h-70L360 354l-32-32V0H127v862z"/><glyph glyph-name="uni049C" unicode="Ҝ" horiz-adv-x="1392" d="M164 1366h209V825h176v287h184V825l393 541h246L907 748 1372 0h-246L733 641V334H549v307H373V0H164v1366z"/><glyph glyph-name="uni049D" unicode="ҝ" horiz-adv-x="1077" d="M127 862h201V551h123v205h163V539l234 323h225L791 481 1073 0H848L614 399V162H451v225H328V0H127v862z"/><glyph glyph-name="uni04A0" unicode="Ҡ" horiz-adv-x="1433" d="M397 0v1169H20v197h586V821l529 545h274L793 748 1413 0h-278L647 606l-41-41V0H397z"/><glyph glyph-name="uni04A1" unicode="ҡ" horiz-adv-x="1044" d="M266 0v678H16v184h451V555l287 307h266L643 485 1040 0H786L500 354l-33-32V0H266z"/><glyph glyph-name="uni04A2" unicode="Ң" horiz-adv-x="1372" d="M164 0v1366h209V825h585v541h209V197h176v-504h-196V0H958v629H373V0H164z"/><glyph glyph-name="uni04A3" unicode="ң" horiz-adv-x="1044" d="M127 0v862h201V543h356v319h201V184h143v-430H844V0H684v358H328V0H127z"/><glyph glyph-name="uni04A4" unicode="Ҥ" horiz-adv-x="1671" d="M164 0v1366h209V825h585v541h684v-197h-475V0H958v629H373V0H164z"/><glyph glyph-name="uni04A5" unicode="ҥ" horiz-adv-x="1228" d="M127 0v862h201V543h356v319h528V678H885V0H684v358H328V0H127z"/><glyph glyph-name="uni04AA" unicode="Ҫ" horiz-adv-x="1269" d="M1176 1292v-245q-155 151-371 151-210 0-340-125-74-71-116-177t-42-218q0-109 37-203t100-160q62-66 154-107.5T807 166q204 0 369 158V76Q1048 0 907-18v-322H711v326Q486 3 317 162 98 363 98 678q0 326 219 534 190 179 492 179 209 0 367-99z"/><glyph glyph-name="uni04AB" unicode="ҫ" horiz-adv-x="860" d="M795 823V598Q686 705 551 705q-115 0-191-76-73-73-73-199 0-129 78-207 72-69 182-69 66 0 132 27.5T795 264V41q-77-51-162-57v-250H449v246Q308-6 205 100 82 227 82 424q0 203 131 334 127 127 346 127 124 0 236-62z"/><glyph glyph-name="uni04AE" unicode="Ү" horiz-adv-x="1105" d="M449 0v590L0 1366h238l315-547 315 547h238L657 590V0H449z"/><glyph glyph-name="uni04AF" unicode="ү" horiz-adv-x="917" d="M12 862h226l221-485 221 485h225L559 145v-614H358v614z"/><glyph glyph-name="uni04B0" unicode="Ұ" horiz-adv-x="1105" d="M449 0v414H59v176h390L0 1366h238l315-547 315 547h238L657 590h390V414H657V0H449z"/><glyph glyph-name="uni04B1" unicode="ұ" horiz-adv-x="917" d="M12 862h226l221-485 221 485h225L559 145V41h266v-176H559v-334H358v334H92V41h266v104z"/><glyph glyph-name="uni04B2" unicode="Ҳ" horiz-adv-x="1167" d="M20 0l431 713-377 653h233l266-463 273 463h233L686 713l297-516h156v-504H942V0h-78L565 522 254 0H20z"/><glyph glyph-name="uni04B3" unicode="ҳ" horiz-adv-x="1019" d="M12 0l381 467L86 862h238l190-252 193 252h245L635 467l223-283h146v-430H819V0h-57L514 322 258 0H12z"/><glyph glyph-name="uni04B6" unicode="Ҷ" horiz-adv-x="1282" d="M868 0v561q-187-14-278-14-228 0-334 84-133 105-133 332v403h209V993q0-31 1.5-51t7.5-53 22.5-60 42.5-47q55-43 217-43 106 0 245 15v612h209V197h176v-504h-196V0H868z"/><glyph glyph-name="uni04B7" unicode="ҷ" horiz-adv-x="954" d="M594 0v334q-97-19-176-19-147 0-228 64-37 29-57 70.5t-23.5 70T106 586v276h201V627q0-88 51-119 36-21 101-21 71 0 135 23v352h201V184h143v-430H754V0H594z"/><glyph glyph-name="uni04B8" unicode="Ҹ" horiz-adv-x="1310" d="M938 0v561q-99-12-201-12V266H553v283q-68 2-148 21t-137 61Q123 736 123 963v403h209V993q0-44 2.5-71t22.5-70 59-70q52-37 137-41v303h184V741q94 0 201 13v612h209V0H938z"/><glyph glyph-name="uni04B9" unicode="ҹ" horiz-adv-x="1085" d="M758 0v330q-86-15-140-17V133H455v180q-62 0-135 14.5T201 375q-95 68-95 211v276h201V627q0-90 66-119 35-14 82-14v233h163V494q68 0 140 16v352h200V0H758z"/><glyph glyph-name="uni04BA" unicode="Һ" horiz-adv-x="1241" d="M373 1366V825q135 15 264 15 242 0 348-84 133-105 133-332V0H909v393q0 44-2 70.5T887.5 534 836 604q-55 43-218 43-112 0-245-14V0H164v1366h209z"/><glyph glyph-name="uni04BB" unicode="һ" horiz-adv-x="995" d="M127 0v1493h201V788q95 97 231 97 170 0 254-117 55-81 55-240V0H668v510q0 34-1.5 53.5T656 611t-27 48q-42 46-113 46-48 0-86.5-20.5T369 633q-41-58-41-217V0H127z"/><glyph glyph-name="uni04C0" unicode="Ӏ" horiz-adv-x="536" d="M164 1366h209V0H164v1366z"/><glyph glyph-name="uni04C1" unicode="Ӂ" horiz-adv-x="1732" d="M762 1366h209V815l487 551h254l-563-627L1724 0h-258l-462 602-33-37V0H762v565l-33 37L266 0H8l576 739-564 627h254l488-551v551zm-238 338l164 74q11-39 37-65t57.5-35.5 48.5-12 31-2.5 31 2.5 48.5 12T999 1713t37 65l164-74q-25-60-66.5-103.5t-90-65-93-31-88.5-9.5-88.5 9.5-93 31-90 65T524 1704z"/><glyph glyph-name="uni04C2" unicode="ӂ" horiz-adv-x="1277" d="M539 862h200V543l260 319h242L907 469 1274 0h-250L764 346l-25-29V0H539v317l-25 29L254 0H4l367 469L37 862h242l260-319v319zm-236 373l164 47q39-133 168-133 66 0 106 32t62 101l164-47q-22-80-81-137t-123.5-81T635 993t-127.5 24-123.5 81-81 137z"/><glyph glyph-name="uni04C3" unicode="Ӄ" horiz-adv-x="1261" d="M164 1366h209V805l528 561h275L629 817q104 0 212-39.5T1022 664q141-143 141-426 0-305-129-445-112-121-323-121-115 0-215 43l49 191q77-41 162-41 98 0 159 61 88 91 88 297 0 94-26.5 179T850 539q-95 100-297 100-83 0-180-23V0H164v1366z"/><glyph glyph-name="uni04C4" unicode="ӄ" horiz-adv-x="901" d="M127 862h201V555l286 307h267L492 469q136-14 227-109Q819 252 819 72q0-224-157-365-122-110-293-133v184q95 14 159 84 86 90 86 232 0 106-59 168-59 61-188 61h-39V0H127v862z"/><glyph glyph-name="uni04C7" unicode="Ӈ" horiz-adv-x="1331" d="M164 0v1366h209V825h585v541h209V-176q0-169-90-240-67-55-192-55-73 0-135 18v189q51-19 96-19 66 0 94 45 18 31 18 123v744H373V0H164z"/><glyph glyph-name="uni04C8" unicode="ӈ" horiz-adv-x="1011" d="M127 0v862h201V543h356v319h201V-176q0-76-17.5-137T795-416q-70-55-185-55-87 0-135 18v181q49-19 96-19 67 0 95 45 18 31 18 123v481H328V0H127z"/><glyph glyph-name="uni04D0" unicode="Ӑ" horiz-adv-x="1343" d="M1110 0L967 330H383L233 0H8l680 1446L1335 0h-225zM469 526h414L680 989zM342 1704l164 74q11-39 37-65t57.5-35.5 48.5-12 31-2.5 31 2.5 48.5 12T817 1713t37 65l164-74q-25-60-66.5-103.5t-90-65-93-31-88.5-9.5-88.5 9.5-93 31-90 65T342 1704z"/><glyph glyph-name="uni04D1" unicode="ӑ" horiz-adv-x="1085" d="M758 762v100h200V0H758v90Q657-27 500-27q-128 0-225 65.5t-145 169T82 432q0 103 33.5 189t91 143.5 134 89T502 885q161 0 256-123zm-232-57q-107 0-173-79.5T287 428q0-115 66.5-194.5T526 154q102 0 173 71.5T770 426q0 134-71 206.5T526 705zm-346 530l164 47q39-133 168-133 66 0 106 32t62 101l164-47q-22-80-81-137t-123.5-81T512 993t-127.5 24-123.5 81-81 137z"/><glyph glyph-name="uni04D2" unicode="Ӓ" horiz-adv-x="1343" d="M1110 0L967 330H383L233 0H8l680 1446L1335 0h-225zM469 526h414L680 989zM352 1628q0 54 36.5 90.5T479 1755t90.5-36.5T606 1628t-36.5-90.5T479 1501t-90.5 36.5T352 1628zm402 0q0 54 36.5 90.5T881 1755t90.5-36.5 36.5-90.5-36.5-90.5T881 1501t-90.5 36.5T754 1628z"/><glyph glyph-name="uni04D3" unicode="ӓ" horiz-adv-x="1085" d="M758 762v100h200V0H758v90Q657-27 500-27q-128 0-225 65.5t-145 169T82 432q0 103 33.5 189t91 143.5 134 89T502 885q161 0 256-123zm-232-57q-107 0-173-79.5T287 428q0-115 66.5-194.5T526 154q102 0 173 71.5T770 426q0 134-71 206.5T526 705zm-325 460q0 54 36.5 90.5T328 1292t90.5-36.5T455 1165t-36.5-90.5T328 1038t-90.5 36.5T201 1165zm368 0q0 54 36.5 90.5T696 1292t90.5-36.5T823 1165t-36.5-90.5T696 1038t-90.5 36.5T569 1165z"/><glyph glyph-name="uni04D4" unicode="Ӕ" horiz-adv-x="1896" d="M1118 0L975 326H395L246 0H20l656 1366h604l86-197H823l144-325h528l86-197h-528l194-450h543l86-197h-758zM487 522h406L698 967z"/><glyph glyph-name="uni04D5" unicode="ӕ" horiz-adv-x="1548" d="M203 672v186q115 27 243 27 110 0 179-27 76-29 129-96 48 58 118 88 76 35 179 35 187 0 295-113 120-126 120-364v-25H848q3-47 23-95t51-79q55-55 153-55 80 0 137 43 50 38 80 94l168-94q-57-102-145-158-104-66-258-66-105 0-180 37-77 36-123 103Q694 43 614 6q-77-33-182-33-169 0-264 93-86 83-86 196 0 123 82 201 48 45 118 68.5T426 555q120 0 221-57 0 104-57 155-59 52-176 52-100 0-211-33zm248-289q-94 0-142-43-35-32-35-76 0-45 41-80 50-39 136-39 75 0 129 33 55 35 55 90 0 53-64 88-53 27-120 27zm411 164h400q-12 70-62 117-54 49-135 49-82 0-141-56-46-46-62-110z"/><glyph glyph-name="uni04D6" unicode="Ӗ" d="M918 1366v-197H373V823h528V627H373V197h545V0H164v1366h754zm-713 338l164 74q11-39 37-65t57.5-35.5 48.5-12 31-2.5 31 2.5 48.5 12T680 1713t37 65l164-74q-25-60-66.5-103.5t-90-65-93-31-88.5-9.5-88.5 9.5-93 31-90 65T205 1704z"/><glyph glyph-name="uni04D7" unicode="ӗ" horiz-adv-x="987" d="M731 291l168-94Q842 95 754 39 651-27 500-27 320-27 209 84q-61 61-94 147T82 414q0 101 35 193.5T219 768q117 117 289 117 167 0 276-113 121-125 121-364v-25H287q3-48 22.5-95.5T360 209q55-55 154-55 80 0 137 43 50 38 80 94zM301 547h399q-12 71-61 117-53 49-135 49-86 0-142-56-45-42-61-110zm-139 688l164 47q39-133 168-133 66 0 106 32t62 101l163-47q-22-80-80.5-137t-123-81T494 993t-127.5 24-123.5 81-81 137z"/><glyph glyph-name="uni04D8" unicode="Ә" horiz-adv-x="1531" d="M305 979l-147 135q66 87 149 146 181 131 416 131 314 0 516-209 195-202 195-500 0-301-209-510Q1026-27 735-27q-328 0-508 254Q98 409 98 668v63h1125q-10 139-81.5 247t-181 164-237.5 56q-77 0-146-20.5t-120.5-56T369 1052t-64-73zm901-440H322q13-132 90-228 116-145 325-145 115 0 208 43t155 115q78 90 106 215z"/><glyph glyph-name="afii10846" unicode="ә" horiz-adv-x="999" d="M272 598L90 659q51 105 150 164 105 62 239 62 190 0 305-107 61-57 97.5-148.5T918 422q0-211-132-340Q674-27 496-27 325-27 219 76q-62 61-99.5 157T82 444v52h627q-4 45-24 87.5T637 651q-57 54-160 54-76 0-129-33-40-22-76-74zm422-266H295q5-39 21-78t40-61q48-48 136-48 85 0 139 54t63 133z"/><glyph glyph-name="uni04DA" unicode="Ӛ" horiz-adv-x="1531" d="M305 979l-147 135q66 87 149 146 181 131 416 131 314 0 516-209 195-202 195-500 0-301-209-510Q1026-27 735-27q-328 0-508 254Q98 409 98 668v63h1125q-10 139-81.5 247t-181 164-237.5 56q-77 0-146-20.5t-120.5-56T369 1052t-64-73zm901-440H322q13-132 90-228 116-145 325-145 115 0 208 43t155 115q78 90 106 215zM438 1628q0 54 36.5 90.5T565 1755t90.5-36.5T692 1628t-36.5-90.5T565 1501t-90.5 36.5T438 1628zm402 0q0 54 36.5 90.5T967 1755t90.5-36.5 36.5-90.5-36.5-90.5T967 1501t-90.5 36.5T840 1628z"/><glyph glyph-name="uni04DB" unicode="ӛ" horiz-adv-x="999" d="M272 598L90 659q51 105 150 164 105 62 239 62 190 0 305-107 61-57 97.5-148.5T918 422q0-211-132-340Q674-27 496-27 325-27 219 76q-62 61-99.5 157T82 444v52h627q-4 45-24 87.5T637 651q-57 54-160 54-76 0-129-33-40-22-76-74zm422-266H295q5-39 21-78t40-61q48-48 136-48 85 0 139 54t63 133zm-506 833q0 54 36.5 90.5T315 1292t90.5-36.5T442 1165t-36.5-90.5T315 1038t-90.5 36.5T188 1165zm369 0q0 54 36.5 90.5T684 1292t90.5-36.5T811 1165t-36.5-90.5T684 1038t-90.5 36.5T557 1165z"/><glyph glyph-name="uni04DC" unicode="Ӝ" horiz-adv-x="1732" d="M762 1366h209V815l487 551h254l-563-627L1724 0h-258l-462 602-33-37V0H762v565l-33 37L266 0H8l576 739-564 627h254l488-551v551zm-223 262q0 54 36.5 90.5T666 1755t90.5-36.5T793 1628t-36.5-90.5T666 1501t-90.5 36.5T539 1628zm401 0q0 54 36.5 90.5t90.5 36.5 90.5-36.5 36.5-90.5-36.5-90.5-90.5-36.5-90.5 36.5T940 1628z"/><glyph glyph-name="uni04DD" unicode="ӝ" horiz-adv-x="1277" d="M539 862h200V543l260 319h242L907 469 1274 0h-250L764 346l-25-29V0H539v317l-25 29L254 0H4l367 469L37 862h242l260-319v319zm-211 303q0 54 36.5 90.5T455 1292t90.5-36.5T582 1165t-36.5-90.5T455 1038t-90.5 36.5T328 1165zm368 0q0 54 36.5 90.5T823 1292t90.5-36.5T950 1165t-36.5-90.5T823 1038t-90.5 36.5T696 1165z"/><glyph glyph-name="uni04DE" unicode="Ӟ" horiz-adv-x="1167" d="M281 1057l-138 133q77 102 176 147 104 52 248 52 204 0 318-109 98-94 98-240 0-99-45-170-42-71-123-118 111-30 184-121 70-90 70-232 0-185-137-305Q792-25 563-25 369-25 227 82 117 167 53 303l185 94q40-105 127-166 90-63 225-63t209 74q65 65 65 168 0 104-80 159-35 24-84.5 37T618 621t-81 2H414v196h110q52 0 107.5 13.5T721 874q61 51 61 140 0 91-65 141-52 41-158 41-99 0-166-39-65-37-112-100zm-35 571q0 54 36.5 90.5T373 1755t90.5-36.5T500 1628t-36.5-90.5T373 1501t-90.5 36.5T246 1628zm401 0q0 54 36.5 90.5T774 1755t90.5-36.5T901 1628t-36.5-90.5T774 1501t-90.5 36.5T647 1628z"/><glyph glyph-name="uni04DF" unicode="ӟ" horiz-adv-x="901" d="M244 639L115 752q48 58 131 96 86 37 203 37 133 0 219-60 90-64 90-176 0-72-37-119-31-41-82-61 79-17 125-63 55-55 55-144 0-116-74-190-99-99-303-99-135 0-225 52-92 55-135 153l160 82q28-62 75-90 50-33 129-33 95 0 138 43 30 33 30 76 0 44-26 70-16 17-44 25.5t-46.5 9.5-53.5 1h-90v164h76q62 0 98 23 37 28 37 76t-37 73q-33 23-96 23-59 0-113-25-40-19-75-57zm-84 526q0 54 36.5 90.5T287 1292t90.5-36.5T414 1165t-36.5-90.5T287 1038t-90.5 36.5T160 1165zm368 0q0 54 36.5 90.5T655 1292t90.5-36.5T782 1165t-36.5-90.5T655 1038t-90.5 36.5T528 1165z"/><glyph glyph-name="uni04E2" unicode="Ӣ" horiz-adv-x="1458" d="M1085 0v920L164-61v1427h209V442l921 981V0h-209zM377 1501v164h737v-164H377z"/><glyph glyph-name="uni04E3" unicode="ӣ" horiz-adv-x="1044" d="M127 862h201V373l590 567V0H717v502L127-66v928zm57 178v160h676v-160H184z"/><glyph glyph-name="uni04E4" unicode="Ӥ" horiz-adv-x="1458" d="M1085 0v920L164-61v1427h209V442l921 981V0h-209zM418 1628q0 54 36.5 90.5T545 1755t90.5-36.5T672 1628t-36.5-90.5T545 1501t-90.5 36.5T418 1628zm401 0q0 54 36.5 90.5T946 1755t90.5-36.5 36.5-90.5-36.5-90.5T946 1501t-90.5 36.5T819 1628z"/><glyph glyph-name="uni04E5" unicode="ӥ" horiz-adv-x="1044" d="M127 862h201V373l590 567V0H717v502L127-66v928zm84 303q0 54 36.5 90.5T338 1292t90.5-36.5T465 1165t-36.5-90.5T338 1038t-90.5 36.5T211 1165zm369 0q0 54 36.5 90.5T707 1292t90.5-36.5T834 1165t-36.5-90.5T707 1038t-90.5 36.5T580 1165z"/><glyph glyph-name="uni04E6" unicode="Ӧ" horiz-adv-x="1617" d="M809 1391q151 0 283.5-54.5t226-149 147.5-226 54-279.5-54-279.5-147.5-226-226-149T809-27 525.5 27.5t-226 149-147.5 226T98 682t54 279.5 147.5 226 226 149T809 1391zm0-1225q220 0 361 144.5T1311 682t-141 371.5T809 1198t-361-144.5T307 682t141-371.5T809 166zM481 1628q0 54 36.5 90.5T608 1755t90.5-36.5T735 1628t-36.5-90.5T608 1501t-90.5 36.5T481 1628zm402 0q0 54 36.5 90.5t90.5 36.5 90.5-36.5 36.5-90.5-36.5-90.5-90.5-36.5-90.5 36.5T883 1628z"/><glyph glyph-name="uni04E7" unicode="ӧ" horiz-adv-x="1085" d="M543 885q197 0 329-128.5T1004 430q0-197-132.5-327T543-27 214.5 103 82 430q0 198 132 326.5T543 885zm0-731q118 0 187 74.5T799 428q0 71-22 126t-59 87-81.5 48-93.5 16-93.5-16-81.5-48-59-87-22-126q0-125 69-199.5T543 154zM231 1165q0 54 36.5 90.5T358 1292t90.5-36.5T485 1165t-36.5-90.5T358 1038t-90.5 36.5T231 1165zm369 0q0 54 36.5 90.5T727 1292t90.5-36.5T854 1165t-36.5-90.5T727 1038t-90.5 36.5T600 1165z"/><glyph glyph-name="uni04E8" unicode="Ө" horiz-adv-x="1617" d="M809 1391q151 0 283.5-54.5t226-149 147.5-226 54-279.5-54-279.5-147.5-226-226-149T809-27 525.5 27.5t-226 149-147.5 226T98 682t54 279.5 147.5 226 226 149T809 1391zm496-803H313q24-179 161-300.5T809 166t335 121.5T1305 588zM313 784h992q-26 174-161.5 294T809 1198t-334.5-120T313 784z"/><glyph glyph-name="uni04E9" unicode="ө" horiz-adv-x="1085" d="M543 885q197 0 329-128.5T1004 430q0-197-132.5-327T543-27 214.5 103 82 430q0 198 132 326.5T543 885zm248-531H295q17-96 85-148t163-52 163 52 85 148zM295 518h496q-20 83-84.5 135T543 705t-163.5-52T295 518z"/><glyph glyph-name="uni04EA" unicode="Ӫ" horiz-adv-x="1617" d="M809 1391q151 0 283.5-54.5t226-149 147.5-226 54-279.5-54-279.5-147.5-226-226-149T809-27 525.5 27.5t-226 149-147.5 226T98 682t54 279.5 147.5 226 226 149T809 1391zm496-803H313q24-179 161-300.5T809 166t335 121.5T1305 588zM313 784h992q-26 174-161.5 294T809 1198t-334.5-120T313 784zm168 844q0 54 36.5 90.5T608 1755t90.5-36.5T735 1628t-36.5-90.5T608 1501t-90.5 36.5T481 1628zm402 0q0 54 36.5 90.5t90.5 36.5 90.5-36.5 36.5-90.5-36.5-90.5-90.5-36.5-90.5 36.5T883 1628z"/><glyph glyph-name="uni04EB" unicode="ӫ" horiz-adv-x="1085" d="M543 885q197 0 329-128.5T1004 430q0-197-132.5-327T543-27 214.5 103 82 430q0 198 132 326.5T543 885zm248-531H295q17-96 85-148t163-52 163 52 85 148zM295 518h496q-20 83-84.5 135T543 705t-163.5-52T295 518zm-64 647q0 54 36.5 90.5T358 1292t90.5-36.5T485 1165t-36.5-90.5T358 1038t-90.5 36.5T231 1165zm369 0q0 54 36.5 90.5T727 1292t90.5-36.5T854 1165t-36.5-90.5T727 1038t-90.5 36.5T600 1165z"/><glyph glyph-name="uni04EE" unicode="Ӯ" horiz-adv-x="1167" d="M12 1366h254l352-729 320 729h217L539 0H322l176 387zm221 135v164h738v-164H233z"/><glyph glyph-name="uni04EF" unicode="ӯ" horiz-adv-x="987" d="M63-469l318 604L12 862h242l246-504 250 504h225L289-469H63zm93 1509v160h675v-160H156z"/><glyph glyph-name="uni04F0" unicode="Ӱ" horiz-adv-x="1167" d="M12 1366h254l352-729 320 729h217L539 0H322l176 387zm262 262q0 54 36.5 90.5T401 1755t90.5-36.5T528 1628t-36.5-90.5T401 1501t-90.5 36.5T274 1628zm402 0q0 54 36.5 90.5T803 1755t90.5-36.5T930 1628t-36.5-90.5T803 1501t-90.5 36.5T676 1628z"/><glyph glyph-name="uni04F1" unicode="ӱ" horiz-adv-x="987" d="M63-469l318 604L12 862h242l246-504 250 504h225L289-469H63zm119 1634q0 54 36.5 90.5T309 1292t90.5-36.5T436 1165t-36.5-90.5T309 1038t-90.5 36.5T182 1165zm369 0q0 54 36.5 90.5T678 1292t90.5-36.5T805 1165t-36.5-90.5T678 1038t-90.5 36.5T551 1165z"/><glyph glyph-name="uni04F2" unicode="Ӳ" horiz-adv-x="1167" d="M12 1366h254l352-729 320 729h217L539 0H322l176 387zm553 489l160-106-319-260-91 74zm410 0l160-106-320-260-90 74z"/><glyph glyph-name="uni04F3" unicode="ӳ" horiz-adv-x="987" d="M63-469l318 604L12 862h242l246-504 250 504h225L289-469H63zm394 1851l168-94-299-295-86 70zm368 0l168-94-299-295-86 70z"/><glyph glyph-name="uni04F4" unicode="Ӵ" horiz-adv-x="1241" d="M868 0v561q-187-14-278-14-228 0-334 84-133 105-133 332v403h209V993q0-31 1.5-51t7.5-53 22.5-60 42.5-47q55-43 217-43 106 0 245 15v612h209V0H868zM293 1628q0 54 36.5 90.5T420 1755t90.5-36.5T547 1628t-36.5-90.5T420 1501t-90.5 36.5T293 1628zm401 0q0 54 36.5 90.5T821 1755t90.5-36.5T948 1628t-36.5-90.5T821 1501t-90.5 36.5T694 1628z"/><glyph glyph-name="uni04F5" unicode="ӵ" horiz-adv-x="921" d="M594 0v334q-97-19-176-19-147 0-228 64-37 29-57 70.5t-23.5 70T106 586v276h201V627q0-88 51-119 36-21 101-21 71 0 135 23v352h201V0H594zM150 1165q0 54 36 90.5t90 36.5 90.5-36.5T403 1165t-36.5-90.5T276 1038t-90 36.5-36 90.5zm368 0q0 54 36.5 90.5T645 1292t90.5-36.5T772 1165t-36.5-90.5T645 1038t-90.5 36.5T518 1165z"/><glyph glyph-name="uni04F8" unicode="Ӹ" horiz-adv-x="1515" d="M164 0v1366h209V815h155q220 0 342-108 60-52 94.5-130.5T999 406q0-98-43.5-187.5T829 74Q719 0 530 0H164zm209 618V197h147q20 0 33.5.5T598 202t54 11 51.5 22 47 36.5 31.5 55 13 76.5q0 32-6.5 60.5T763 521t-48 50-78 34-113 13H373zm770 748h209V0h-209v1366zm-723 262q0 54 36.5 90.5T547 1755t90.5-36.5T674 1628t-36.5-90.5T547 1501t-90.5 36.5T420 1628zm401 0q0 54 36.5 90.5T948 1755t90.5-36.5 36.5-90.5-36.5-90.5T948 1501t-90.5 36.5T821 1628z"/><glyph glyph-name="uni04F9" unicode="ӹ" horiz-adv-x="1187" d="M127 0v862h201V557h114q41 0 67-2t63.5-9.5T642 519t60-50q68-75 68-188 0-129-78-207-27-26-57-42.5T568 9t-61-7.5T440 0H127zm201 172h92q74 0 104 18 45 32 45 89 0 58-43 86-33 20-104 20h-94V172zM860 0v862h201V0H860zM293 1165q0 54 36.5 90.5T420 1292t90.5-36.5T547 1165t-36.5-90.5T420 1038t-90.5 36.5T293 1165zm369 0q0 54 36 90.5t90 36.5 90.5-36.5T915 1165t-36.5-90.5T788 1038t-90 36.5-36 90.5z"/><glyph glyph-name="uni1E9E" unicode="ẞ" horiz-adv-x="1161" d="M164 0v983q0 186 141 309 59 51 133 75t144 24q151 0 254-76 63-47 104-120t45-161L748 799q140-32 225-123 90-97 90-260 0-184-164-314Q768 0 547-29v197q54 2 115 20t106 56q90 73 90 186 0 117-94 182-39 27-100 44t-117 20v123l217 233q-8 81-55 123-50 47-140 47-84 0-137-53-59-59-59-154V0H164z"/><glyph glyph-name="uni2010" unicode="‐" horiz-adv-x="696" d="M102 332v209h492V332H102z"/><glyph glyph-name="uni2011" unicode="‑" horiz-adv-x="696" d="M102 332v209h492V332H102z"/><glyph glyph-name="figuredash" unicode="‒" horiz-adv-x="1269" d="M143 602v184h983V602H143z"/><glyph glyph-name="endash" unicode="–" horiz-adv-x="1269" d="M143 344v184h983V344H143z"/><glyph glyph-name="emdash" unicode="—" horiz-adv-x="1720" d="M143 344v184h1434V344H143z"/><glyph glyph-name="afii00208" unicode="―" horiz-adv-x="1720" d="M143 344v184h1434V344H143z"/><glyph glyph-name="quoteleft" unicode="‘" horiz-adv-x="593" d="M492 1366L283 846l-181 69 254 506z"/><glyph glyph-name="quoteright" unicode="’" horiz-adv-x="593" d="M102 915l209 521 181-70-254-506z"/><glyph glyph-name="quotesinglbase" unicode="‚" horiz-adv-x="696" d="M102-264l209 520 181-70-254-505z"/><glyph glyph-name="quotedblleft" unicode="“" horiz-adv-x="946" d="M844 1366L635 846l-176 69 252 506zm-357 0L279 846l-177 69 252 506z"/><glyph glyph-name="quotedblright" unicode="”" horiz-adv-x="946" d="M102 915l209 521 176-70-251-506zm357 0l209 521 176-70-252-506z"/><glyph glyph-name="quotedblbase" unicode="„" horiz-adv-x="1048" d="M102-264l209 520 176-70-251-505zm357 0l209 520 176-70-252-505z"/><glyph glyph-name="dagger" unicode="†" horiz-adv-x="1163" d="M481 1057v436h201v-436h283V864H682V-362H481V864H199v193h282z"/><glyph glyph-name="daggerdbl" unicode="‡" horiz-adv-x="1163" d="M481 1057v436h201v-436h283V864H682V350h283V158H682v-520H481v520H199v192h282v514H199v193h282z"/><glyph glyph-name="bullet" unicode="•" horiz-adv-x="2048" d="M737 696q0 118 84.5 202.5T1024 983t202.5-84.5T1311 696t-84-202-203-84-203 84-84 202z"/><glyph glyph-name="ellipsis" unicode="…" horiz-adv-x="1638" d="M164 98q0 51 36 87t87 36 87-36 36-87-36-87-87-36-87 36-36 87zm532 0q0 51 36 87t87 36 87-36 36-87-36-87-87-36-87 36-36 87zm533 0q0 51 36 87t87 36 87-36 36-87-36-87-87-36-87 36-36 87z"/><glyph glyph-name="perthousand" unicode="‰" horiz-adv-x="2457" d="M397 1378q135 0 232.5-94.5T727 1057q0-131-97-226.5T397 735t-232.5 95.5T68 1057q0 132 97 226.5t232 94.5zm0-495q79 0 124.5 53.5T567 1057t-45.5 120.5T397 1231t-124.5-53.5T227 1057t45.5-120.5T397 883zm-6-846l780 1352 97-56L487-23zm871 592q135 0 232-95t97-227q0-131-96.5-226T1262-14t-233 95-97 226q0 132 97.5 227t232.5 95zm0-496q79 0 124.5 53.5T1432 307t-45.5 120.5T1262 481t-124.5-53.5T1092 307t45.5-120.5T1262 133zm798 496q135 0 232.5-95t97.5-227q0-131-97-226t-233-95-232.5 95-96.5 226q0 132 97 227t232 95zm0-496q79 0 124.5 53.5T2230 307t-45.5 120.5T2060 481t-124.5-53.5T1890 307t45.5-120.5T2060 133z"/><glyph glyph-name="guilsinglleft" unicode="‹" horiz-adv-x="657" d="M287 449l260-338-133-97L82 449l332 434 133-97z"/><glyph glyph-name="guilsinglright" unicode="›" horiz-adv-x="657" d="M371 449L111 786l133 97 331-434L244 14l-133 97z"/><glyph glyph-name="fraction" unicode="⁄" horiz-adv-x="471" d="M-205 35l783 1354 98-58L-106-23z"/><glyph glyph-name="uni2070" unicode="⁰" horiz-adv-x="757" d="M379 532q-115 0-201 91Q66 748 66 956q0 209 112 334 85 90 201 90t201-90q112-125 112-334 0-208-112-333-86-91-201-91zm0 713q-64 0-109-61-57-77-57-228 0-150 57-227 45-61 109-61 63 0 108 61 58 79 58 227 0 149-58 228-45 61-108 61z"/><glyph glyph-name="uni2074" unicode="⁴" horiz-adv-x="757" d="M604 1427V799h88V664h-88V547H457v117H29zM285 799h172v233z"/><glyph glyph-name="uni2075" unicode="⁵" horiz-adv-x="757" d="M612 1366v-135H354l-35-125q12 2 39 2 119 0 195-59 98-78 98-215 0-135-90.5-218.5T328 532q-187 0-287 175l115 79q49-118 174-118 83 0 128.5 45T504 827q0 71-46 114.5T330 985q-98 0-156-70h-55l135 451h358z"/><glyph glyph-name="uni2076" unicode="⁶" horiz-adv-x="757" d="M434 1415l125-88-182-262q12 2 37 2 106 0 184-63t78-189q0-124-82.5-203.5T379 532q-72 0-130 23t-93.5 61-54.5 84.5T82 797q0 111 68 209zm-57-479q-63 0-105.5-37.5T229 801q0-59 43-98t107-39 106.5 39 42.5 98q0 60-42.5 97.5T377 936z"/><glyph glyph-name="uni2077" unicode="⁷" horiz-adv-x="757" d="M70 580l397 651H74v135h651L209 518z"/><glyph glyph-name="uni2078" unicode="⁸" horiz-adv-x="757" d="M379 1380q119 0 188.5-69t69.5-164q0-109-90-174 61-28 86.5-82T659 780q0-114-82-181t-198-67-198.5 67T98 780q0 56 26 110.5t87 82.5q-90 65-90 174 0 95 69.5 164t188.5 69zm0-131q-56 0-87.5-32.5T260 1141q0-41 31-73t88-32q56 0 87.5 31.5T498 1141q0 43-31.5 75.5T379 1249zm0-344q-62 0-97.5-36T246 784q0-48 34.5-84t98.5-36 98.5 36 34.5 84q0 49-35.5 85T379 905z"/><glyph glyph-name="uni2079" unicode="⁹" horiz-adv-x="757" d="M324 498l-125 88 182 262q-12-2-35-2-105 0-184.5 66T82 1096q0 125 82 204.5t215 79.5q141 0 219-78.5t78-185.5q0-113-68-209zm57 479q63 0 105 37.5t42 97.5q0 59-42.5 98T379 1249t-107-39-43-98q0-60 43-97.5T381 977z"/><glyph glyph-name="uni2080" unicode="₀" horiz-adv-x="757" d="M379-14q-116 0-201 90Q66 201 66 410q0 208 112 333 86 91 201 91t201-91q112-125 112-333 0-209-112-334-85-90-201-90zm0 712q-64 0-109-61-57-77-57-227 0-151 57-228 45-61 109-61 63 0 108 61 58 79 58 228 0 148-58 227-45 61-108 61z"/><glyph glyph-name="uni2081" unicode="₁" horiz-adv-x="757" d="M332 0v684H172l86 135h225V0H332z"/><glyph glyph-name="uni2082" unicode="₂" horiz-adv-x="757" d="M643 135V0H49l299 332q69 78 103 127 43 60 43 116t-36 89.5-93 33.5q-67 0-105-44.5T215 549H72q7 119 75 196 80 89 211 89 132 0 207.5-74T641 580q0-75-61-174-40-63-113-144L354 135h289z"/><glyph glyph-name="uni2083" unicode="₃" horiz-adv-x="757" d="M236 586H92q7 85 47 143 29 43 84.5 74T365 834q129 0 194.5-66.5T625 604q0-126-107-172 11-4 22-9.5t30-20.5 33.5-34 25-51 10.5-71q0-109-74.5-184.5T350-14Q156-14 88 145q-19 50-22 99h143q4-43 23.5-70.5t47-37.5 42-12.5T350 121q69 0 105.5 36.5T492 248q0 13-2 25.5T479 304t-23 31-41.5 22.5T350 367h-49v135h49q129 0 129 96 0 49-32 74.5T360 698q-57 0-89-30.5T236 586z"/><glyph glyph-name="uni2084" unicode="₄" horiz-adv-x="757" d="M604 881V252h88V117h-88V0H457v117H29zM285 252h172v233z"/><glyph glyph-name="uni2085" unicode="₅" horiz-adv-x="757" d="M612 819V684H354l-35-125q12 2 39 2 119 0 195-59 98-78 98-215 0-135-90.5-218T328-14Q141-14 41 160l115 80q49-119 174-119 83 0 128.5 45.5T504 281q0 70-46 113.5T330 438q-99 0-156-69h-55l135 450h358z"/><glyph glyph-name="uni2086" unicode="₆" horiz-adv-x="757" d="M434 868l125-88-182-262q12 2 37 2 106 0 184-63t78-189q0-124-82-203T379-14q-141 0-219 78.5T82 250q0 111 68 209zm-57-479q-63 0-105.5-37.5T229 254q0-59 43-98t107-39 106.5 39 42.5 98q0 60-42.5 97.5T377 389z"/><glyph glyph-name="uni2087" unicode="₇" horiz-adv-x="757" d="M70 33l397 651H74v135h651L209-29z"/><glyph glyph-name="uni2088" unicode="₈" horiz-adv-x="757" d="M379 834q119 0 188.5-69.5T637 600q0-109-90-174 61-28 86.5-82T659 233q0-114-82-180.5T379-14 180.5 52.5 98 233q0 56 26 110.5t87 82.5q-90 65-90 174 0 95 69.5 164.5T379 834zm0-132q-56 0-87.5-32.5T260 594q0-41 31-73t88-32q56 0 87.5 31.5T498 594q0 43-31.5 75.5T379 702zm0-344q-63 0-98-35.5T246 238q0-48 34.5-84.5T379 117t98.5 36.5T512 238q0 49-35 84.5T379 358z"/><glyph glyph-name="uni2089" unicode="₉" horiz-adv-x="757" d="M324-49L199 39l182 262q-12-2-35-2-105 0-184.5 66T82 549q0 125 82 205t215 80q72 0 130-23t93.5-61 54.5-84.5 19-96.5q0-113-68-209zm57 479q63 0 105 37.5t42 97.5q0 59-42.5 98T379 702t-107-39-43-98q0-60 43-97.5T381 430z"/><glyph glyph-name="Euro" unicode="€" horiz-adv-x="1163" d="M1110 1313l-88-183q-100 68-242 68-161 0-277-74.5T342 913h596l-61-143H313q-10-80-2-152h506l-61-143H332q35-144 153.5-226.5T762 166q178 0 328 117V59Q922-27 756-27q-135 0-258 41.5T287 141Q149 273 119 475H-20l61 143h61q-8 72 2 152H-20l61 143h84q45 176 168 299 181 179 493 179 189 0 324-78z"/><glyph glyph-name="uni20B4" unicode="₴" horiz-adv-x="1163" d="M164 1161q71 97 170 156 119 74 272 74 156 0 246-74 90-72 90-184 0-117-96-218h227V772H737L590 621h483V477H465q-41-36-62.5-83T381 307q0-59 45-100 48-41 139-41 113 0 191 63 69 56 96 127l174-82Q981 160 879 80 805 21 728-3T549-27q-159 0-254 68-55 38-89 98t-34 135q0 112 80 203H82v144h283l147 151H82v143h551q38 28 69 70.5t31 93.5q0 55-33 84-37 35-112 35-79 0-150-41-69-41-106-94z"/><glyph glyph-name="uni20B6" unicode="₶" horiz-adv-x="1163" d="M575 1366q189 0 299-74 83-54 126.5-142t43.5-177q0-79-29-155t-79-126Q811 567 578 567h-95V416h324V272H483V0H274v272H125v144h149v151H125v181h149v618h301zm-92-192V748h95q144 0 213 69 53 53 53 146 0 89-58 147-40 39-91 51.5T575 1174h-92z"/><glyph glyph-name="uni20B6" unicode="⃏" horiz-adv-x="1163" d="M575 1366q189 0 299-74 83-54 126.5-142t43.5-177q0-79-29-155t-79-126Q811 567 578 567h-95V416h324V272H483V0H274v272H125v144h149v151H125v181h149v618h301zm-92-192V748h95q144 0 213 69 53 53 53 146 0 89-58 147-40 39-91 51.5T575 1174h-92z"/><glyph glyph-name="uni20B6" unicode="⃎" horiz-adv-x="1163" d="M575 1366q189 0 299-74 83-54 126.5-142t43.5-177q0-79-29-155t-79-126Q811 567 578 567h-95V416h324V272H483V0H274v272H125v144h149v151H125v181h149v618h301zm-92-192V748h95q144 0 213 69 53 53 53 146 0 89-58 147-40 39-91 51.5T575 1174h-92z"/><glyph glyph-name="uni20B6" unicode="⃍" horiz-adv-x="1163" d="M575 1366q189 0 299-74 83-54 126.5-142t43.5-177q0-79-29-155t-79-126Q811 567 578 567h-95V416h324V272H483V0H274v272H125v144h149v151H125v181h149v618h301zm-92-192V748h95q144 0 213 69 53 53 53 146 0 89-58 147-40 39-91 51.5T575 1174h-92z"/><glyph glyph-name="uni20B6" unicode="⃌" horiz-adv-x="1163" d="M575 1366q189 0 299-74 83-54 126.5-142t43.5-177q0-79-29-155t-79-126Q811 567 578 567h-95V416h324V272H483V0H274v272H125v144h149v151H125v181h149v618h301zm-92-192V748h95q144 0 213 69 53 53 53 146 0 89-58 147-40 39-91 51.5T575 1174h-92z"/><glyph glyph-name="uni20B6" unicode="⃋" horiz-adv-x="1163" d="M575 1366q189 0 299-74 83-54 126.5-142t43.5-177q0-79-29-155t-79-126Q811 567 578 567h-95V416h324V272H483V0H274v272H125v144h149v151H125v181h149v618h301zm-92-192V748h95q144 0 213 69 53 53 53 146 0 89-58 147-40 39-91 51.5T575 1174h-92z"/><glyph glyph-name="uni20B6" unicode="⃊" horiz-adv-x="1163" d="M575 1366q189 0 299-74 83-54 126.5-142t43.5-177q0-79-29-155t-79-126Q811 567 578 567h-95V416h324V272H483V0H274v272H125v144h149v151H125v181h149v618h301zm-92-192V748h95q144 0 213 69 53 53 53 146 0 89-58 147-40 39-91 51.5T575 1174h-92z"/><glyph glyph-name="uni20B6" unicode="⃉" horiz-adv-x="1163" d="M575 1366q189 0 299-74 83-54 126.5-142t43.5-177q0-79-29-155t-79-126Q811 567 578 567h-95V416h324V272H483V0H274v272H125v144h149v151H125v181h149v618h301zm-92-192V748h95q144 0 213 69 53 53 53 146 0 89-58 147-40 39-91 51.5T575 1174h-92z"/><glyph glyph-name="uni20B6" unicode="⃈" horiz-adv-x="1163" d="M575 1366q189 0 299-74 83-54 126.5-142t43.5-177q0-79-29-155t-79-126Q811 567 578 567h-95V416h324V272H483V0H274v272H125v144h149v151H125v181h149v618h301zm-92-192V748h95q144 0 213 69 53 53 53 146 0 89-58 147-40 39-91 51.5T575 1174h-92z"/><glyph glyph-name="uni20B6" unicode="⃇" horiz-adv-x="1163" d="M575 1366q189 0 299-74 83-54 126.5-142t43.5-177q0-79-29-155t-79-126Q811 567 578 567h-95V416h324V272H483V0H274v272H125v144h149v151H125v181h149v618h301zm-92-192V748h95q144 0 213 69 53 53 53 146 0 89-58 147-40 39-91 51.5T575 1174h-92z"/><glyph glyph-name="uni20B6" unicode="⃆" horiz-adv-x="1163" d="M575 1366q189 0 299-74 83-54 126.5-142t43.5-177q0-79-29-155t-79-126Q811 567 578 567h-95V416h324V272H483V0H274v272H125v144h149v151H125v181h149v618h301zm-92-192V748h95q144 0 213 69 53 53 53 146 0 89-58 147-40 39-91 51.5T575 1174h-92z"/><glyph glyph-name="uni20B6" unicode="⃅" horiz-adv-x="1163" d="M575 1366q189 0 299-74 83-54 126.5-142t43.5-177q0-79-29-155t-79-126Q811 567 578 567h-95V416h324V272H483V0H274v272H125v144h149v151H125v181h149v618h301zm-92-192V748h95q144 0 213 69 53 53 53 146 0 89-58 147-40 39-91 51.5T575 1174h-92z"/><glyph glyph-name="uni20B6" unicode="⃄" horiz-adv-x="1163" d="M575 1366q189 0 299-74 83-54 126.5-142t43.5-177q0-79-29-155t-79-126Q811 567 578 567h-95V416h324V272H483V0H274v272H125v144h149v151H125v181h149v618h301zm-92-192V748h95q144 0 213 69 53 53 53 146 0 89-58 147-40 39-91 51.5T575 1174h-92z"/><glyph glyph-name="uni20B6" unicode="⃃" horiz-adv-x="1163" d="M575 1366q189 0 299-74 83-54 126.5-142t43.5-177q0-79-29-155t-79-126Q811 567 578 567h-95V416h324V272H483V0H274v272H125v144h149v151H125v181h149v618h301zm-92-192V748h95q144 0 213 69 53 53 53 146 0 89-58 147-40 39-91 51.5T575 1174h-92z"/><glyph glyph-name="uni20B6" unicode="⃂" horiz-adv-x="1163" d="M575 1366q189 0 299-74 83-54 126.5-142t43.5-177q0-79-29-155t-79-126Q811 567 578 567h-95V416h324V272H483V0H274v272H125v144h149v151H125v181h149v618h301zm-92-192V748h95q144 0 213 69 53 53 53 146 0 89-58 147-40 39-91 51.5T575 1174h-92z"/><glyph glyph-name="uni20B6" unicode="⃁" horiz-adv-x="1163" d="M575 1366q189 0 299-74 83-54 126.5-142t43.5-177q0-79-29-155t-79-126Q811 567 578 567h-95V416h324V272H483V0H274v272H125v144h149v151H125v181h149v618h301zm-92-192V748h95q144 0 213 69 53 53 53 146 0 89-58 147-40 39-91 51.5T575 1174h-92z"/><glyph glyph-name="uni20B6" unicode="⃀" horiz-adv-x="1163" d="M575 1366q189 0 299-74 83-54 126.5-142t43.5-177q0-79-29-155t-79-126Q811 567 578 567h-95V416h324V272H483V0H274v272H125v144h149v151H125v181h149v618h301zm-92-192V748h95q144 0 213 69 53 53 53 146 0 89-58 147-40 39-91 51.5T575 1174h-92z"/><glyph glyph-name="uni20B6" unicode="₿" horiz-adv-x="1163" d="M575 1366q189 0 299-74 83-54 126.5-142t43.5-177q0-79-29-155t-79-126Q811 567 578 567h-95V416h324V272H483V0H274v272H125v144h149v151H125v181h149v618h301zm-92-192V748h95q144 0 213 69 53 53 53 146 0 89-58 147-40 39-91 51.5T575 1174h-92z"/><glyph glyph-name="uni20B6" unicode="₾" horiz-adv-x="1163" d="M575 1366q189 0 299-74 83-54 126.5-142t43.5-177q0-79-29-155t-79-126Q811 567 578 567h-95V416h324V272H483V0H274v272H125v144h149v151H125v181h149v618h301zm-92-192V748h95q144 0 213 69 53 53 53 146 0 89-58 147-40 39-91 51.5T575 1174h-92z"/><glyph glyph-name="uni20B6" unicode="₽" horiz-adv-x="1163" d="M575 1366q189 0 299-74 83-54 126.5-142t43.5-177q0-79-29-155t-79-126Q811 567 578 567h-95V416h324V272H483V0H274v272H125v144h149v151H125v181h149v618h301zm-92-192V748h95q144 0 213 69 53 53 53 146 0 89-58 147-40 39-91 51.5T575 1174h-92z"/><glyph glyph-name="uni20B6" unicode="₼" horiz-adv-x="1163" d="M575 1366q189 0 299-74 83-54 126.5-142t43.5-177q0-79-29-155t-79-126Q811 567 578 567h-95V416h324V272H483V0H274v272H125v144h149v151H125v181h149v618h301zm-92-192V748h95q144 0 213 69 53 53 53 146 0 89-58 147-40 39-91 51.5T575 1174h-92z"/><glyph glyph-name="uni20B6" unicode="₻" horiz-adv-x="1163" d="M575 1366q189 0 299-74 83-54 126.5-142t43.5-177q0-79-29-155t-79-126Q811 567 578 567h-95V416h324V272H483V0H274v272H125v144h149v151H125v181h149v618h301zm-92-192V748h95q144 0 213 69 53 53 53 146 0 89-58 147-40 39-91 51.5T575 1174h-92z"/><glyph glyph-name="uni20B6" unicode="₺" horiz-adv-x="1163" d="M575 1366q189 0 299-74 83-54 126.5-142t43.5-177q0-79-29-155t-79-126Q811 567 578 567h-95V416h324V272H483V0H274v272H125v144h149v151H125v181h149v618h301zm-92-192V748h95q144 0 213 69 53 53 53 146 0 89-58 147-40 39-91 51.5T575 1174h-92z"/><glyph glyph-name="uni20B6" unicode="₹" horiz-adv-x="1163" d="M575 1366q189 0 299-74 83-54 126.5-142t43.5-177q0-79-29-155t-79-126Q811 567 578 567h-95V416h324V272H483V0H274v272H125v144h149v151H125v181h149v618h301zm-92-192V748h95q144 0 213 69 53 53 53 146 0 89-58 147-40 39-91 51.5T575 1174h-92z"/><glyph glyph-name="uni20B6" unicode="₷" horiz-adv-x="1163" d="M575 1366q189 0 299-74 83-54 126.5-142t43.5-177q0-79-29-155t-79-126Q811 567 578 567h-95V416h324V272H483V0H274v272H125v144h149v151H125v181h149v618h301zm-92-192V748h95q144 0 213 69 53 53 53 146 0 89-58 147-40 39-91 51.5T575 1174h-92z"/><glyph glyph-name="uni20B8" unicode="₸" horiz-adv-x="1163" d="M999 903H686V0H477v903H164v197h835V903zm0 287H164v176h835v-176z"/><glyph glyph-name="afii61352" unicode="№" horiz-adv-x="2170" d="M373 0H164v1458l909-989v897h209V-84L373 905V0zm1382 1366q135 0 232.5-95t97.5-227q0-131-97-226t-233-95-233 95-97 226q0 132 97.5 227t232.5 95zm0-496q79 0 124.5 53.5T1925 1044t-45.5 121-124.5 54-124.5-54-45.5-121 45.5-120.5T1755 870zm-289-454v164h578V416h-578z"/><glyph glyph-name="uni2117" unicode="℗" horiz-adv-x="1552" d="M561 1079h223q128 0 193-63 61-58 61-164 0-104-57-164-40-43-96.5-57.5T752 616h-45V313H561v766zm146-129V737h28q83 0 123 31 37 27 37 84 0 52-39 80-27 18-100 18h-49zm69 340q-250 0-422-172T182 682t172-436T776 74t422 172 172 436-172 436-422 172zm709-608q0-154-54-285.5T1284 172q-92-92-221.5-146.5T776-29 489.5 25.5 268 172q-93 93-146.5 224T68 682t53.5 286T268 1192q92 92 221.5 146.5T776 1393t286.5-54.5T1284 1192q93-93 147-224.5t54-285.5z"/><glyph glyph-name="trademark" unicode="™" horiz-adv-x="1454" d="M487 1231H315V588H172v643H0v135h487v-135zm191-643H532l168 848 258-574 261 574 165-848h-145l-72 422-209-437-208 437z"/><glyph glyph-name="partialdiff" unicode="∂" horiz-adv-x="1085" d="M197 1200l36 178q254-29 437-155 159-110 241-277 93-184 93-434 0-278-136-418Q747-27 547-27q-206 0-332 129Q82 238 82 430q0 205 131 336 119 119 291 119 160 0 268-97-55 198-233 304-157 94-342 108zM543 154q115 0 176 61 36 34 58 92t22 121q0 138-82 213-71 64-174 64-107 0-174-64-82-82-82-213 0-141 82-215 66-59 174-59z"/><glyph glyph-name="product" unicode="∏" horiz-adv-x="1462" d="M78 1339v197h1306v-197h-163V-315h163v-197H846v197h166v1654H453V-315h163v-197H78v197h166v1654H78z"/><glyph glyph-name="summation" unicode="∑" horiz-adv-x="1433" d="M66 1536h1224v-502h-192v305H352l451-782-451-872h762v301h193v-498H66v94l516 975-516 885v94z"/><glyph glyph-name="minus" unicode="−" d="M68 596v184h888V596H68z"/><glyph glyph-name="uni2215" unicode="∕" horiz-adv-x="1400" d="M0-362l1077 1929 164-74L164-436z"/><glyph glyph-name="uni2219" unicode="∙" horiz-adv-x="409" d="M45 696q0 68 46.5 114T205 856t113.5-46T365 696q0-67-46-113t-114-46-114 46-46 113z"/><glyph glyph-name="radical" unicode="√" horiz-adv-x="1368" d="M807 1694h561v-181H979L584 0H326L180 586H0v180h344l102-514h17z"/><glyph glyph-name="infinity" unicode="∞" horiz-adv-x="1372" d="M686 563q-22-31-48.5-58.5t-68.5-60-98-52T354 373q-139 0-228 90T37 694q0 145 89 235.5t230 90.5q103 0 188.5-54T686 829q56 83 141.5 137t188.5 54q141 0 230-90.5t89-235.5q0-141-89-231t-228-90q-61 0-117 19.5t-98 52-68.5 60T686 563zm301 277q-56 0-110.5-42.5T786 696q35-62 90-102.5T987 553q63 0 104.5 40.5T1133 696q0 60-43 102t-103 42zM385 553q56 0 111 40.5T586 696q-36 59-90.5 101.5T385 840q-60 0-102.5-42T240 696q0-62 41-102.5T385 553z"/><glyph glyph-name="integral" unicode="∫" d="M154-489l36 176q48-27 109-27 53 0 82 31 14 15 20.5 43t7.5 54 1 81v1322.5l1.5 51 5.5 57.5 11.5 47.5 19.5 52 29 42.5q38 45 101 69.5t139 24.5q80 0 153-23l-36-176q-48 27-109 27-53 0-82-31-14-15-20.5-43t-7.5-54-1-81V-167.5l-1.5-51L607-276l-11.5-47.5-19.5-52-29-42.5q-38-45-101-69.5T307-512q-80 0-153 23z"/><glyph glyph-name="approxequal" unicode="≈" d="M891 1034l117-67q-56-128-136-191-73-57-170-57-50 0-95 13.5T473 784q-127 54-178 54-64 0-105-45-35-35-59-93L16 774q40 100 103 170 76 86 188 86 78 0 225-63 3-2 28-12.5t32.5-14 29-11.5 34.5-11 31.5-6 35.5-3q57 0 100 37t68 88zm0-372l117-68q-56-128-136-191-73-57-170-57-50 0-94 13.5T473 412q-124 53-178 53-64 0-105-45-35-35-59-92L16 401q40 100 103 170 76 86 188 86 78 0 225-63 2-1 24-10.5t27.5-12 24.5-10 29-10 26.5-7 30.5-6 29-1.5q59 0 100 36 42 36 68 89z"/><glyph glyph-name="notequal" unicode="≠" d="M68 778v172h487l107 226h159L715 950h241V778H633l-76-160h399V446H475L362 209H203l112 237H68v172h329l76 160H68z"/><glyph glyph-name="lessequal" unicode="≤" d="M281 801l675-305V307L68 717v168l888 409v-188zM956 66H68v184h888V66z"/><glyph glyph-name="greaterequal" unicode="≥" d="M743 801L68 1106v188l888-409V717L68 307v189zM956 66H68v184h888V66z"/><glyph glyph-name="dotmath" unicode="⋅" horiz-adv-x="409" d="M45 696q0 68 46.5 114T205 856t113.5-46T365 696q0-67-46-113t-114-46-114 46-46 113z"/><glyph glyph-name="lozenge" unicode="◊" horiz-adv-x="1433" d="M184 684l533 737 532-737L717-53zm832 0l-299 414-299-414 299-414z"/><glyph glyph-name="openbullet" unicode="◦" d="M213 1069q0 125 86 211t213 86 213-86 86-211-86-211-213-86-213 86-86 211zm127 0q0-76 50-127t122-51 122 51 50 127-50 127-122 51-122-51-50-127z"/><glyph glyph-name="uniF400" unicode="" horiz-adv-x="4" d="M-354 1382l184-94-319-295-111 70z"/><glyph glyph-name="uniF401" unicode="" horiz-adv-x="4" d="M-643 1489l-98 82 282 284 176-122z"/><glyph glyph-name="uniF406" unicode="" d="M692 1790h168q-19-100-82-176-39-47-105.5-83T512 1495t-160.5 36-105.5 83q-63 76-82 176h168q19-68 69-100 45-31 111-31t111 31q50 32 69 100z"/><glyph glyph-name="uniF407" unicode="" d="M594-109l176-77-229-273-131 66z"/><glyph glyph-name="uniF408" unicode="" d="M512 1663l-203-168-135 115 338 274 338-274-135-115z"/><glyph glyph-name="uniF409" unicode="" d="M348-496l148 394 180-70-184-381z"/><glyph glyph-name="uniF40A" unicode="" d="M307 958l168 435 180-70-213-422z"/><glyph glyph-name="uniF40B" unicode="" d="M375 1640q0 59 39.5 98.5T512 1778t97.5-39.5T649 1640q0-58-39.5-97.5T512 1503t-97.5 39.5T375 1640z"/><glyph glyph-name="uniF40C" unicode="" d="M313 1686q0 83 59 140.5t140 57.5q83 0 141-57.5t58-140.5q0-81-57.5-140T512 1487q-82 0-140.5 58.5T313 1686zm111 0q0-37 25.5-63t62.5-26 62.5 26 25.5 63-25.5 62.5T512 1774t-62.5-25.5T424 1686z"/><glyph glyph-name="uniF40D" unicode="" d="M762 1767l119-94q-84-172-238-172-54 0-113 27-20 9-35 17t-21 11-13.5 6-16.5 7q-52 18-75 18-73 0-105-86l-121 84q37 67 86 111 64 55 144 55 44 0 100-18 67-29 94-43 60-29 84-29 36 0 66.5 27t44.5 79z"/><glyph glyph-name="uniF40E" unicode="" d="M504 0h160q-66-36-105-80-43-46-43-92 0-64 82-64 47 0 107 15l-19-144q-64-30-135-30-83 0-143 49t-60 131q0 71 53 131 37 43 103 84z"/><glyph glyph-name="uniF4C6" unicode="" horiz-adv-x="1241" d="M123 1366h209V993q0-31 1.5-51t7.5-53 22.5-60 42.5-47q55-43 217-43 106 0 245 15v612h209V-176q0-169-90-240-67-55-192-55-75 0-136 18v189q51-19 97-19 66 0 94 45 18 31 18 123v676q-187-14-278-14-228 0-334 84-133 105-133 332v403z"/><glyph glyph-name="uniF4C7" unicode="" horiz-adv-x="921" d="M594 862h201V-176q0-76-17.5-137T705-416q-70-55-185-55-87 0-135 18v181q49-19 96-19 66 0 94 45 19 33 19 123v457q-97-19-176-19-147 0-228 64-37 29-57 70.5t-23.5 70T106 586v276h201V627q0-88 51-119 36-21 101-21 71 0 135 23v352z"/><glyph glyph-name="uniF4CC" unicode="" horiz-adv-x="1167" d="M12 1366h254l352-729 320 729h217L539 0H322l176 387zm545 123l-98 82 282 284 177-122z"/><glyph glyph-name="uniF4CD" unicode="" horiz-adv-x="987" d="M63-469l318 604L12 862h242l246-504 250 504h225L289-469H63zm584 1851l184-94-319-295-111 70z"/><glyph glyph-name="dollar.fitted" unicode="" horiz-adv-x="931" d="M864 1161l-168-98q-19 50-61 86-57 49-148 49-96 0-151-55-41-41-41-105 0-69 53-114 44-38 129-70l103-41q73-30 129-62.5t98-80.5q94-105 94-258 0-185-119-312Q688 1 557-18v-207H406v200Q248-12 139 111 38 223 25 377l206 45q0-98 58-174 65-82 178-82 100 0 162 65 63 63 63 164 0 88-59 150-11 11-23 21t-20.5 16-23.5 14-21 11-25 11.5-24 10.5l-131 55q-49 22-104.5 57T172 809q-86 90-86 209 0 163 104 264 87 83 216 102v183h151v-181q99-8 178-67 83-64 129-158z"/><glyph glyph-name="Euro.fitted" unicode="" horiz-adv-x="1224" d="M1163 1313l-88-183q-100 68-241 68-161 0-277.5-74.5T395 913h596l-61-143H367q-10-80-2-152h505l-61-143H385q35-144 153.5-226.5T815 166q178 0 328 117V59Q975-27 809-27q-135 0-258 41.5T340 141Q202 273 172 475H33l61 143h62q-8 72 2 152H33l61 143h84q45 176 168 299 181 179 494 179 188 0 323-78z"/><glyph glyph-name="cent.fitted" unicode="" horiz-adv-x="772" d="M735 1079V856q-98 105-250 105-108 0-178-70-39-37-59.5-92T227 686q0-130 78-205 33-32 83.5-51.5T494 410q143 0 241 110V297q-90-60-192-66V27H391v211q-147 23-246 122Q23 482 23 684q0 210 139 340 100 94 229 111v206h152v-202q100-8 192-60z"/><glyph glyph-name="sterling.fitted" unicode="" horiz-adv-x="1146" d="M1049 909H848v9q0 62-18 120.5t-54 94.5q-63 63-164 63-110 0-176-63-67-67-67-166 0-93 104-291h266V528H532q25-75 25-133 0-68-29-133l109-39q8-3 34-12t42-14 39-10 41-5q55 0 90 40t51 89l168-98q-47-96-105-154-77-77-198-77-19 0-38.5 1.5T721-11l-35 7-34.5 9.5L622 15l-29.5 10-23.5 8Q416 90 362 90q-41 0-79.5-28T223-31L45 59q24 53 62 101t81 78q61 41 129 45 31 64 31 127 0 70-31 118H84v148h160q-84 177-84 289 0 179 116 295 133 129 338 129 195 0 310-115 125-125 125-354v-11z"/><glyph glyph-name="yen.fitted" unicode="" horiz-adv-x="1110" d="M1044 772H752l-84-151h376V477H651V0H459v477H66v144h376l-84 151H66v143h213L31 1366h225l299-547 299 547h225L831 915h213V772z"/><glyph glyph-name="florin.fitted" unicode="" d="M1012 1497l-37-190q-44 20-90 20-65 0-105-43-37-42-57-151l-49-271h229l-29-160H645L541 131q-15-76-22.5-111T493-75.5 450.5-178 393-252q-61-59-160.5-88T12-360l33 190h12q130 0 185 55 26 25 45 70.5T313.5 35t18.5 94l104 573H262l29 160h174l53 295q32 183 119 270 89 89 235 89 72 0 140-19z"/><glyph glyph-name="uni20B4.fitted" unicode="" horiz-adv-x="1071" d="M123 1161q71 97 170 156 119 74 272 74 156 0 246-74 90-72 90-184 0-117-96-218h227V772H696L549 621h483V477H424q-41-36-62.5-83T340 307q0-59 45-100 48-41 139-41 113 0 191 63 69 56 96 127l174-82Q940 160 838 80 764 21 687-3T508-27q-159 0-254 68-55 38-89 98t-34 135q0 112 80 203H41v144h283l147 151H41v143h551q38 28 69 70.5t31 93.5q0 55-33 84-37 35-112 35-79 0-150-41-69-41-106-94z"/><glyph glyph-name="uni20B6.fitted" unicode="" horiz-adv-x="983" d="M492 1366q189 0 299-74 83-54 126.5-142T961 973q0-79-29-154.5T852 692Q727 567 494 567h-95V416h324V272H399V0H190v272H41v144h149v151H41v181h149v618h302zm-93-192V748h95q144 0 213 69 53 53 53 146 0 89-58 147-40 39-90.5 51.5T492 1174h-93z"/><glyph glyph-name="uni20B8.fitted" unicode="" horiz-adv-x="884" d="M860 903H547V0H338v903H25v197h835V903zm0 287H25v176h835v-176z"/><glyph glyph-name="uniF639" unicode="" horiz-adv-x="1069" d="M535-23q-180 0-310 148Q51 325 51 682q0 359 174 559 130 148 310 148 179 0 309-148 174-200 174-559 0-357-174-557Q714-23 535-23zm0 1227q-112 0-185-112-94-140-94-408t94-410q73-112 185-112 111 0 184 112 94 142 94 410t-94 408q-73 112-184 112z"/><glyph glyph-name="uniF63A" unicode="" horiz-adv-x="1015" d="M961 193V0H43l473 573q108 132 164 213 72 105 72 197t-60 156.5-168 64.5q-109 0-172-72t-69-176H82q4 92 37 170.5t78 128.5q119 134 319 134 106 0 191-34t138.5-92 82-131.5T956 977q0-141-98-287-56-84-194-246L451 193h510z"/><glyph glyph-name="uniF63B" unicode="" horiz-adv-x="966" d="M283 1018H82q9 161 117 266 110 105 299 105 187 0 295-113 98-101 98-260 0-103-47-180-48-77-123-115 85-33 135-109 57-83 57-211 0-189-116-305Q678-23 463-23 266-23 158 92q-46 50-78 125.5T41 371h201q15-94 73-148 66-61 166-61 96 0 160 57 72 68 72 193 0 101-62 161-64 62-176 62h-41v176h29q115 0 174 59 53 53 53 146 0 84-53 137-53 51-145 51-99 0-152-55-21-22-35-54t-18-50.5-4-26.5z"/><glyph glyph-name="uniF63C" unicode="" horiz-adv-x="1069" d="M879 1466V451h147V258H879V0H678v258H2zM367 446h311v441z"/><glyph glyph-name="uniF63D" unicode="" d="M948 1366v-192H526l-67-228q40 4 63 4 89 0 172-30.5T838 829q133-127 133-350 0-222-140-362Q687-23 453-23q-156 0-263 62Q93 97 29 197l157 131q3-8 14.5-26t37-46.5T291 209q68-47 178-47 128 0 209 76 88 88 88 231t-82 221q-82 76-223 76-80 0-160-29-71-26-121-61l203 690h565z"/><glyph glyph-name="uniF63E" unicode="" horiz-adv-x="1028" d="M641 1413l152-113-326-411q41 8 86 8 192 0 315-127 56-59 88.5-143T989 451q0-95-34.5-187.5T854 106Q723-23 502-23q-224 0-352 134Q31 237 31 420q0 135 65 262 15 29 30 55t34 53.5 30.5 43T227 881t35 45zM512 719q-53 0-107-20.5T315 643q-35-34-57-87.5T236 440q0-55 20.5-110t58.5-92q33-32 88.5-54T512 162q50 0 103 19.5t90 56.5 58 92.5T784 440t-21 110-58 93q-35 35-87.5 55.5T512 719z"/><glyph glyph-name="uniF63F" unicode="" horiz-adv-x="1083" d="M55 55l680 1119H63v192h1016L219-47z"/><glyph glyph-name="uniF640" unicode="" horiz-adv-x="962" d="M481 621q-98 0-162-64-30-30-46.5-75T256 391q0-93 61-160 61-69 164-69t164 69q62 68 62 160 0 45-17 90.5T643 557q-64 64-162 64zm0 583q-91 0-149-55-58-58-58-152 0-87 56-143 27-29 68.5-45t82.5-16 83 16.5 69 44.5q55 55 55 143 0 95-57 152-58 55-150 55zm226-493q91-39 143-111 61-81 61-205 0-179-108-291Q685-23 481-23q-203 0-321 127Q51 217 51 395q0 122 62 205 52 72 143 111-74 32-121 102-49 77-49 186 0 173 115 285 110 105 280 105 171 0 281-105 115-112 115-285 0-107-50-186-47-70-120-102z"/><glyph glyph-name="uniF641" unicode="" horiz-adv-x="1026" d="M387-47L236 66l321 411q-36-8-74-8-192 0-319 127Q39 721 39 907q0 100 36 188.5t99 153.5q137 140 352 140 222 0 353-136 118-122 118-309 0-133-65-260-15-29-30-55t-34-53.5-30.5-43T801 485t-35-45zm129 694q118 0 197 82 38 39 59 93.5T793 932q0 117-80 194-38 37-90 57.5T518 1204q-55 0-106.5-22t-87.5-56q-80-80-80-200 0-123 80-203 80-76 192-76z"/><glyph glyph-name="uniF6BA" unicode="" horiz-adv-x="696" d="M102 590v209h492V590H102z"/><glyph glyph-name="uniF6BB" unicode="" horiz-adv-x="1269" d="M143 602v184h983V602H143z"/><glyph glyph-name="uniF6BC" unicode="" horiz-adv-x="1720" d="M143 602v184h1434V602H143z"/><glyph glyph-name="uniF6C3" unicode="" d="M348-496l148 394 180-70-184-381z"/><glyph glyph-name="uniF6C9" unicode="" d="M479 1489l-98 82 283 284 176-122z"/><glyph glyph-name="uniF6CA" unicode="" d="M512 1716l203 168 135-115-338-274-338 274 135 115z"/><glyph glyph-name="uniF6CB" unicode="" d="M184 1628q0 54 36.5 90.5T311 1755t90.5-36.5T438 1628t-36.5-90.5T311 1501t-90.5 36.5T184 1628zm402 0q0 54 36.5 90.5T713 1755t90.5-36.5T840 1628t-36.5-90.5T713 1501t-90.5 36.5T586 1628z"/><glyph glyph-name="uniF6CE" unicode="" d="M545 1489l-361 244 176 122 283-284z"/><glyph glyph-name="uniF6CF" unicode="" d="M475 1855l160-106-320-260-90 74zm410 0l159-106-319-260-90 74z"/><glyph glyph-name="uniF6D0" unicode="" d="M143 1501v164h738v-164H143z"/><glyph glyph-name="uniF6D1" unicode="" d="M174 1704l164 74q11-39 37-65t57.5-35.5 48.5-12 31-2.5 31 2.5 48.5 12T649 1713t37 65l164-74q-25-60-66.5-103.5t-90-65-93-31-88.5-9.5-88.5 9.5-93 31-90 65T174 1704z"/><glyph glyph-name="uniF6D4" unicode="" d="M180 1235l164 47q39-133 168-133 66 0 106 32t62 101l164-47q-22-80-81-137t-123.5-81T512 993t-127.5 24-123.5 81-81 137z"/><glyph glyph-name="uniF6DC" unicode="" horiz-adv-x="530" d="M248 0v1174H10l115 192h332V0H248z"/><glyph glyph-name="uniF6DE" unicode="" horiz-adv-x="1290" d="M106 344v184h1076V344H106z"/><glyph glyph-name="nbspace" horiz-adv-x="477"/><glyph glyph-name="hyphenminus" horiz-adv-x="696" d="M102 332v209h492V332H102z"/><glyph glyph-name="dotlessi1" horiz-adv-x="454" d="M127 862h201V0H127v862z"/></font>
</defs>
</svg>
