<?xml version="1.0" standalone="no"?>
<!DOCTYPE svg PUBLIC "-//W3C//DTD SVG 1.1//EN" "http://www.w3.org/Graphics/SVG/1.1/DTD/svg11.dtd" >
<svg xmlns="http://www.w3.org/2000/svg" xmlns:xlink="http://www.w3.org/1999/xlink" version="1.1">
<metadata>
Created by FontForge 20201107 at Mon Oct 14 14:32:00 2024
 By 
Copyright (c) 1995 ParaGraph Intl., (c) 1998 ParaType Inc., ParaType Ltd. All rights reserved.
</metadata>
<defs>
<font id="FuturaPT-Light" horiz-adv-x="1024" >
  <font-face 
    font-family="Futura PT Light"
    font-weight="300"
    font-stretch="normal"
    units-per-em="2048"
    panose-1="2 11 4 2 2 2 4 2 3 3"
    ascent="1563"
    descent="-485"
    x-height="836"
    cap-height="1366"
    bbox="-610 -512 2085 1843"
    underline-thickness="102"
    underline-position="-204"
    unicode-range="U+0020-FB02"
  />
<missing-glyph horiz-adv-x="477" 
 />
    <glyph glyph-name="afii10017.var.accented" unicode="&#x410;`" horiz-adv-x="1200" 
d="M1073 0l-182 449h-582l-182 -449h-98l575 1407l567 -1407h-98zM342 530h516l-256 648zM735 1749l103 -51l-275 -258l-65 37z" />
    <glyph glyph-name="afii10022.var.accented" unicode="&#x415;`" horiz-adv-x="950" 
d="M840 1366v-82h-566v-496h553v-81h-553v-625h566v-82h-656v1366h656zM610 1749l103 -51l-275 -258l-65 37z" />
    <glyph glyph-name="afii10026.var.accented" unicode="&#x418;`" horiz-adv-x="1433" 
d="M1159 0v1139l-975 -1174v1401h90v-1159l975 1173v-1380h-90zM852 1749l102 -51l-274 -258l-66 37z" />
    <glyph glyph-name="afii10032.var.accented" unicode="&#x41e;`" horiz-adv-x="1638" 
d="M819 1384q196 0 359 -93.5t256.5 -255t93.5 -355.5q0 -145 -55 -275t-149.5 -224t-226 -149t-278.5 -55t-278.5 55t-225.5 149t-149 224t-55 275t55 275.5t149 224.5t225.5 149t278.5 55zM819 59q130 0 244.5 48.5t195.5 131.5t128 197.5t47 243.5q0 173 -79.5 315.5
t-221 225t-314.5 82.5t-314 -82.5t-220.5 -225t-79.5 -315.5q0 -172 79.5 -314t220.5 -224.5t314 -82.5zM954 1749l103 -51l-275 -258l-65 37z" />
    <glyph glyph-name="afii10037.var.accented" unicode="&#x423;`" horiz-adv-x="1126" 
d="M29 1366h102l473 -885l400 885h94l-625 -1366h-94l174 381zM698 1749l103 -51l-275 -258l-65 37z" />
    <glyph glyph-name="afii10045.var.accented" unicode="&#x42b;`" horiz-adv-x="1413" 
d="M184 0v1366h90v-588h238q41 0 78.5 -2.5t87 -12t90 -25t82 -44.5t69.5 -67t46 -95.5t18 -128.5q0 -63 -15 -120.5t-49 -109.5t-84.5 -90t-125.5 -60.5t-168 -22.5h-357zM274 696v-614h230q43 0 70 1.5t72.5 9t85 27.5t71.5 52q86 82 86 231q0 180 -141 252
q-37 19 -86 28.5t-82 11t-93 1.5h-213zM1139 1366h90v-1366h-90v1366zM842 1749l102 -51l-274 -258l-66 37z" />
    <glyph glyph-name="afii10047.var.accented" unicode="&#x42d;`" horiz-adv-x="1388" 
d="M111 147v119q97 -106 220 -156.5t238 -50.5q87 0 174 25.5t165 77.5t138.5 123t97.5 169.5t40 209.5h-910v81h906q-11 119 -64.5 223.5t-135 177.5t-188 115t-221.5 42q-132 0 -252 -56.5t-208 -159.5v119q24 23 54.5 45.5t89.5 56.5t141.5 55t172.5 21q145 0 276 -55
t226 -149t151 -224.5t56 -275.5q0 -141 -54.5 -270t-148 -224.5t-227 -152t-283.5 -56.5q-119 0 -237 41.5t-217 128.5zM748 1749l102 -51l-275 -258l-65 37z" />
    <glyph glyph-name="afii10048.var.accented" unicode="&#x42e;`" horiz-adv-x="1966" 
d="M274 762h209q31 270 225.5 446t458.5 176q143 0 271 -55t219.5 -149t144.5 -224.5t53 -275.5t-53.5 -275t-145 -224t-219 -149t-270.5 -55q-144 0 -272 55.5t-218.5 150.5t-143.5 224.5t-54 272.5h-205v-680h-90v1366h90v-604zM1167 59q168 0 304.5 82.5t213 224.5
t76.5 314t-76.5 314.5t-213 225.5t-304.5 83t-304.5 -83t-213 -225.5t-76.5 -314.5t76.5 -314t213 -224.5t304.5 -82.5zM1118 1749l103 -51l-275 -258l-65 37z" />
    <glyph glyph-name="afii10049.var.accented" unicode="&#x42f;`" horiz-adv-x="962" 
d="M70 0l413 612q-74 3 -153 31q-20 7 -40 17.5t-55 38.5t-60 63.5t-44.5 95.5t-19.5 131q0 64 17 119.5t45 94.5t56.5 65.5t59.5 44.5q90 53 256 53h233v-1366h-90v612h-102l-410 -612h-106zM688 1284h-143q-120 0 -187 -33q-72 -34 -112.5 -103.5t-40.5 -158.5
q0 -143 90 -223q80 -72 237 -72h156v590zM616 1749l103 -51l-275 -258l-65 37z" />
    <glyph glyph-name="afii10023.var.accented" unicode="&#x401;`" horiz-adv-x="950" 
d="M840 1366v-82h-566v-496h553v-81h-553v-625h566v-82h-656v1366h656zM211 1597q0 32 23 55t55 23t55 -23t23 -55t-23 -54.5t-55 -22.5t-55 22.5t-23 54.5zM653 1597q0 32 23 55t55 23t55 -23t23 -55t-23 -54.5t-55 -22.5t-55 22.5t-23 54.5zM578 1749l90 -51l-275 -258
l-53 37z" />
    <glyph glyph-name="afii10065.var.accented" unicode="&#x430;`" horiz-adv-x="1056" 
d="M827 690v146h82v-836h-82v150q-59 -90 -146 -131.5t-179 -41.5q-82 0 -156 31t-130 86.5t-89 139.5t-33 184q0 194 112.5 315t295.5 121q209 0 325 -164zM506 776q-133 0 -229.5 -95t-96.5 -257q0 -96 37 -179t113.5 -136.5t177.5 -53.5q76 0 138.5 30.5t102 82t61 117.5
t21.5 139q0 89 -30 159t-79 110.5t-104.5 61.5t-111.5 21zM641 1270l88 -51l-215 -263l-61 33z" />
    <glyph glyph-name="afii10070.var.accented" unicode="&#x435;`" horiz-adv-x="989" 
d="M895 408h-715q0 -155 98 -254t234 -99q98 0 174 52t117 139l69 -41q-21 -40 -50 -76t-72.5 -72.5t-107 -58t-136.5 -21.5q-190 0 -301 124t-111 313q0 105 34.5 190.5t92 139t129.5 82t150 28.5q171 0 283 -124.5t112 -321.5zM186 485h623q-15 126 -100.5 208.5
t-208.5 82.5q-124 0 -210 -83t-104 -208zM606 1270l88 -51l-215 -263l-61 33z" />
    <glyph glyph-name="afii10074.var.accented" unicode="&#x438;`" horiz-adv-x="970" 
d="M147 836h82v-670l594 717v-883h-82v666l-594 -717v887zM598 1270l88 -51l-215 -263l-61 33z" />
    <glyph glyph-name="afii10080.var.accented" unicode="&#x43e;`" horiz-adv-x="1064" 
d="M532 854q186 0 312.5 -126t126.5 -312t-126.5 -312.5t-312.5 -126.5t-312 126.5t-126 312.5t126 312t312 126zM532 55q150 0 251.5 104t101.5 257t-101.5 256.5t-251.5 103.5t-251 -103.5t-101 -256.5t101 -257t251 -104zM645 1270l88 -51l-215 -263l-61 33z" />
    <glyph glyph-name="afii10085.var.accented" unicode="&#x443;`" horiz-adv-x="876" 
d="M217 -471l197 457l-398 850h95l350 -744l305 744h94l-549 -1307h-94zM551 1270l88 -51l-215 -263l-62 33z" />
    <glyph glyph-name="afii10093.var.accented" unicode="&#x44b;`" 
d="M147 836h82v-349h199q146 0 213 -77q59 -65 59 -166q0 -114 -73 -181q-67 -63 -201 -63h-279v836zM229 78h197q85 0 131 39q57 47 57 127q0 83 -59 129q-48 37 -133 37h-193v-332zM795 836h82v-836h-82v836zM625 1270l88 -51l-215 -263l-62 33z" />
    <glyph glyph-name="afii10095.var.accented" unicode="&#x44d;`" horiz-adv-x="843" 
d="M78 20v86q91 -51 225 -51q169 0 270 109q86 90 91 225h-490v78h490q-16 150 -138 242q-94 67 -229 67q-131 0 -211 -43v82q102 39 211 39q195 0 313 -104q140 -119 140 -330q0 -203 -125 -324q-124 -119 -322 -119q-137 0 -225 43zM473 1270l88 -51l-215 -263l-61 33z
" />
    <glyph glyph-name="afii10096.var.accented" unicode="&#x44e;`" horiz-adv-x="1310" 
d="M229 467h144q19 168 136.5 277.5t285.5 109.5q180 0 301 -126t121 -312t-121 -312.5t-301 -126.5q-167 0 -290 113.5t-132 298.5h-144v-389h-82v836h82v-369zM795 55q144 0 239.5 104t95.5 257t-95.5 256.5t-239.5 103.5t-240 -103.5t-96 -256.5t96 -257t240 -104z
M768 1270l88 -51l-215 -263l-61 33z" />
    <glyph glyph-name="afii10097.var.accented" unicode="&#x44f;`" horiz-adv-x="790" 
d="M57 0l267 365q-97 3 -164 61q-70 63 -70 166q0 121 76 184q69 60 199 60h278v-836h-82v360h-143l-262 -360h-99zM561 438v320h-196q-87 0 -134 -37q-55 -47 -55 -127t53 -119q48 -37 136 -37h196zM508 1270l88 -51l-215 -263l-62 33z" />
    <glyph glyph-name="afii10071.var.accented" unicode="&#x451;`" horiz-adv-x="989" 
d="M895 408h-715q-5 -151 96 -256q94 -97 236 -97q98 0 176 54q74 53 115 137l69 -41q-57 -102 -143 -162q-95 -66 -223 -66q-175 0 -291 113q-121 117 -121 324q0 206 125 327q116 113 281 113q81 0 152 -30t120 -79q60 -60 92.5 -149.5t30.5 -187.5zM186 485h623
q-16 125 -94 203q-88 88 -215 88q-124 0 -217 -90q-82 -82 -97 -201zM236 1077q0 31 21 52.5t52 21.5t52.5 -21.5t21.5 -52.5t-21.5 -52t-52.5 -21t-52 21t-21 52zM616 1077q0 31 21.5 52.5t52.5 21.5t52.5 -21.5t21.5 -52.5t-21.5 -52t-52.5 -21t-52.5 21t-21.5 52z
M573 1270l76 -51l-215 -263l-49 33z" />
    <glyph glyph-name="fi" unicode="fi" horiz-adv-x="905" 
d="M438 758h-209v-758h-82v758h-94v78h94v333q0 92 10.5 139t35.5 85q28 42 62 68.5t71 38t64 15t63 3.5t63 -3.5t64 -15t71 -38t62 -68.5q25 -37 35 -84t10 -140v-34h-82v34q0 124 -35 181q-54 90 -188 90t-189 -90q-35 -57 -35 -181v-333h209v-78zM676 836h82v-836h-82
v836z" />
    <glyph glyph-name="fl" unicode="fl" horiz-adv-x="905" 
d="M438 758h-209v-758h-82v758h-94v78h94v333q0 92 10.5 139t35.5 85q28 42 62 68.5t71 38t64 15t63 3.5t63 -3.5t64 -15t71 -38t62 -68.5q25 -37 35 -84t10 -140v-1169h-82v1169q0 124 -35 181q-55 90 -188 90q-132 0 -189 -90q-35 -55 -35 -181v-333h209v-78z" />
    <glyph glyph-name=".notdef" horiz-adv-x="477" 
 />
    <glyph glyph-name=".null" horiz-adv-x="0" 
 />
    <glyph glyph-name="nonmarkingreturn" horiz-adv-x="682" 
 />
    <glyph glyph-name="space" unicode=" " horiz-adv-x="477" 
 />
    <glyph glyph-name="exclam" unicode="!" horiz-adv-x="532" 
d="M311 244h-90v1122h90v-1122zM190 61q0 32 22 54t54 22t54 -22t22 -54t-22 -53.5t-54 -21.5t-54 21.5t-22 53.5z" />
    <glyph glyph-name="quotedbl" unicode="&#x22;" horiz-adv-x="573" 
d="M213 1366l-14 -551h-62l-14 551h90zM451 1366l-15 -551h-61l-15 551h91z" />
    <glyph glyph-name="numbersign" unicode="#" horiz-adv-x="1228" 
d="M768 0h-82l68 453h-336l-68 -453h-82l68 453h-242l12 77h242l49 330h-241l12 78h242l65 428h82l-65 -428h335l66 428h82l-66 -428h242l-12 -78h-242l-49 -330h242l-13 -77h-241zM766 530l49 330h-336l-49 -330h336z" />
    <glyph glyph-name="dollar" unicode="$" horiz-adv-x="1122" 
d="M907 1190l-65 -55q-5 11 -12.5 24.5t-26.5 37.5t-41 44t-57.5 38t-75.5 24v-553q142 -65 202 -109q28 -19 48.5 -38t45.5 -51t38.5 -76.5t13.5 -98.5q0 -89 -41 -172t-121.5 -144t-185.5 -77v-203h-82v196q-190 0 -314 144q-61 70 -88 149l78 37q23 -67 74 -131
q45 -57 112 -86t138 -31v635l-51 25q-99 46 -148 82.5t-80 87.5q-43 71 -43 155q0 139 90 236.5t232 103.5v183h82v-183q18 -2 34.5 -5t53 -16t66.5 -32t65 -56t59 -85zM629 653v-587q115 24 184.5 112t69.5 197q0 134 -133 215q-3 1 -16 8.5t-40 21.5t-65 33zM547 791v512
q-105 -6 -166.5 -81.5t-61.5 -172.5q0 -90 56 -150.5t172 -107.5z" />
    <glyph glyph-name="percent" unicode="%" horiz-adv-x="1245" 
d="M346 1378q124 0 200.5 -75.5t76.5 -192.5t-76.5 -192.5t-200.5 -75.5t-200 75.5t-76 192.5t76 192.5t200 75.5zM346 915q93 0 144 59.5t51 135.5t-51 135.5t-144 59.5t-143.5 -59.5t-50.5 -135.5t50.5 -135.5t143.5 -59.5zM188 2l807 1395l62 -33l-807 -1395zM899 524
q124 0 200.5 -75.5t76.5 -192.5t-76.5 -192.5t-200.5 -75.5t-200 75.5t-76 192.5t76 192.5t200 75.5zM899 61q93 0 144 59.5t51 135.5t-51 135.5t-144 59.5t-143.5 -59.5t-50.5 -135.5t50.5 -135.5t143.5 -59.5z" />
    <glyph glyph-name="ampersand" unicode="&#x26;" horiz-adv-x="1286" 
d="M1161 530l66 -55q-83 -112 -174 -199l204 -276h-114l-158 215q-152 -127 -242 -174q-133 -68 -254 -68q-149 0 -247 95q-107 103 -107 258q0 150 90 258q55 69 172 145l146 94q-80 124 -108.5 182.5t-28.5 120.5q0 112 77 189q73 76 189 76q99 0 174 -68q76 -71 76 -186
q0 -118 -101 -219q-49 -49 -153 -119l333 -451q70 70 160 182zM934 287l-342 467l-129 -84q-118 -76 -174 -150q-60 -81 -60 -188q0 -122 72 -199q74 -78 191 -78q111 0 239 74q101 56 203 158zM616 868q106 68 152 117q63 66 63 150q0 75 -47 122q-48 48 -118 48
q-66 0 -113 -45q-57 -54 -57 -138q0 -32 14 -70t27 -61t42 -66.5t37 -56.5z" />
    <glyph glyph-name="quotesingle" unicode="'" horiz-adv-x="335" 
d="M213 1366l-14 -551h-62l-14 551h90z" />
    <glyph glyph-name="parenleft" unicode="(" horiz-adv-x="577" 
d="M299 594q0 -220 43 -475q35 -218 92 -400l-78 -47q-53 150 -98 375q-30 152 -41.5 272t-11.5 275q0 157 11.5 276.5t41.5 270.5q45 225 98 375l78 -48q-55 -171 -92 -399q-43 -260 -43 -475z" />
    <glyph glyph-name="parenright" unicode=")" horiz-adv-x="577" 
d="M221 -328l-78 47q59 188 93 400q43 255 43 475q0 215 -43 475q-36 222 -93 399l78 48q53 -150 98 -375q30 -152 42 -272t12 -275q0 -154 -12 -273.5t-42 -273.5q-45 -225 -98 -375z" />
    <glyph glyph-name="asterisk" unicode="*" horiz-adv-x="1122" 
d="M266 1311l256 -90l-6 272h90l-6 -272l256 90l29 -84l-262 -78l165 -217l-71 -51l-156 225l-155 -225l-72 51l166 217l-262 78z" />
    <glyph glyph-name="plus" unicode="+" 
d="M68 635v78h403v372h82v-372h403v-78h-403v-373h-82v373h-403z" />
    <glyph glyph-name="comma" unicode="," horiz-adv-x="466" 
d="M78 -281l123 414l82 -24l-152 -410z" />
    <glyph glyph-name="hyphen" unicode="-" horiz-adv-x="614" 
d="M102 377v94h410v-94h-410z" />
    <glyph glyph-name="period" unicode="." horiz-adv-x="413" 
d="M131 61q0 32 22 54t54 22t54 -22t22 -54t-22 -53.5t-54 -21.5t-54 21.5t-22 53.5z" />
    <glyph glyph-name="slash" unicode="/" horiz-adv-x="1179" 
d="M41 -324l1032 1846l66 -33l-1033 -1845z" />
    <glyph glyph-name="zero" unicode="0" horiz-adv-x="1122" 
d="M561 1384q184 0 322 -165q82 -98 128 -235.5t46 -301.5t-46 -301.5t-128 -235.5q-70 -84 -155 -126t-167 -42t-166 42t-155 126q-82 98 -128 235.5t-46 301.5t46 301.5t128 235.5q138 165 321 165zM561 59q142 0 254 140q148 183 148 483t-148 483q-111 138 -254 138
t-254 -138q-147 -182 -147 -483t147 -483q112 -140 254 -140z" />
    <glyph glyph-name="one" unicode="1" horiz-adv-x="1122" 
d="M557 0v1284h-213l41 82h262v-1366h-90z" />
    <glyph glyph-name="two" unicode="2" horiz-adv-x="1122" 
d="M965 0h-842l524 578q111 125 150 184q80 121 80 233q0 131 -89.5 219.5t-228.5 88.5q-146 0 -235 -101q-80 -88 -80 -223h-90q0 88 29.5 162.5t78.5 124.5q114 118 303 118q176 0 291 -111t115 -278q0 -142 -99 -280q-55 -77 -120 -148l-439 -485h652v-82z" />
    <glyph glyph-name="three" unicode="3" horiz-adv-x="1122" 
d="M156 332h90q3 -82 45 -146q38 -56 106 -91.5t135 -35.5q125 0 216.5 95t91.5 223q0 84 -36 149t-93 101q-64 41 -174 41v82q47 0 91 14.5t62 26t31 22.5q45 38 72.5 97.5t27.5 125.5q0 114 -69.5 190.5t-192.5 76.5q-127 0 -197 -80q-66 -72 -69 -183h-86q3 145 100 246
q96 98 252 98q163 0 259.5 -98.5t96.5 -243.5q0 -101 -51 -192t-164 -137q109 -35 171.5 -125.5t62.5 -208.5q0 -171 -117 -286.5t-285 -115.5q-96 0 -186 47t-141 132q-49 78 -49 176z" />
    <glyph glyph-name="four" unicode="4" horiz-adv-x="1122" 
d="M850 1411v-1069h190v-82h-190v-260h-90v260h-735zM184 342h576v803z" />
    <glyph glyph-name="five" unicode="5" horiz-adv-x="1122" 
d="M963 1366v-82h-459l-115 -369q54 13 92 13q215 0 345 -133t130 -340q0 -143 -66 -253.5t-175.5 -167.5t-243.5 -57q-121 0 -231.5 54t-178.5 172l80 33q57 -85 143 -131t189 -46q169 0 279 111t110 283q0 173 -107.5 283t-277.5 110q-117 0 -213 -60l176 580h523z" />
    <glyph glyph-name="six" unicode="6" horiz-adv-x="1122" 
d="M616 1384l70 -53l-303 -430q86 37 186 37q204 0 339.5 -134.5t135.5 -342.5q0 -207 -137.5 -345.5t-349.5 -138.5q-208 0 -345.5 137t-137.5 349q0 152 88 278zM559 59q168 0 279.5 115t111.5 285q0 174 -110.5 285.5t-280.5 111.5t-280.5 -113t-110.5 -284
q0 -172 112 -286t279 -114z" />
    <glyph glyph-name="seven" unicode="7" horiz-adv-x="1122" 
d="M45 29l885 1255h-830v82h990l-977 -1389z" />
    <glyph glyph-name="eight" unicode="8" horiz-adv-x="1122" 
d="M733 709q106 -40 164.5 -135.5t58.5 -211.5t-54 -204.5t-143.5 -134.5t-197.5 -46t-197.5 46t-143.5 134.5t-54 204.5t58.5 211.5t164.5 135.5q-53 28 -91 67.5t-56.5 73.5t-29 74.5t-12 60t-1.5 39.5q0 155 104 257.5t258 102.5t258.5 -102.5t104.5 -257.5
q0 -27 -4.5 -55t-20.5 -78.5t-58.5 -99t-107.5 -82.5zM561 748q111 0 189.5 78.5t78.5 197.5q0 120 -77.5 199.5t-190.5 79.5t-190.5 -79.5t-77.5 -199.5q0 -119 78.5 -197.5t189.5 -78.5zM561 59q135 0 218 87t83 216q0 135 -84.5 221.5t-216.5 86.5t-216.5 -86.5
t-84.5 -221.5q0 -129 83 -216t218 -87z" />
    <glyph glyph-name="nine" unicode="9" horiz-adv-x="1122" 
d="M506 -23l-70 54l303 432q-86 -37 -186 -37q-204 0 -339.5 134.5t-135.5 342.5q0 206 137 343.5t350 137.5q208 0 346 -136.5t138 -346.5q0 -152 -88 -278zM563 1303q-168 0 -279.5 -115t-111.5 -283q0 -174 111.5 -285.5t279.5 -111.5q170 0 280.5 113t110.5 284
q0 169 -111.5 283.5t-279.5 114.5z" />
    <glyph glyph-name="colon" unicode=":" horiz-adv-x="413" 
d="M131 778q0 32 22 54t54 22t54 -22t22 -54t-22 -54t-54 -22t-54 22t-22 54zM131 53q0 32 22 54t54 22t54 -22t22 -54t-22 -54t-54 -22t-54 22t-22 54z" />
    <glyph glyph-name="semicolon" unicode=";" horiz-adv-x="466" 
d="M135 778q0 32 22 54t54 22t54 -22t22 -54t-22 -54t-54 -22t-54 22t-22 54zM78 -281l123 414l82 -24l-152 -410z" />
    <glyph glyph-name="less" unicode="&#x3c;" 
d="M68 711l888 393v-84l-798 -348l798 -348v-84l-888 393v78z" />
    <glyph glyph-name="equal" unicode="=" 
d="M68 780v78h888v-78h-888zM68 489v78h888v-78h-888z" />
    <glyph glyph-name="greater" unicode="&#x3e;" 
d="M956 633l-888 -393v84l798 348l-798 348v84l888 -393v-78z" />
    <glyph glyph-name="question" unicode="?" horiz-adv-x="954" 
d="M676 532h82q0 -108 -43 -180q-31 -53 -91 -86t-143 -33q-60 0 -115.5 20.5t-91.5 53.5q-37 34 -59 90t-22 117q0 127 90 203q16 13 33 23t39 18.5t36 13t42 12.5t38 11q7 2 28.5 8t30.5 9l27 9t29 11t25 12.5t25 16.5t21 20q52 59 52 168q0 117 -62 184q-63 70 -174 70
t-174 -70q-57 -62 -57 -184q0 -41 14 -82h-90q-14 46 -14 94q0 152 90 237q93 86 237 86q152 0 240 -92q84 -86 84 -239q0 -131 -74 -217q-67 -75 -182 -105q-16 -5 -52 -13.5t-55.5 -14t-45 -16.5t-42.5 -25q-69 -56 -69 -152q0 -85 51 -139q56 -60 145 -60q109 0 162 74
q35 49 35 147zM403 53q0 32 22 54t54 22t54 -22t22 -54t-22 -54t-54 -22t-54 22t-22 54z" />
    <glyph glyph-name="at" unicode="@" horiz-adv-x="1499" 
d="M1001 846l31 160h66q-23 -118 -55 -281q-48 -245 -48 -274q0 -43 24.5 -76t72.5 -33q69 0 130 59.5t97.5 159.5t36.5 213q0 162 -79 287.5t-211.5 191.5t-293.5 66q-177 0 -323.5 -84t-230 -230.5t-83.5 -322.5q0 -129 44.5 -247t133 -211t207.5 -140q123 -49 285 -49
q90 0 197.5 21.5t181.5 56.5l76 37l24 -60q-120 -62 -244 -90q-127 -27 -237 -27q-159 0 -296 53t-234 145.5t-152 223.5t-55 283q0 195 93.5 356.5t255.5 253.5t357 92q175 0 321 -74t235 -214t89 -318q0 -207 -100.5 -348t-226.5 -141q-66 0 -106 38.5t-40 110.5
q-41 -74 -110.5 -113.5t-147.5 -39.5q-130 0 -207.5 94.5t-77.5 234.5q0 174 102 298t257 124q13 0 25 -1t39 -5.5t50.5 -17t49 -31.5t46 -53t31.5 -78zM696 346q110 0 189.5 105.5t79.5 277.5q0 22 -2.5 45t-14 60t-31 64.5t-59 48t-92.5 20.5q-88 0 -156.5 -51.5
t-102.5 -131.5t-34 -172q0 -125 66 -195.5t157 -70.5z" />
    <glyph glyph-name="A" unicode="A" horiz-adv-x="1200" 
d="M1073 0l-182 449h-582l-182 -449h-98l575 1407l567 -1407h-98zM342 530h516l-256 648z" />
    <glyph glyph-name="B" unicode="B" horiz-adv-x="1093" 
d="M184 0v1366h299q176 0 276.5 -93t100.5 -249q0 -201 -160 -299q132 -21 207.5 -114.5t75.5 -227.5q0 -177 -117.5 -280t-306.5 -103h-375zM274 1284v-536h218q59 0 102 11.5t84 45.5q90 74 90 209q0 137 -92 213q-73 57 -227 57h-175zM274 666v-584h230q64 0 101 2.5
t95 22t101 57.5q88 78 88 209q0 187 -146 254q-90 39 -256 39h-213z" />
    <glyph glyph-name="C" unicode="C" horiz-adv-x="1388" 
d="M1278 1206v-119q-88 103 -208.5 159.5t-252.5 56.5q-129 0 -243 -49.5t-194.5 -134t-127.5 -200t-47 -243.5q0 -117 37.5 -219.5t99.5 -174t142 -123t165.5 -76t169.5 -24.5q115 0 238.5 50.5t220.5 156.5v-119q-99 -87 -217.5 -128.5t-237.5 -41.5q-200 0 -364.5 96
t-256 257t-91.5 350q0 193 94.5 355t257 255.5t356.5 93.5q74 0 144 -15.5t118 -35.5t93 -48t65.5 -45t38.5 -34z" />
    <glyph glyph-name="D" unicode="D" horiz-adv-x="1265" 
d="M455 0h-271v1366h271q313 0 503 -190q101 -101 149 -234.5t48 -259.5t-48 -258.5t-149 -233.5q-190 -190 -503 -190zM274 1284v-1202h179q270 0 439 167t169 433q0 263 -170 432.5t-438 169.5h-179z" />
    <glyph glyph-name="E" unicode="E" horiz-adv-x="950" 
d="M840 1366v-82h-566v-496h553v-81h-553v-625h566v-82h-656v1366h656z" />
    <glyph glyph-name="F" unicode="F" horiz-adv-x="831" 
d="M737 1366v-82h-463v-496h451v-81h-451v-707h-90v1366h553z" />
    <glyph glyph-name="G" unicode="G" horiz-adv-x="1581" 
d="M897 573v82h573q0 -272 -139 -448q-89 -114 -222 -172t-292 -58q-198 0 -359.5 90t-254 251t-92.5 362q0 199 95 361t257.5 252.5t359.5 90.5q238 0 428 -147q96 -76 164 -172l-72 -57q-48 82 -131 151q-172 144 -391 144q-172 0 -313.5 -83.5t-222 -227.5t-80.5 -316
q0 -169 78.5 -310.5t218.5 -224t313 -82.5q162 0 287.5 68.5t187.5 163.5q39 60 63 137t27 145h-483z" />
    <glyph glyph-name="H" unicode="H" horiz-adv-x="1376" 
d="M274 1366v-580h828v580h90v-1366h-90v705h-828v-705h-90v1366h90z" />
    <glyph glyph-name="I" unicode="I" horiz-adv-x="458" 
d="M184 1366h90v-1366h-90v1366z" />
    <glyph glyph-name="J" unicode="J" horiz-adv-x="538" 
d="M264 1366h90v-1100q0 -44 -2.5 -73.5t-18.5 -75t-46 -76.5q-64 -64 -170 -64q-86 0 -150 52q-46 37 -80 92l64 53q27 -52 63 -78q48 -37 107 -37t98 39q20 20 30.5 49t12.5 50.5t2 54.5v1114z" />
    <glyph glyph-name="K" unicode="K" horiz-adv-x="1105" 
d="M274 1366v-643l646 643h118l-661 -653l700 -713h-123l-643 651l-37 -35v-616h-90v1366h90z" />
    <glyph glyph-name="L" unicode="L" horiz-adv-x="684" 
d="M184 1366h90v-1284h381v-82h-471v1366z" />
    <glyph glyph-name="M" unicode="M" horiz-adv-x="1835" 
d="M260 0h-90l156 1413l592 -1263l591 1263l156 -1413h-90l-121 1098q-534 -1147 -536 -1147l-537 1147z" />
    <glyph glyph-name="N" unicode="N" horiz-adv-x="1605" 
d="M274 0h-90v1380l1147 -1200v1186h90v-1401l-1147 1200v-1165z" />
    <glyph glyph-name="O" unicode="O" horiz-adv-x="1638" 
d="M819 1384q196 0 359 -93.5t256.5 -255t93.5 -355.5q0 -145 -55 -275t-149.5 -224t-226 -149t-278.5 -55q-148 0 -279.5 55t-225.5 149t-148.5 224t-54.5 275t55 275.5t149 224.5t225.5 149t278.5 55zM819 59q130 0 244.5 48.5t195.5 131.5t128 197.5t47 243.5
q0 173 -79.5 315.5t-221 225t-314.5 82.5t-314 -82.5t-220.5 -225t-79.5 -315.5q0 -172 79.5 -314t220.5 -224.5t314 -82.5z" />
    <glyph glyph-name="P" unicode="P" horiz-adv-x="913" 
d="M451 649h-177v-649h-90v1366h265q174 0 286.5 -93.5t112.5 -262.5q0 -168 -109 -264.5t-288 -96.5zM274 1284v-553h181q135 0 217 74.5t82 202.5t-83 202t-231 74h-166z" />
    <glyph glyph-name="Q" unicode="Q" horiz-adv-x="1638" 
d="M1507 0h-118l-121 131q-193 -154 -449 -154q-147 0 -278.5 55t-225.5 149t-149 224t-55 275t55 275.5t149 224.5t225.5 149t278.5 55q195 0 358 -93.5t257 -255t94 -355.5q0 -285 -197 -492zM819 59q220 0 391 134l-342 366h119l285 -307q162 176 162 428
q0 172 -79.5 314.5t-221 225.5t-314.5 83t-314 -82.5t-220.5 -225t-79.5 -315.5q0 -172 79.5 -314t220.5 -224.5t314 -82.5z" />
    <glyph glyph-name="R" unicode="R" horiz-adv-x="958" 
d="M860 0h-102l-443 645h-41v-645h-90v1366h197q91 0 159 -14t130 -56q141 -98 141 -292q0 -112 -55 -202t-174 -130q-78 -27 -168 -27zM274 1284v-557h132q146 0 228.5 73.5t82.5 205.5q0 93 -36 151.5t-85 85.5q-71 41 -209 41h-113z" />
    <glyph glyph-name="S" unicode="S" horiz-adv-x="1052" 
d="M872 1190l-65 -55q-29 57 -70 94.5t-83.5 51.5t-66.5 18t-48 4q-117 0 -185.5 -73.5t-68.5 -180.5q0 -31 7 -58t16 -47t29 -40t34.5 -33t46 -31t49.5 -27.5t57 -28.5q30 -15 86.5 -42t77.5 -37.5t52.5 -28t56.5 -35.5q28 -19 48.5 -38t45 -51t38 -76.5t13.5 -98.5
q0 -170 -124.5 -285t-301.5 -115q-193 0 -317 144q-61 70 -88 149l77 37q23 -67 74 -131q44 -57 113.5 -87t142.5 -30q139 0 234.5 91t95.5 225t-133 215q-59 35 -232 119q-115 56 -166 91t-84 89q-43 71 -43 155q0 49 13 96.5t41 91.5t68 78t99 54t130 20
q105 0 192.5 -49.5t138.5 -144.5z" />
    <glyph glyph-name="T" unicode="T" horiz-adv-x="856" 
d="M827 1284h-354v-1284h-90v1284h-354v82h798v-82z" />
    <glyph glyph-name="U" unicode="U" horiz-adv-x="1298" 
d="M184 1366h90v-854q0 -108 11 -173t47 -122q28 -46 69.5 -79t86.5 -49t84.5 -23t76.5 -7q85 0 174.5 36t143.5 122q36 57 46.5 121.5t10.5 173.5v854h90v-854q0 -127 -14.5 -203t-63.5 -147q-126 -185 -387 -185t-387 185q-49 71 -63.5 147t-14.5 203v854z" />
    <glyph glyph-name="V" unicode="V" horiz-adv-x="1044" 
d="M29 1366h98l401 -1163l390 1163h98l-488 -1421z" />
    <glyph glyph-name="W" unicode="W" horiz-adv-x="2015" 
d="M29 1366h98l377 -1159l493 1233l463 -1233l428 1159h99l-527 -1417l-463 1241l-508 -1241z" />
    <glyph glyph-name="X" unicode="X" horiz-adv-x="962" 
d="M47 0l375 696l-359 670h99l309 -584l311 584h99l-357 -670l375 -696h-98l-330 614l-326 -614h-98z" />
    <glyph glyph-name="Y" unicode="Y" horiz-adv-x="1056" 
d="M477 0v584l-448 782h102l393 -690l402 690h102l-461 -782v-584h-90z" />
    <glyph glyph-name="Z" unicode="Z" horiz-adv-x="1134" 
d="M1059 1366l-832 -1284h809v-82h-960l831 1284h-751v82h903z" />
    <glyph glyph-name="bracketleft" unicode="[" horiz-adv-x="569" 
d="M487 1411h-217v-1657h217v-82h-307v1821h307v-82z" />
    <glyph glyph-name="backslash" unicode="\" horiz-adv-x="1179" 
d="M1139 -324l-66 -32l-1032 1845l65 33z" />
    <glyph glyph-name="bracketright" unicode="]" horiz-adv-x="569" 
d="M82 -246h217v1657h-217v82h307v-1821h-307v82z" />
    <glyph glyph-name="asciicircum" unicode="^" 
d="M512 1303l-342 -521h-94l381 584h110l381 -584h-94z" />
    <glyph glyph-name="underscore" unicode="_" 
d="M0 -238v78h1024v-78h-1024z" />
    <glyph glyph-name="grave" unicode="`" 
d="M508 956l-215 263l88 51l188 -281z" />
    <glyph glyph-name="a" unicode="a" horiz-adv-x="1056" 
d="M827 690v146h82v-836h-82v150q-59 -90 -146 -131.5t-179 -41.5q-82 0 -156 31t-130 86.5t-89 139.5t-33 184q0 194 112.5 315t295.5 121q209 0 325 -164zM506 776q-133 0 -229.5 -95t-96.5 -257q0 -96 37 -179t113.5 -136.5t177.5 -53.5q76 0 138.5 30.5t102 82t61 117.5
t21.5 139q0 89 -30 159t-79 110.5t-104.5 61.5t-111.5 21z" />
    <glyph glyph-name="b" unicode="b" horiz-adv-x="1056" 
d="M147 1493h82v-803q120 164 328 164q185 0 295.5 -122t110.5 -308q0 -92 -28.5 -173.5t-80.5 -142t-130 -96t-171 -35.5q-72 0 -132.5 20t-99.5 52.5t-58.5 55t-33.5 45.5v-150h-82v1493zM551 55q153 0 239.5 104.5t86.5 264.5q0 165 -94 258.5t-230 93.5
q-63 0 -121 -22.5t-104.5 -64.5t-74.5 -109.5t-28 -151.5q0 -163 86.5 -268t239.5 -105z" />
    <glyph glyph-name="c" unicode="c" horiz-adv-x="905" 
d="M817 748v-109q-120 137 -289 137q-152 0 -250 -103.5t-98 -258.5q0 -86 30.5 -156.5t81 -113.5t110.5 -66t122 -23q166 0 303 150v-111q-131 -117 -305 -117q-188 0 -308 124t-120 311q0 191 118.5 316.5t315.5 125.5q162 0 289 -106z" />
    <glyph glyph-name="d" unicode="d" horiz-adv-x="1056" 
d="M827 690v803h82v-1493h-82v150q-58 -90 -145.5 -131.5t-177.5 -41.5q-80 0 -153 29t-131 83t-92 140.5t-34 192.5q0 110 35 195.5t94.5 135.5t130.5 75.5t150 25.5q208 0 323 -164zM504 776q-137 0 -230.5 -92.5t-93.5 -259.5q0 -88 27.5 -160t73.5 -116.5t104.5 -68.5
t122.5 -24q133 0 228 97.5t95 271.5q0 151 -88 251.5t-239 100.5z" />
    <glyph glyph-name="e" unicode="e" horiz-adv-x="989" 
d="M895 408h-715q0 -155 98 -254t234 -99q98 0 174 52t117 139l69 -41q-21 -40 -50 -76t-72.5 -72.5t-107 -58t-136.5 -21.5q-190 0 -301 124t-111 313q0 105 34.5 190.5t92 139t129.5 82t150 28.5q171 0 283 -124.5t112 -321.5zM186 485h623q-15 126 -100.5 208.5
t-208.5 82.5q-124 0 -210 -83t-104 -208z" />
    <glyph glyph-name="f" unicode="f" horiz-adv-x="438" 
d="M438 758h-209v-758h-82v758h-94v78h94v397q0 84 20 143.5t54 88.5t69.5 41t76.5 12q25 0 71 -13v-75q-25 10 -63 10q-31 0 -54 -8t-45.5 -30.5t-34.5 -69t-12 -115.5v-381h209v-78z" />
    <glyph glyph-name="g" unicode="g" horiz-adv-x="1064" 
d="M836 836h82v-811q0 -235 -111.5 -365.5t-308.5 -130.5q-170 0 -286.5 95.5t-123.5 262.5h86q10 -129 99.5 -204.5t224.5 -75.5q68 0 122.5 19.5t89 48t60 70.5t37.5 78.5t19.5 81.5t8.5 69t1 51v118q-60 -84 -147.5 -125t-182.5 -41q-78 0 -151 28.5t-131.5 82t-94 139.5
t-35.5 191q0 122 50 220.5t147 157t225 58.5q101 0 183 -43t137 -121v146zM508 776q-150 0 -239 -105.5t-89 -256.5q0 -154 89.5 -256.5t234.5 -102.5q152 0 244 104.5t92 262.5q0 151 -91 252.5t-241 101.5z" />
    <glyph glyph-name="h" unicode="h" horiz-adv-x="905" 
d="M147 0v1493h82v-788q83 149 256 149q52 0 95.5 -13.5t71 -35t41.5 -37t24 -31.5q41 -65 41 -211v-526h-82v526q0 118 -33 168q-48 82 -164 82q-139 0 -205 -117q-45 -80 -45 -225v-434h-82z" />
    <glyph glyph-name="i" unicode="i" horiz-adv-x="376" 
d="M147 836h82v-836h-82v836zM188 1038q-31 0 -52 21.5t-21 54.5t21 54.5t52 21.5t52.5 -21.5t21.5 -54.5t-21.5 -54.5t-52.5 -21.5z" />
    <glyph glyph-name="j" unicode="j" horiz-adv-x="376" 
d="M147 836h82v-1307h-82v1307zM188 1038q-31 0 -52 21.5t-21 54.5t21 54.5t52 21.5t52.5 -21.5t21.5 -54.5t-21.5 -54.5t-52.5 -21.5z" />
    <glyph glyph-name="k" unicode="k" horiz-adv-x="811" 
d="M147 1493h82v-1016l344 359h107l-352 -363l467 -473h-111l-412 414l-43 -43v-371h-82v1493z" />
    <glyph glyph-name="l" unicode="l" horiz-adv-x="376" 
d="M147 1493h82v-1493h-82v1493z" />
    <glyph glyph-name="m" unicode="m" horiz-adv-x="1335" 
d="M147 0v836h82v-105q71 123 217 123q47 0 86 -12t63 -28.5t43 -39.5t27.5 -39t14.5 -33q35 74 99.5 113t148.5 39q118 0 188 -70q32 -32 49 -76t20 -75.5t3 -75.5v-557h-82v557q0 121 -49 172q-45 47 -125 47q-45 0 -81.5 -13t-59.5 -31.5t-39.5 -47t-24.5 -51.5
t-12.5 -53t-5 -44.5t-0.5 -31.5v-504h-82v537q0 24 -1.5 46t-12 60t-28.5 65t-55 47.5t-88 20.5q-105 0 -159 -81t-54 -212v-483h-82z" />
    <glyph glyph-name="n" unicode="n" horiz-adv-x="905" 
d="M147 0v836h82v-131q83 149 256 149q52 0 95.5 -13.5t71 -35t41.5 -37t24 -31.5q41 -65 41 -211v-526h-82v526q0 118 -33 168q-48 82 -164 82q-139 0 -205 -117q-45 -80 -45 -225v-434h-82z" />
    <glyph glyph-name="o" unicode="o" horiz-adv-x="1064" 
d="M532 854q186 0 312.5 -126t126.5 -312t-126.5 -312.5t-312.5 -126.5t-312 126.5t-126 312.5t126 312t312 126zM532 55q150 0 251.5 104t101.5 257t-101.5 256.5t-251.5 103.5t-251 -103.5t-101 -256.5t101 -257t251 -104z" />
    <glyph glyph-name="p" unicode="p" horiz-adv-x="1056" 
d="M229 150v-621h-82v1307h82v-146q120 164 328 164q185 0 295.5 -122t110.5 -308q0 -92 -28.5 -173.5t-80.5 -142t-130 -96t-171 -35.5q-72 0 -132.5 20t-99.5 52.5t-58.5 55t-33.5 45.5zM551 55q153 0 239.5 104.5t86.5 264.5q0 165 -94 258.5t-230 93.5q-63 0 -121 -22.5
t-104.5 -64.5t-74.5 -109.5t-28 -151.5q0 -163 86.5 -268t239.5 -105z" />
    <glyph glyph-name="q" unicode="q" horiz-adv-x="1056" 
d="M909 -471h-82v621q-58 -90 -145.5 -131.5t-177.5 -41.5q-80 0 -153 29t-131 83t-92 140.5t-34 192.5q0 110 35 195.5t94.5 135.5t130.5 75.5t150 25.5q208 0 323 -164v146h82v-1307zM504 776q-137 0 -230.5 -92.5t-93.5 -259.5q0 -88 27.5 -160t73.5 -116.5t104.5 -68.5
t122.5 -24q133 0 228 97.5t95 271.5q0 151 -88 251.5t-239 100.5z" />
    <glyph glyph-name="r" unicode="r" horiz-adv-x="532" 
d="M147 0v836h82v-109q25 57 72.5 92t112.5 35q49 0 88 -20l-41 -74q-21 16 -62 16q-40 0 -70.5 -16t-48.5 -47t-29 -60.5t-15.5 -73.5t-5.5 -68.5t-1 -61.5v-449h-82z" />
    <glyph glyph-name="s" unicode="s" horiz-adv-x="684" 
d="M573 719l-69 -37q-21 47 -60 70.5t-86 23.5q-66 0 -103.5 -41t-37.5 -92q0 -24 8.5 -43.5t19 -32t34 -26t38.5 -20t48 -19.5q10 -4 40.5 -15.5t42 -16.5t35.5 -16t37.5 -20.5t30 -24t29.5 -30.5q43 -53 43 -135q0 -68 -24 -121t-64.5 -84t-87.5 -46.5t-97 -15.5
q-106 0 -184.5 59.5t-104.5 162.5l80 24q21 -80 79 -124t130 -44q80 0 133.5 52t53.5 133q0 66 -41.5 102t-145.5 78q-52 22 -78.5 34t-56 32.5t-47.5 43.5q-37 51 -37 109q0 94 63.5 154.5t159.5 60.5q75 0 132.5 -34.5t86.5 -100.5z" />
    <glyph glyph-name="t" unicode="t" horiz-adv-x="397" 
d="M381 758h-145v-758h-82v758h-93v78h93v299h82v-299h145v-78z" />
    <glyph glyph-name="u" unicode="u" horiz-adv-x="897" 
d="M147 836h82v-504q0 -144 54 -209q57 -68 166 -68q108 0 165 68q54 65 54 209v504h82v-527q0 -146 -64 -229q-79 -103 -237 -103q-159 0 -238 103q-64 83 -64 229v527z" />
    <glyph glyph-name="v" unicode="v" horiz-adv-x="798" 
d="M16 836h90l295 -695l291 695h90l-381 -887z" />
    <glyph glyph-name="w" unicode="w" horiz-adv-x="1376" 
d="M16 836h90l289 -691l289 742l289 -742l297 691h90l-387 -887l-289 741l-289 -741z" />
    <glyph glyph-name="x" unicode="x" horiz-adv-x="819" 
d="M16 0l338 438l-309 398h100l265 -344l260 344h100l-303 -398l336 -438h-101l-292 385l-293 -385h-101z" />
    <glyph glyph-name="y" unicode="y" horiz-adv-x="876" 
d="M217 -471l197 457l-398 850h95l350 -744l305 744h94l-549 -1307h-94z" />
    <glyph glyph-name="z" unicode="z" horiz-adv-x="925" 
d="M889 836l-676 -758h672v-78h-848l684 758h-578v78h746z" />
    <glyph glyph-name="braceleft" unicode="{" horiz-adv-x="569" 
d="M82 553v59q40 11 66 31.5t37 51t14.5 56.5t3.5 66v397q0 40 2 67t17 72t44 74q66 66 201 66h25v-82q-116 0 -160 -49q-39 -43 -39 -154v-397q0 -98 -28 -150t-103 -79q131 -48 131 -238v-373q0 -127 39 -170q42 -47 160 -47v-82h-19q-146 0 -209 70q-61 67 -61 246v360
q0 36 -3 60.5t-13.5 57.5t-37 55t-67.5 32z" />
    <glyph glyph-name="bar" unicode="|" 
d="M471 -512v2048h82v-2048h-82z" />
    <glyph glyph-name="braceright" unicode="}" horiz-adv-x="569" 
d="M487 612v-59q-41 -10 -67.5 -32t-37 -55.5t-13 -57.5t-2.5 -60v-360q0 -177 -62 -246q-63 -70 -209 -70h-18v82q118 0 160 47q38 42 38 170v373q0 189 132 238q-75 27 -103.5 79t-28.5 150v397q0 34 -1 52.5t-10 50t-27 51.5q-44 49 -160 49v82h24q135 0 201 -66
q64 -64 64 -213v-397q0 -40 3 -66t14 -56.5t37 -51t66 -31.5z" />
    <glyph glyph-name="asciitilde" unicode="~" 
d="M80 399l-55 33q39 80 96 137q76 72 174 72q35 0 79 -14t71.5 -27t80.5 -41q89 -45 131.5 -60.5t79.5 -15.5q77 0 133 56q42 42 74 104l55 -33q-37 -74 -79 -118q-82 -86 -195 -86q-51 0 -116 24.5t-167 81.5q-30 17 -47.5 25.5t-47.5 17t-58 8.5q-75 0 -131 -53
q-47 -44 -78 -111z" />
    <glyph glyph-name="uni00A0" unicode="&#xa0;" horiz-adv-x="477" 
 />
    <glyph glyph-name="exclamdown" unicode="&#xa1;" horiz-adv-x="532" 
d="M221 651h90v-1122h-90v1122zM342 834q0 -32 -22 -54t-54 -22t-54 22t-22 54t22 53.5t54 21.5t54 -21.5t22 -53.5z" />
    <glyph glyph-name="cent" unicode="&#xa2;" horiz-adv-x="1122" 
d="M653 1341v-208q139 0 265 -105v-108q-119 128 -265 135v-717q155 6 275 147v-110q-127 -110 -275 -115v-233h-78v233q-170 23 -275 142.5t-105 289.5q0 176 105 296t275 142v211h78zM575 338v715q-75 -13 -133.5 -50t-92.5 -87.5t-51 -106.5t-17 -115q0 -79 30.5 -152
t99 -130.5t164.5 -73.5z" />
    <glyph glyph-name="sterling" unicode="&#xa3;" horiz-adv-x="1122" 
d="M199 559v82h200l-43 72q-64 108 -82 143q-47 92 -47 172q0 66 26.5 133t78.5 117q106 102 262 102q142 0 237 -92q109 -109 109 -287h-90q0 73 -24 135t-62 97q-72 65 -172 65q-122 0 -197 -79q-73 -76 -73 -181q0 -83 55 -182q32 -60 94 -158l35 -57h248v-82h-222
q46 -90 46 -180q0 -113 -95 -236l133 -45q5 -2 25.5 -9t31 -10t28 -7.5t33 -6.5t30.5 -2q66 0 115.5 43t76.5 99l74 -45q-39 -75 -106.5 -131t-149.5 -56q-25 0 -58.5 7t-55.5 14t-69 23.5t-63 21.5q-103 35 -151 35q-86 0 -187 -94l-49 65q107 117 244 117q44 45 73 104.5
t29 112.5q0 42 -16 92.5t-39 87.5h-233z" />
    <glyph glyph-name="currency" unicode="&#xa4;" horiz-adv-x="1122" 
d="M82 184l-49 52l184 182q-115 127 -115 299q0 169 109 293l-184 184l49 49l184 -182q125 115 301 115t301 -115l185 182l49 -49l-185 -184q111 -121 111 -295q0 -158 -113 -293l187 -186l-49 -50l-187 187q-125 -113 -295 -113q-172 0 -299 109zM944 717
q0 158 -112.5 271.5t-270.5 113.5t-269.5 -113t-111.5 -272q0 -158 111.5 -270.5t269.5 -112.5t270.5 112.5t112.5 270.5z" />
    <glyph glyph-name="yen" unicode="&#xa5;" horiz-adv-x="1122" 
d="M1024 801h-297l-125 -211h422v-82h-424v-508h-90v508h-410v82h406l-121 211h-285v82h238l-275 483h105l389 -686l397 686h105l-285 -483h250v-82z" />
    <glyph glyph-name="brokenbar" unicode="&#xa6;" 
d="M471 799v737h82v-737h-82zM471 -512v737h82v-737h-82z" />
    <glyph glyph-name="section" unicode="&#xa7;" horiz-adv-x="1122" 
d="M238 27h90q0 -147 57 -207q66 -66 180 -66q108 0 172 64t64 162q0 105 -68 170q-54 51 -213 96q-48 13 -76 22t-68.5 30.5t-72.5 49.5q-98 91 -98 238q0 131 67 215q27 34 66 63t60.5 39.5t37.5 16.5q-87 39 -137 100q-59 72 -59 178q0 69 24.5 130t65.5 102
q90 86 241 86q70 0 139 -23t111 -66q84 -86 84 -264h-90v19q0 60 -17.5 112t-49.5 82q-62 58 -170 58q-114 0 -181 -62q-63 -57 -63 -160q0 -95 63 -155q25 -24 100 -59t113 -46q149 -44 221 -116q87 -87 87 -238q0 -123 -62 -203q-55 -73 -151 -110q91 -45 141 -117
q49 -73 49 -178q0 -68 -16 -123t-66 -105q-88 -90 -252 -90q-153 0 -233 74q-90 85 -90 281zM561 862q-117 0 -192 -78q-70 -73 -70 -188q0 -121 70 -186q37 -35 91 -55.5t101 -20.5q113 0 193 80q69 73 69 184q0 119 -71 190q-70 74 -191 74z" />
    <glyph glyph-name="dieresis" unicode="&#xa8;" 
d="M268 1077q0 31 21.5 52.5t52.5 21.5t52.5 -21.5t21.5 -52.5t-21.5 -52t-52.5 -21t-52.5 21t-21.5 52zM608 1077q0 31 21.5 52.5t52.5 21.5t52.5 -21.5t21.5 -52.5t-21.5 -52t-52.5 -21t-52.5 21t-21.5 52z" />
    <glyph glyph-name="copyright" unicode="&#xa9;" horiz-adv-x="1515" 
d="M55 682q0 143 55.5 273.5t149.5 225t224.5 150t273.5 55.5t273 -55.5t224 -150t149.5 -225t55.5 -273.5t-55.5 -272.5t-149.5 -224t-224 -150t-273 -55.5t-273.5 55.5t-224.5 150t-149.5 224t-55.5 272.5zM1391 682q0 130 -50.5 249t-135 205t-202 137.5t-245.5 51.5
t-245.5 -51.5t-202 -137.5t-135 -205t-50.5 -249t50.5 -248.5t135.5 -204.5t202.5 -137t244.5 -51t244.5 51t202.5 137t135.5 204.5t50.5 248.5zM1051 971v-109q-103 139 -267 139q-141 0 -232 -93t-91 -236q0 -138 93 -231t232 -93q74 0 143 33.5t122 99.5v-106
q-125 -101 -265 -101q-172 0 -287.5 113.5t-115.5 286.5q0 174 115.5 287.5t287.5 113.5q152 0 265 -104z" />
    <glyph glyph-name="ordfeminine" unicode="&#xaa;" horiz-adv-x="692" 
d="M545 1260v94h53v-549h-53v98q-32 -50 -84 -78q-54 -32 -127 -32q-120 0 -193 73q-80 80 -80 213q0 135 80 215q72 72 197 72q70 0 123 -31q49 -25 84 -75zM334 1317q-97 0 -156 -62t-59 -174q0 -118 69 -184q58 -55 146 -55t145 57q70 70 70 184q0 108 -66 174
q-60 60 -149 60zM76 666h522v-70h-522v70z" />
    <glyph glyph-name="guillemotleft" unicode="&#xab;" horiz-adv-x="712" 
d="M164 424l221 -258l-53 -49l-266 307l266 307l53 -49zM381 424l221 -258l-53 -49l-266 307l266 307l53 -49z" />
    <glyph glyph-name="logicalnot" unicode="&#xac;" 
d="M956 0h-82v469h-806v78h888v-547z" />
    <glyph glyph-name="uni00AD" unicode="&#xad;" horiz-adv-x="614" 
d="M102 377v94h410v-94h-410z" />
    <glyph glyph-name="registered" unicode="&#xae;" horiz-adv-x="1515" 
d="M55 682q0 143 55.5 273.5t149.5 225t224.5 150t273.5 55.5t273 -55.5t224 -150t149.5 -225t55.5 -273.5t-55.5 -272.5t-149.5 -224t-224 -150t-273 -55.5t-273.5 55.5t-224.5 150t-149.5 224t-55.5 272.5zM1391 682q0 130 -50.5 249t-135 205t-202 137.5t-245.5 51.5
t-245.5 -51.5t-202 -137.5t-135 -205t-50.5 -249t50.5 -248.5t135.5 -204.5t202.5 -137t244.5 -51t244.5 51t202.5 137t135.5 204.5t50.5 248.5zM1014 276h-82l-240 351h-14v-351h-70v758h127q125 0 183.5 -48t58.5 -159q0 -136 -131 -186q-21 -7 -40 -10.5t-28 -3.5h-8z
M678 971v-281h70q157 0 157 139q0 40 -12.5 68t-29 42t-43 22t-43 9t-40.5 1h-59z" />
    <glyph glyph-name="macron" unicode="&#xaf;" 
d="M236 1010v80h552v-80h-552z" />
    <glyph glyph-name="degree" unicode="&#xb0;" 
d="M512 1366q122 0 199 -75t77 -193t-77 -193.5t-199 -75.5t-199 75.5t-77 193.5t77 193t199 75zM512 1309q-95 0 -153 -60t-58 -151t58 -151t153 -60t153 60t58 151t-58 151t-153 60z" />
    <glyph glyph-name="plusminus" unicode="&#xb1;" 
d="M68 694v78h403v371h82v-371h403v-78h-403v-370h-82v370h-403zM68 156v77h888v-77h-888z" />
    <glyph glyph-name="twosuperior" unicode="&#xb2;" horiz-adv-x="675" 
d="M580 547h-504l299 346q67 78 84 108q43 67 43 144q0 69 -44.5 113.5t-119.5 44.5q-80 0 -127 -52q-43 -47 -43 -116h-74q0 102 66 172q65 69 180 69q107 0 175.5 -65.5t68.5 -165.5q0 -85 -54 -170q-4 -5 -18 -24.5t-27 -37.5t-20 -26l-225 -266h340v-74z" />
    <glyph glyph-name="threesuperior" unicode="&#xb3;" horiz-adv-x="675" 
d="M98 748h74q3 -45 25 -76q20 -28 55.5 -45t71.5 -17q66 0 112.5 49.5t46.5 122.5q0 93 -82 133q-46 21 -114 21v74q71 0 119 34q67 49 67 125q0 57 -35 95.5t-98 38.5t-100 -39q-37 -37 -37 -93h-74q4 90 59 148q50 57 152 57q98 0 156.5 -59.5t58.5 -145.5
q0 -62 -31 -115.5t-98 -80.5q66 -20 102.5 -74t36.5 -125q0 -105 -69 -172t-172 -67q-69 0 -119.5 32t-77.5 74q-29 50 -29 105z" />
    <glyph glyph-name="acute" unicode="&#xb4;" 
d="M625 1270l88 -51l-215 -263l-62 33z" />
    <glyph glyph-name="mu" unicode="&#xb5;" 
d="M229 -471h-82v1307h82v-424q0 -93 15 -158.5t65 -116.5q79 -82 191 -82q121 0 208 102t87 279v400h82v-836h-82v184q-28 -74 -88 -131q-83 -76 -211 -76q-178 0 -267 166v-614z" />
    <glyph glyph-name="mu" unicode="&#x3bc;" 
d="M229 -471h-82v1307h82v-424q0 -93 15 -158.5t65 -116.5q79 -82 191 -82q121 0 208 102t87 279v400h82v-836h-82v184q-28 -74 -88 -131q-83 -76 -211 -76q-178 0 -267 166v-614z" />
    <glyph glyph-name="paragraph" unicode="&#xb6;" horiz-adv-x="1087" 
d="M526 -195h-73v832h-19q-202 0 -307 111q-90 94 -90 249q0 171 113 271q109 98 325 98h473v-68h-108v-1493h-74v1493h-240v-1493z" />
    <glyph glyph-name="periodcentered" unicode="&#xb7;" horiz-adv-x="409" 
d="M106 696q0 41 29 70t70 29t69.5 -29t28.5 -70t-28.5 -69.5t-69.5 -28.5t-70 28.5t-29 69.5z" />
    <glyph glyph-name="cedilla" unicode="&#xb8;" 
d="M549 -102l94 -41l-205 -254l-57 32z" />
    <glyph glyph-name="onesuperior" unicode="&#xb9;" horiz-adv-x="675" 
d="M311 547v745h-127l25 74h180v-819h-78z" />
    <glyph glyph-name="ordmasculine" unicode="&#xba;" horiz-adv-x="700" 
d="M356 1366q125 0 205 -86q78 -84 78 -199q0 -122 -76 -202q-79 -86 -215 -86q-126 0 -205 79q-82 82 -82 205q0 124 78 205q80 84 217 84zM76 666h547v-70h-547v70zM348 1317q-94 0 -162 -68q-67 -67 -67 -170t71 -174q65 -63 156 -63q96 0 162 61q74 70 74 176
q0 108 -72 176q-66 62 -162 62z" />
    <glyph glyph-name="guillemotright" unicode="&#xbb;" horiz-adv-x="712" 
d="M332 424l-221 258l53 49l266 -307l-266 -307l-53 49zM549 424l-221 258l53 49l266 -307l-266 -307l-53 49z" />
    <glyph glyph-name="onequarter" unicode="&#xbc;" horiz-adv-x="1556" 
d="M311 547v745h-127l25 74h180v-819h-78zM385 2l807 1395l61 -33l-807 -1395zM1393 846v-617h114v-73h-114v-156h-78v156h-418zM1040 229h275v389z" />
    <glyph glyph-name="onehalf" unicode="&#xbd;" horiz-adv-x="1556" 
d="M311 547v745h-127l25 74h180v-819h-78zM324 2l806 1395l62 -33l-807 -1395zM1460 0h-504l299 346q66 76 84 109q43 67 43 143q0 69 -44 113.5t-119 44.5q-81 0 -127 -51q-43 -47 -43 -117h-74q0 103 65 172t181 69q107 0 175 -65.5t68 -165.5q0 -87 -53 -170
q-4 -5 -18 -24.5t-27 -37.5t-20 -26l-226 -266h340v-74z" />
    <glyph glyph-name="threequarters" unicode="&#xbe;" horiz-adv-x="1556" 
d="M98 748h74q3 -45 25 -76q20 -28 55.5 -45t71.5 -17q66 0 112.5 49.5t46.5 122.5q0 93 -82 133q-46 21 -114 21v74q71 0 119 34q67 49 67 125q0 57 -35 95.5t-98 38.5t-100 -39q-37 -37 -37 -93h-74q4 90 59 148q50 57 152 57q98 0 156.5 -59.5t58.5 -145.5
q0 -62 -31 -115.5t-98 -80.5q66 -20 102.5 -74t36.5 -125q0 -105 -69 -172t-172 -67q-69 0 -119.5 32t-77.5 74q-29 50 -29 105zM426 2l807 1395l61 -33l-807 -1395zM1393 846v-617h114v-73h-114v-156h-78v156h-418zM1040 229h275v389z" />
    <glyph glyph-name="questiondown" unicode="&#xbf;" horiz-adv-x="954" 
d="M279 356h-82q0 109 43 181q31 53 90.5 85.5t142.5 32.5q60 0 115.5 -20t91.5 -53q37 -34 59.5 -90t22.5 -117q0 -127 -90 -203q-55 -46 -189 -78q-65 -15 -109.5 -33.5t-76.5 -52.5q-51 -58 -51 -168q0 -118 61 -184q63 -70 174 -70t174 70q58 63 58 184q0 38 -15 82h90
q15 -49 15 -94q0 -153 -90 -238q-93 -86 -238 -86q-150 0 -239 93q-84 86 -84 239q0 132 73 217q67 74 183 105l52 13t55 14.5t44.5 16.5t42.5 25q70 56 70 152q0 85 -51 139q-56 60 -146 60q-109 0 -162 -74q-34 -48 -34 -148zM551 834q0 -32 -22 -54t-54 -22t-54 22
t-22 54t22 53.5t54 21.5t54 -21.5t22 -53.5z" />
    <glyph glyph-name="Agrave" unicode="&#xc0;" horiz-adv-x="1200" 
d="M1073 0l-182 449h-582l-182 -449h-98l575 1407l567 -1407h-98zM342 530h516l-256 648zM637 1440l-275 258l103 51l237 -272z" />
    <glyph glyph-name="Aacute" unicode="&#xc1;" horiz-adv-x="1200" 
d="M1073 0l-182 449h-582l-182 -449h-98l575 1407l567 -1407h-98zM342 530h516l-256 648zM735 1749l103 -51l-275 -258l-65 37z" />
    <glyph glyph-name="Acircumflex" unicode="&#xc2;" horiz-adv-x="1200" 
d="M1073 0l-182 449h-582l-182 -449h-98l575 1407l567 -1407h-98zM342 530h516l-256 648zM600 1610l-197 -131l-69 55l266 184l266 -184l-69 -55z" />
    <glyph glyph-name="Atilde" unicode="&#xc3;" horiz-adv-x="1200" 
d="M1073 0l-182 449h-582l-182 -449h-98l575 1407l567 -1407h-98zM342 530h516l-256 648zM393 1468l-59 45q22 50 47 78q42 45 92 45t131 -34q12 -5 35 -14t33 -12.5t25 -7t28 -3.5q27 0 51 24q23 26 31 53l59 -45q-18 -54 -57 -88t-94 -34q-41 0 -119 34q-4 2 -22.5 9.5
t-26.5 10.5t-22.5 8t-25.5 7t-22 2q-35 0 -57 -28q-12 -15 -27 -50z" />
    <glyph glyph-name="Adieresis" unicode="&#xc4;" horiz-adv-x="1200" 
d="M1073 0l-182 449h-582l-182 -449h-98l575 1407l567 -1407h-98zM342 530h516l-256 648zM332 1597q0 32 23 55t55 23t54.5 -23t22.5 -55t-22.5 -54.5t-54.5 -22.5t-55 22.5t-23 54.5zM713 1597q0 32 23 55t55 23t54.5 -23t22.5 -55t-22.5 -54.5t-54.5 -22.5t-55 22.5
t-23 54.5z" />
    <glyph glyph-name="Aring" unicode="&#xc5;" horiz-adv-x="1200" 
d="M1073 0l-182 449h-582l-182 -449h-98l575 1407l567 -1407h-98zM342 530h516l-256 648zM436 1612q0 68 48 116t116 48t116 -48t48 -116t-48 -116t-116 -48t-116 48t-48 116zM516 1612q0 -37 23.5 -60.5t60.5 -23.5t60.5 23.5t23.5 60.5t-23.5 60.5t-60.5 23.5t-60.5 -23.5
t-23.5 -60.5z" />
    <glyph glyph-name="AE" unicode="&#xc6;" horiz-adv-x="1744" 
d="M1071 0l-182 449h-584l-178 -449h-98l551 1366h591l35 -82h-563l203 -496h549l35 -81h-549l254 -625h559l37 -82h-660zM338 530h516l-260 644z" />
    <glyph glyph-name="Ccedilla" unicode="&#xc7;" horiz-adv-x="1388" 
d="M1278 1206v-119q-88 103 -208.5 159.5t-252.5 56.5q-129 0 -243 -49.5t-194.5 -134t-127.5 -200t-47 -243.5q0 -117 37.5 -219.5t99.5 -174t142 -123t165.5 -76t169.5 -24.5q115 0 238.5 50.5t220.5 156.5v-119q-99 -87 -217.5 -128.5t-237.5 -41.5q-200 0 -364.5 96
t-256 257t-91.5 350q0 193 94.5 355t257 255.5t356.5 93.5q74 0 144 -15.5t118 -35.5t93 -48t65.5 -45t38.5 -34zM799 -102l94 -54l-221 -258l-62 37z" />
    <glyph glyph-name="Egrave" unicode="&#xc8;" horiz-adv-x="950" 
d="M840 1366v-82h-566v-496h553v-81h-553v-625h566v-82h-656v1366h656zM569 1440l-274 258l102 51l238 -272z" />
    <glyph glyph-name="Eacute" unicode="&#xc9;" horiz-adv-x="950" 
d="M840 1366v-82h-566v-496h553v-81h-553v-625h566v-82h-656v1366h656zM647 1749l103 -51l-275 -258l-65 37z" />
    <glyph glyph-name="Ecircumflex" unicode="&#xca;" horiz-adv-x="950" 
d="M840 1366v-82h-566v-496h553v-81h-553v-625h566v-82h-656v1366h656zM512 1610l-197 -131l-69 55l266 184l266 -184l-69 -55z" />
    <glyph glyph-name="Edieresis" unicode="&#xcb;" horiz-adv-x="950" 
d="M840 1366v-82h-566v-496h553v-81h-553v-625h566v-82h-656v1366h656zM244 1597q0 32 23 55t55 23t54.5 -23t22.5 -55t-22.5 -54.5t-54.5 -22.5t-55 22.5t-23 54.5zM625 1597q0 32 22.5 55t54.5 23t55 -23t23 -55t-23 -54.5t-55 -22.5t-54.5 22.5t-22.5 54.5z" />
    <glyph glyph-name="Igrave" unicode="&#xcc;" horiz-adv-x="458" 
d="M184 1366h90v-1366h-90v1366zM225 1440l-215 274l115 35l184 -279z" />
    <glyph glyph-name="Iacute" unicode="&#xcd;" horiz-adv-x="458" 
d="M184 1366h90v-1366h-90v1366zM332 1749l117 -35l-218 -274l-81 30z" />
    <glyph glyph-name="Icircumflex" unicode="&#xce;" horiz-adv-x="458" 
d="M184 1366h90v-1366h-90v1366zM229 1602l-163 -123l-72 57l235 182l236 -182l-72 -55z" />
    <glyph glyph-name="Idieresis" unicode="&#xcf;" horiz-adv-x="458" 
d="M184 1366h90v-1366h-90v1366zM20 1597q0 32 23 55t55 23t55 -23t23 -55t-23 -54.5t-55 -22.5t-55 22.5t-23 54.5zM283 1597q0 32 22.5 55t54.5 23t55 -23t23 -55t-23 -54.5t-55 -22.5t-54.5 22.5t-22.5 54.5z" />
    <glyph glyph-name="Eth" unicode="&#xd0;" horiz-adv-x="1265" 
d="M455 0h-271v707h-184v81h184v578h271q313 0 503 -190q101 -101 149 -234.5t48 -259.5t-48 -258.5t-149 -233.5q-190 -190 -503 -190zM274 1284v-496h279v-81h-279v-625h179q270 0 439 167t169 433q0 263 -170 432.5t-438 169.5h-179z" />
    <glyph glyph-name="Ntilde" unicode="&#xd1;" horiz-adv-x="1605" 
d="M274 0h-90v1380l1147 -1200v1186h90v-1401l-1147 1200v-1165zM596 1468l-59 45q22 50 47 78q42 45 92 45t131 -34q12 -5 35 -14t33 -12.5t25 -7t28 -3.5q27 0 51 24q23 26 31 53l59 -45q-18 -54 -57 -88t-94 -34q-41 0 -119 34q-4 2 -22.5 9.5t-26.5 10.5t-22.5 8
t-25.5 7t-22 2q-35 0 -57 -28q-12 -15 -27 -50z" />
    <glyph glyph-name="Ograve" unicode="&#xd2;" horiz-adv-x="1638" 
d="M819 1384q196 0 359 -93.5t256.5 -255t93.5 -355.5q0 -145 -55 -275t-149.5 -224t-226 -149t-278.5 -55q-148 0 -279.5 55t-225.5 149t-148.5 224t-54.5 275t55 275.5t149 224.5t225.5 149t278.5 55zM819 59q130 0 244.5 48.5t195.5 131.5t128 197.5t47 243.5
q0 173 -79.5 315.5t-221 225t-314.5 82.5t-314 -82.5t-220.5 -225t-79.5 -315.5q0 -172 79.5 -314t220.5 -224.5t314 -82.5zM856 1440l-274 258l102 51l238 -272z" />
    <glyph glyph-name="Oacute" unicode="&#xd3;" horiz-adv-x="1638" 
d="M819 1384q196 0 359 -93.5t256.5 -255t93.5 -355.5q0 -145 -55 -275t-149.5 -224t-226 -149t-278.5 -55q-148 0 -279.5 55t-225.5 149t-148.5 224t-54.5 275t55 275.5t149 224.5t225.5 149t278.5 55zM819 59q130 0 244.5 48.5t195.5 131.5t128 197.5t47 243.5
q0 173 -79.5 315.5t-221 225t-314.5 82.5t-314 -82.5t-220.5 -225t-79.5 -315.5q0 -172 79.5 -314t220.5 -224.5t314 -82.5zM954 1749l103 -51l-275 -258l-65 37z" />
    <glyph glyph-name="Ocircumflex" unicode="&#xd4;" horiz-adv-x="1638" 
d="M819 1384q196 0 359 -93.5t256.5 -255t93.5 -355.5q0 -145 -55 -275t-149.5 -224t-226 -149t-278.5 -55q-148 0 -279.5 55t-225.5 149t-148.5 224t-54.5 275t55 275.5t149 224.5t225.5 149t278.5 55zM819 59q130 0 244.5 48.5t195.5 131.5t128 197.5t47 243.5
q0 173 -79.5 315.5t-221 225t-314.5 82.5t-314 -82.5t-220.5 -225t-79.5 -315.5q0 -172 79.5 -314t220.5 -224.5t314 -82.5zM819 1610l-196 -131l-70 55l266 184l266 -184l-69 -55z" />
    <glyph glyph-name="Otilde" unicode="&#xd5;" horiz-adv-x="1638" 
d="M819 1384q196 0 359 -93.5t256.5 -255t93.5 -355.5q0 -145 -55 -275t-149.5 -224t-226 -149t-278.5 -55q-148 0 -279.5 55t-225.5 149t-148.5 224t-54.5 275t55 275.5t149 224.5t225.5 149t278.5 55zM819 59q130 0 244.5 48.5t195.5 131.5t128 197.5t47 243.5
q0 173 -79.5 315.5t-221 225t-314.5 82.5t-314 -82.5t-220.5 -225t-79.5 -315.5q0 -172 79.5 -314t220.5 -224.5t314 -82.5zM612 1468l-59 45q22 50 47 78q42 45 92 45t131 -34q12 -5 35 -14t33 -12.5t25 -7t28 -3.5q27 0 51 24q23 26 31 53l59 -45q-18 -54 -57 -88t-94 -34
q-41 0 -119 34q-4 2 -22.5 9.5t-26.5 10.5t-22.5 8t-25.5 7t-22 2q-35 0 -57 -28q-12 -15 -27 -50z" />
    <glyph glyph-name="Odieresis" unicode="&#xd6;" horiz-adv-x="1638" 
d="M819 1384q196 0 359 -93.5t256.5 -255t93.5 -355.5q0 -145 -55 -275t-149.5 -224t-226 -149t-278.5 -55q-148 0 -279.5 55t-225.5 149t-148.5 224t-54.5 275t55 275.5t149 224.5t225.5 149t278.5 55zM819 59q130 0 244.5 48.5t195.5 131.5t128 197.5t47 243.5
q0 173 -79.5 315.5t-221 225t-314.5 82.5t-314 -82.5t-220.5 -225t-79.5 -315.5q0 -172 79.5 -314t220.5 -224.5t314 -82.5zM551 1597q0 32 23 55t55 23t55 -23t23 -55t-23 -54.5t-55 -22.5t-55 22.5t-23 54.5zM932 1597q0 32 23 55t55 23t54.5 -23t22.5 -55t-22.5 -54.5
t-54.5 -22.5t-55 22.5t-23 54.5z" />
    <glyph glyph-name="multiply" unicode="&#xd7;" 
d="M137 354l320 320l-320 319l56 56l319 -320l319 320l56 -56l-320 -319l320 -320l-56 -55l-319 319l-319 -319z" />
    <glyph glyph-name="Oslash" unicode="&#xd8;" horiz-adv-x="1638" 
d="M131 43l162 162q-182 203 -182 475q0 194 93.5 355.5t256.5 255t358 93.5q272 0 473 -176l160 162l55 -55l-159 -160q180 -203 180 -475q0 -194 -94 -355.5t-257 -254.5t-358 -93q-272 0 -473 175l-160 -162zM1286 1092l-878 -881q177 -152 411 -152q129 0 243.5 48.5
t195.5 131.5t128.5 197.5t47.5 243.5q0 239 -148 412zM354 266l877 883q-171 154 -412 154q-173 0 -314 -83t-220.5 -225.5t-79.5 -314.5q0 -236 149 -414z" />
    <glyph glyph-name="Ugrave" unicode="&#xd9;" horiz-adv-x="1298" 
d="M184 1366h90v-854q0 -108 11 -173t47 -122q28 -46 69.5 -79t86.5 -49t84.5 -23t76.5 -7q85 0 174.5 36t143.5 122q36 57 46.5 121.5t10.5 173.5v854h90v-854q0 -127 -14.5 -203t-63.5 -147q-126 -185 -387 -185t-387 185q-49 71 -63.5 147t-14.5 203v854zM686 1440
l-274 258l102 51l238 -272z" />
    <glyph glyph-name="Uacute" unicode="&#xda;" horiz-adv-x="1298" 
d="M184 1366h90v-854q0 -108 11 -173t47 -122q28 -46 69.5 -79t86.5 -49t84.5 -23t76.5 -7q85 0 174.5 36t143.5 122q36 57 46.5 121.5t10.5 173.5v854h90v-854q0 -127 -14.5 -203t-63.5 -147q-126 -185 -387 -185t-387 185q-49 71 -63.5 147t-14.5 203v854zM784 1749
l103 -51l-275 -258l-65 37z" />
    <glyph glyph-name="Ucircumflex" unicode="&#xdb;" horiz-adv-x="1298" 
d="M184 1366h90v-854q0 -108 11 -173t47 -122q28 -46 69.5 -79t86.5 -49t84.5 -23t76.5 -7q85 0 174.5 36t143.5 122q36 57 46.5 121.5t10.5 173.5v854h90v-854q0 -127 -14.5 -203t-63.5 -147q-126 -185 -387 -185t-387 185q-49 71 -63.5 147t-14.5 203v854zM649 1610
l-196 -131l-70 55l266 184l266 -184l-69 -55z" />
    <glyph glyph-name="Udieresis" unicode="&#xdc;" horiz-adv-x="1298" 
d="M184 1366h90v-854q0 -108 11 -173t47 -122q28 -46 69.5 -79t86.5 -49t84.5 -23t76.5 -7q85 0 174.5 36t143.5 122q36 57 46.5 121.5t10.5 173.5v854h90v-854q0 -127 -14.5 -203t-63.5 -147q-126 -185 -387 -185t-387 185q-49 71 -63.5 147t-14.5 203v854zM381 1597
q0 32 23 55t55 23t55 -23t23 -55t-23 -54.5t-55 -22.5t-55 22.5t-23 54.5zM762 1597q0 32 23 55t55 23t55 -23t23 -55t-23 -54.5t-55 -22.5t-55 22.5t-23 54.5z" />
    <glyph glyph-name="Yacute" unicode="&#xdd;" horiz-adv-x="1056" 
d="M477 0v584l-448 782h102l393 -690l402 690h102l-461 -782v-584h-90zM664 1749l102 -51l-274 -258l-66 37z" />
    <glyph glyph-name="Thorn" unicode="&#xde;" horiz-adv-x="913" 
d="M184 0v1366h90v-246h175q174 0 286.5 -93.5t112.5 -262.5q0 -168 -109 -264.5t-288 -96.5h-177v-403h-90zM274 1038v-553h181q135 0 217 74.5t82 202.5t-83 202t-231 74h-166z" />
    <glyph glyph-name="germandbls" unicode="&#xdf;" horiz-adv-x="985" 
d="M231 0h-81v758h-142v78h142v335q0 84 16 151t67 118q78 78 216 78q119 0 194 -66q98 -84 98 -256q0 -114 -47 -186q-41 -63 -112 -97q108 -35 198 -118q127 -117 127 -312q0 -202 -133 -338q-136 -139 -344 -155v82q87 7 164.5 44t130.5 95q96 107 96 258q0 166 -102 272
q-52 55 -128.5 89t-160.5 40v72q43 2 82.5 17.5t53.5 26t22 18.5q67 62 67 182q0 124 -55 190q-57 64 -156 64q-97 0 -151 -56q-62 -64 -62 -200v-1184z" />
    <glyph glyph-name="agrave" unicode="&#xe0;" horiz-adv-x="1056" 
d="M827 690v146h82v-836h-82v150q-59 -90 -146 -131.5t-179 -41.5q-82 0 -156 31t-130 86.5t-89 139.5t-33 184q0 194 112.5 315t295.5 121q209 0 325 -164zM506 776q-133 0 -229.5 -95t-96.5 -257q0 -96 37 -179t113.5 -136.5t177.5 -53.5q76 0 138.5 30.5t102 82t61 117.5
t21.5 139q0 89 -30 159t-79 110.5t-104.5 61.5t-111.5 21zM549 956l-215 263l88 51l188 -281z" />
    <glyph glyph-name="aacute" unicode="&#xe1;" horiz-adv-x="1056" 
d="M827 690v146h82v-836h-82v150q-59 -90 -146 -131.5t-179 -41.5q-82 0 -156 31t-130 86.5t-89 139.5t-33 184q0 194 112.5 315t295.5 121q209 0 325 -164zM506 776q-133 0 -229.5 -95t-96.5 -257q0 -96 37 -179t113.5 -136.5t177.5 -53.5q76 0 138.5 30.5t102 82t61 117.5
t21.5 139q0 89 -30 159t-79 110.5t-104.5 61.5t-111.5 21zM641 1270l88 -51l-215 -263l-61 33z" />
    <glyph glyph-name="acircumflex" unicode="&#xe2;" horiz-adv-x="1056" 
d="M827 690v146h82v-836h-82v150q-59 -90 -146 -131.5t-179 -41.5q-82 0 -156 31t-130 86.5t-89 139.5t-33 184q0 194 112.5 315t295.5 121q209 0 325 -164zM506 776q-133 0 -229.5 -95t-96.5 -257q0 -96 37 -179t113.5 -136.5t177.5 -53.5q76 0 138.5 30.5t102 82t61 117.5
t21.5 139q0 89 -30 159t-79 110.5t-104.5 61.5t-111.5 21zM530 1096l-184 -140l-65 52l249 192l250 -192l-65 -52z" />
    <glyph glyph-name="atilde" unicode="&#xe3;" horiz-adv-x="1056" 
d="M827 690v146h82v-836h-82v150q-59 -90 -146 -131.5t-179 -41.5q-82 0 -156 31t-130 86.5t-89 139.5t-33 184q0 194 112.5 315t295.5 121q209 0 325 -164zM506 776q-133 0 -229.5 -95t-96.5 -257q0 -96 37 -179t113.5 -136.5t177.5 -53.5q76 0 138.5 30.5t102 82t61 117.5
t21.5 139q0 89 -30 159t-79 110.5t-104.5 61.5t-111.5 21zM344 997l-53 39q18 52 47 78q39 39 94 39q15 0 31.5 -3t35.5 -9.5t28.5 -10t30.5 -13t22 -9.5q66 -27 96 -27q33 0 55 25q7 9 14.5 21.5t11 20.5t3.5 9l51 -41q-17 -49 -53 -82q-41 -35 -92 -35q-38 0 -119 35
q-6 2 -23 9t-22.5 9.5t-18.5 7t-20.5 6.5t-17.5 3.5t-19 1.5q-36 0 -57 -24q-18 -21 -25 -50z" />
    <glyph glyph-name="adieresis" unicode="&#xe4;" horiz-adv-x="1056" 
d="M827 690v146h82v-836h-82v150q-59 -90 -146 -131.5t-179 -41.5q-82 0 -156 31t-130 86.5t-89 139.5t-33 184q0 194 112.5 315t295.5 121q209 0 325 -164zM506 776q-133 0 -229.5 -95t-96.5 -257q0 -96 37 -179t113.5 -136.5t177.5 -53.5q76 0 138.5 30.5t102 82t61 117.5
t21.5 139q0 89 -30 159t-79 110.5t-104.5 61.5t-111.5 21zM307 1077q0 31 21.5 52.5t52.5 21.5t52.5 -21.5t21.5 -52.5t-21.5 -52t-52.5 -21t-52.5 21t-21.5 52zM647 1077q0 31 21.5 52.5t52.5 21.5t52.5 -21.5t21.5 -52.5t-21.5 -52t-52.5 -21t-52.5 21t-21.5 52z" />
    <glyph glyph-name="aring" unicode="&#xe5;" horiz-adv-x="1056" 
d="M827 690v146h82v-836h-82v150q-59 -90 -146 -131.5t-179 -41.5q-82 0 -156 31t-130 86.5t-89 139.5t-33 184q0 194 112.5 315t295.5 121q209 0 325 -164zM506 776q-133 0 -229.5 -95t-96.5 -257q0 -96 37 -179t113.5 -136.5t177.5 -53.5q76 0 138.5 30.5t102 82t61 117.5
t21.5 139q0 89 -30 159t-79 110.5t-104.5 61.5t-111.5 21zM383 1124q0 68 45.5 113t112.5 45t112 -45t45 -113t-45 -112.5t-112 -44.5q-68 0 -113 45t-45 112zM457 1124q0 -37 23.5 -60.5t60.5 -23.5t60.5 23.5t23.5 60.5t-23.5 60.5t-60.5 23.5t-60.5 -23.5t-23.5 -60.5z
" />
    <glyph glyph-name="ae" unicode="&#xe6;" horiz-adv-x="1622" 
d="M1530 406h-717q3 -157 94.5 -254t229.5 -97q106 0 181 55.5t120 133.5l69 -49q-62 -97 -157 -157.5t-215 -60.5q-118 0 -206.5 56t-137.5 153q-34 -103 -125.5 -156t-221.5 -53q-167 0 -259.5 77t-92.5 184q0 34 10 68t36.5 70.5t66 63.5t105.5 44.5t149 17.5
q81 0 145.5 -17.5t122.5 -68.5q0 170 -70.5 265t-220.5 95q-136 0 -284 -76v84q140 70 288 70q120 0 207.5 -59t126.5 -174q53 108 147.5 170.5t211.5 62.5q61 0 117.5 -17t106.5 -53.5t88 -88.5t60.5 -126.5t24.5 -162.5zM823 483h621q-19 127 -106 210t-208 83
q-120 0 -204.5 -84t-102.5 -209zM457 424q-135 0 -207 -53t-72 -133q0 -77 69 -130t197 -53q75 0 131 18t86.5 47t45 61t14.5 65q0 70 -63.5 124t-200.5 54z" />
    <glyph glyph-name="ccedilla" unicode="&#xe7;" horiz-adv-x="905" 
d="M817 748v-109q-120 137 -289 137q-152 0 -250 -103.5t-98 -258.5q0 -86 30.5 -156.5t81 -113.5t110.5 -66t122 -23q166 0 303 150v-111q-131 -117 -305 -117q-188 0 -308 124t-120 311q0 191 118.5 316.5t315.5 125.5q162 0 289 -106zM489 -102l95 -41l-205 -254l-57 32z
" />
    <glyph glyph-name="egrave" unicode="&#xe8;" horiz-adv-x="989" 
d="M895 408h-715q0 -155 98 -254t234 -99q98 0 174 52t117 139l69 -41q-21 -40 -50 -76t-72.5 -72.5t-107 -58t-136.5 -21.5q-190 0 -301 124t-111 313q0 105 34.5 190.5t92 139t129.5 82t150 28.5q171 0 283 -124.5t112 -321.5zM186 485h623q-15 126 -100.5 208.5
t-208.5 82.5q-124 0 -210 -83t-104 -208zM508 956l-215 263l88 51l188 -281z" />
    <glyph glyph-name="eacute" unicode="&#xe9;" horiz-adv-x="989" 
d="M895 408h-715q0 -155 98 -254t234 -99q98 0 174 52t117 139l69 -41q-21 -40 -50 -76t-72.5 -72.5t-107 -58t-136.5 -21.5q-190 0 -301 124t-111 313q0 105 34.5 190.5t92 139t129.5 82t150 28.5q171 0 283 -124.5t112 -321.5zM186 485h623q-15 126 -100.5 208.5
t-208.5 82.5q-124 0 -210 -83t-104 -208zM610 1270l88 -51l-215 -263l-61 33z" />
    <glyph glyph-name="ecircumflex" unicode="&#xea;" horiz-adv-x="989" 
d="M895 408h-715q0 -155 98 -254t234 -99q98 0 174 52t117 139l69 -41q-21 -40 -50 -76t-72.5 -72.5t-107 -58t-136.5 -21.5q-190 0 -301 124t-111 313q0 105 34.5 190.5t92 139t129.5 82t150 28.5q171 0 283 -124.5t112 -321.5zM186 485h623q-15 126 -100.5 208.5
t-208.5 82.5q-124 0 -210 -83t-104 -208zM512 1096l-184 -140l-66 52l250 192l250 -192l-66 -52z" />
    <glyph glyph-name="edieresis" unicode="&#xeb;" horiz-adv-x="989" 
d="M895 408h-715q0 -155 98 -254t234 -99q98 0 174 52t117 139l69 -41q-21 -40 -50 -76t-72.5 -72.5t-107 -58t-136.5 -21.5q-190 0 -301 124t-111 313q0 105 34.5 190.5t92 139t129.5 82t150 28.5q171 0 283 -124.5t112 -321.5zM186 485h623q-15 126 -100.5 208.5
t-208.5 82.5q-124 0 -210 -83t-104 -208zM254 1077q0 31 21.5 52.5t52.5 21.5t52 -21.5t21 -52.5t-21 -52t-52 -21t-52.5 21t-21.5 52zM594 1077q0 31 21.5 52.5t52.5 21.5t52 -21.5t21 -52.5t-21 -52t-52 -21t-52.5 21t-21.5 52z" />
    <glyph glyph-name="igrave" unicode="&#xec;" horiz-adv-x="376" 
d="M147 836h82v-836h-82v836zM184 956l-215 263l88 51l189 -281z" />
    <glyph glyph-name="iacute" unicode="&#xed;" horiz-adv-x="376" 
d="M147 836h82v-836h-82v836zM301 1270l88 -51l-215 -263l-61 33z" />
    <glyph glyph-name="icircumflex" unicode="&#xee;" horiz-adv-x="376" 
d="M147 836h82v-836h-82v836zM188 1087l-143 -122l-61 53l204 176l205 -176l-61 -53z" />
    <glyph glyph-name="idieresis" unicode="&#xef;" horiz-adv-x="376" 
d="M147 836h82v-836h-82v836zM-55 1077q0 31 21 52.5t52 21.5t52.5 -21.5t21.5 -52.5t-21.5 -52t-52.5 -21t-52 21t-21 52zM285 1077q0 31 21 52.5t52 21.5t52.5 -21.5t21.5 -52.5t-21.5 -52t-52.5 -21t-52 21t-21 52z" />
    <glyph glyph-name="eth" unicode="&#xf0;" horiz-adv-x="1056" 
d="M215 1303l10 75q132 -13 236 -59q88 -37 178 -107l299 101l25 -72l-261 -86q94 -91 148 -190q57 -103 85 -232.5t28 -245.5q0 -255 -134 -389q-121 -121 -299 -121q-182 0 -303 121q-62 62 -97.5 149t-35.5 187q0 205 131 336q121 125 312 125q192 0 301 -160h4
q-20 111 -80 213q-62 105 -150 176l-331 -108l-25 69l287 95q-142 95 -328 123zM877 446q0 176 -109 281q-90 90 -231 90q-151 0 -248 -102q-109 -112 -109 -285q0 -163 101 -268q47 -48 111.5 -77.5t137.5 -29.5q135 0 230 92q117 114 117 299z" />
    <glyph glyph-name="ntilde" unicode="&#xf1;" horiz-adv-x="905" 
d="M147 0v836h82v-131q83 149 256 149q52 0 95.5 -13.5t71 -35t41.5 -37t24 -31.5q41 -65 41 -211v-526h-82v526q0 118 -33 168q-48 82 -164 82q-139 0 -205 -117q-45 -80 -45 -225v-434h-82zM246 997l-53 39q18 52 47 78q39 39 94 39q15 0 31.5 -3t35 -9.5t29 -10.5
t30 -12.5t21.5 -9.5q66 -27 97 -27q33 0 55 25q7 9 14.5 21.5t11 20.5t3.5 9l51 -41q-16 -47 -54 -82q-41 -35 -92 -35q-37 0 -118 35q-6 2 -23 9t-22.5 9.5t-18.5 7t-20.5 6.5t-17.5 3.5t-19 1.5q-37 0 -58 -24q-16 -20 -24 -50z" />
    <glyph glyph-name="ograve" unicode="&#xf2;" horiz-adv-x="1064" 
d="M532 854q186 0 312.5 -126t126.5 -312t-126.5 -312.5t-312.5 -126.5t-312 126.5t-126 312.5t126 312t312 126zM532 55q150 0 251.5 104t101.5 257t-101.5 256.5t-251.5 103.5t-251 -103.5t-101 -256.5t101 -257t251 -104zM569 956l-215 263l88 51l189 -281z" />
    <glyph glyph-name="oacute" unicode="&#xf3;" horiz-adv-x="1064" 
d="M532 854q186 0 312.5 -126t126.5 -312t-126.5 -312.5t-312.5 -126.5t-312 126.5t-126 312.5t126 312t312 126zM532 55q150 0 251.5 104t101.5 257t-101.5 256.5t-251.5 103.5t-251 -103.5t-101 -256.5t101 -257t251 -104zM625 1270l88 -51l-215 -263l-62 33z" />
    <glyph glyph-name="ocircumflex" unicode="&#xf4;" horiz-adv-x="1064" 
d="M532 854q186 0 312.5 -126t126.5 -312t-126.5 -312.5t-312.5 -126.5t-312 126.5t-126 312.5t126 312t312 126zM532 55q150 0 251.5 104t101.5 257t-101.5 256.5t-251.5 103.5t-251 -103.5t-101 -256.5t101 -257t251 -104zM532 1096l-184 -140l-65 52l249 192l250 -192
l-65 -52z" />
    <glyph glyph-name="otilde" unicode="&#xf5;" horiz-adv-x="1064" 
d="M532 854q186 0 312.5 -126t126.5 -312t-126.5 -312.5t-312.5 -126.5t-312 126.5t-126 312.5t126 312t312 126zM532 55q150 0 251.5 104t101.5 257t-101.5 256.5t-251.5 103.5t-251 -103.5t-101 -256.5t101 -257t251 -104zM326 997l-54 39q18 52 47 78q39 39 95 39
q15 0 31.5 -3t35 -9.5t29 -10.5t30 -12.5t21.5 -9.5q66 -27 96 -27q34 0 56 25q7 9 14 21.5t10.5 20.5t3.5 9l52 -41q-16 -47 -54 -82q-41 -35 -92 -35q-38 0 -119 35q-7 3 -22.5 9.5t-22.5 9t-19 7t-19.5 6.5t-17.5 3.5t-19 1.5q-37 0 -58 -24q-16 -20 -24 -50z" />
    <glyph glyph-name="odieresis" unicode="&#xf6;" horiz-adv-x="1064" 
d="M532 854q186 0 312.5 -126t126.5 -312t-126.5 -312.5t-312.5 -126.5t-312 126.5t-126 312.5t126 312t312 126zM532 55q150 0 251.5 104t101.5 257t-101.5 256.5t-251.5 103.5t-251 -103.5t-101 -256.5t101 -257t251 -104zM289 1077q0 31 21 52.5t52 21.5t52.5 -21.5
t21.5 -52.5t-21.5 -52t-52.5 -21t-52 21t-21 52zM629 1077q0 31 21 52.5t52 21.5t52.5 -21.5t21.5 -52.5t-21.5 -52t-52.5 -21t-52 21t-21 52z" />
    <glyph glyph-name="divide" unicode="&#xf7;" 
d="M440 1061q0 29 21.5 50.5t50.5 21.5t50.5 -21.5t21.5 -50.5t-21.5 -50.5t-50.5 -21.5t-50.5 21.5t-21.5 50.5zM440 287q0 29 21.5 50t50.5 21t50.5 -21t21.5 -50t-21.5 -50.5t-50.5 -21.5t-50.5 21.5t-21.5 50.5zM68 635v78h888v-78h-888z" />
    <glyph glyph-name="oslash" unicode="&#xf8;" horiz-adv-x="1067" 
d="M82 27l111 108q-97 124 -97 281q0 186 126.5 312t312.5 126q163 0 278 -96l109 108l51 -51l-109 -106q109 -122 109 -293q0 -186 -126 -312.5t-312 -126.5q-170 0 -295 109l-107 -109zM807 649l-508 -504q97 -90 236 -90q150 0 251 104t101 257q0 135 -80 233zM252 195
l504 505q-97 76 -221 76q-150 0 -251.5 -103.5t-101.5 -256.5q0 -127 70 -221z" />
    <glyph glyph-name="ugrave" unicode="&#xf9;" horiz-adv-x="897" 
d="M147 836h82v-504q0 -144 54 -209q57 -68 166 -68q108 0 165 68q54 65 54 209v504h82v-527q0 -146 -64 -229q-79 -103 -237 -103q-159 0 -238 103q-64 83 -64 229v527zM467 956l-215 263l88 51l188 -281z" />
    <glyph glyph-name="uacute" unicode="&#xfa;" horiz-adv-x="897" 
d="M147 836h82v-504q0 -144 54 -209q57 -68 166 -68q108 0 165 68q54 65 54 209v504h82v-527q0 -146 -64 -229q-79 -103 -237 -103q-159 0 -238 103q-64 83 -64 229v527zM561 1270l88 -51l-215 -263l-61 33z" />
    <glyph glyph-name="ucircumflex" unicode="&#xfb;" horiz-adv-x="897" 
d="M147 836h82v-504q0 -144 54 -209q57 -68 166 -68q108 0 165 68q54 65 54 209v504h82v-527q0 -146 -64 -229q-79 -103 -237 -103q-159 0 -238 103q-64 83 -64 229v527zM449 1096l-185 -140l-65 52l250 192l249 -192l-65 -52z" />
    <glyph glyph-name="udieresis" unicode="&#xfc;" horiz-adv-x="897" 
d="M147 836h82v-504q0 -144 54 -209q57 -68 166 -68q108 0 165 68q54 65 54 209v504h82v-527q0 -146 -64 -229q-79 -103 -237 -103q-159 0 -238 103q-64 83 -64 229v527zM205 1077q0 31 21.5 52.5t52.5 21.5t52 -21.5t21 -52.5t-21 -52t-52 -21t-52.5 21t-21.5 52zM545 1077
q0 31 21 52.5t52 21.5t52.5 -21.5t21.5 -52.5t-21.5 -52t-52.5 -21t-52 21t-21 52z" />
    <glyph glyph-name="yacute" unicode="&#xfd;" horiz-adv-x="876" 
d="M217 -471l197 457l-398 850h95l350 -744l305 744h94l-549 -1307h-94zM551 1270l88 -51l-215 -263l-62 33z" />
    <glyph glyph-name="thorn" unicode="&#xfe;" horiz-adv-x="1056" 
d="M229 150v-621h-82v1964h82v-803q120 164 328 164q185 0 295.5 -122t110.5 -308q0 -92 -28.5 -173.5t-80.5 -142t-130 -96t-171 -35.5q-72 0 -132.5 20t-99.5 52.5t-58.5 55t-33.5 45.5zM551 55q153 0 239.5 104.5t86.5 264.5q0 165 -94 258.5t-230 93.5q-63 0 -121 -22.5
t-104.5 -64.5t-74.5 -109.5t-28 -151.5q0 -163 86.5 -268t239.5 -105z" />
    <glyph glyph-name="ydieresis" unicode="&#xff;" horiz-adv-x="876" 
d="M217 -471l197 457l-398 850h95l350 -744l305 744h94l-549 -1307h-94zM195 1077q0 31 21 52.5t52 21.5t52.5 -21.5t21.5 -52.5t-21.5 -52t-52.5 -21t-52 21t-21 52zM535 1077q0 31 21 52.5t52 21.5t52.5 -21.5t21.5 -52.5t-21.5 -52t-52.5 -21t-52 21t-21 52z" />
    <glyph glyph-name="Amacron" unicode="&#x100;" horiz-adv-x="1200" 
d="M1073 0l-182 449h-582l-182 -449h-98l575 1407l567 -1407h-98zM342 530h516l-256 648zM324 1536v90h553v-90h-553z" />
    <glyph glyph-name="amacron" unicode="&#x101;" horiz-adv-x="1056" 
d="M827 690v146h82v-836h-82v150q-59 -90 -146 -131.5t-179 -41.5q-82 0 -156 31t-130 86.5t-89 139.5t-33 184q0 194 112.5 315t295.5 121q209 0 325 -164zM506 776q-133 0 -229.5 -95t-96.5 -257q0 -96 37 -179t113.5 -136.5t177.5 -53.5q76 0 138.5 30.5t102 82t61 117.5
t21.5 139q0 89 -30 159t-79 110.5t-104.5 61.5t-111.5 21zM248 1010v80h553v-80h-553z" />
    <glyph glyph-name="Abreve" unicode="&#x102;" horiz-adv-x="1200" 
d="M1073 0l-182 449h-582l-182 -449h-98l575 1407l567 -1407h-98zM342 530h516l-256 648zM340 1692h82q11 -42 49 -70q48 -37 129 -37t129 37q38 28 49 70h82q-9 -69 -59 -119q-74 -74 -201 -74t-201 74q-50 50 -59 119z" />
    <glyph glyph-name="abreve" unicode="&#x103;" horiz-adv-x="1056" 
d="M827 690v146h82v-836h-82v150q-59 -90 -146 -131.5t-179 -41.5q-82 0 -156 31t-130 86.5t-89 139.5t-33 184q0 194 112.5 315t295.5 121q209 0 325 -164zM506 776q-133 0 -229.5 -95t-96.5 -257q0 -96 37 -179t113.5 -136.5t177.5 -53.5q76 0 138.5 30.5t102 82t61 117.5
t21.5 139q0 89 -30 159t-79 110.5t-104.5 61.5t-111.5 21zM270 1174h78q10 -46 51 -76q52 -39 127 -39t127 39q42 31 52 76h77q-8 -68 -59 -119q-74 -74 -197 -74q-122 0 -196 74q-52 52 -60 119z" />
    <glyph glyph-name="Aogonek" unicode="&#x104;" horiz-adv-x="1200" 
d="M1073 0l-182 449h-582l-182 -449h-98l575 1407l567 -1407q-56 -38 -94 -86q-45 -58 -45 -113q0 -44 31 -72t92 -28q47 0 107 18l-19 -75q-49 -17 -92 -17q-91 0 -148 48t-57 122q0 68 47 127q35 44 88 76h-8zM342 530h516l-256 648z" />
    <glyph glyph-name="aogonek" unicode="&#x105;" horiz-adv-x="1056" 
d="M827 690v146h82v-836q-56 -38 -94 -86q-45 -58 -45 -113q0 -44 31 -72t92 -28q46 0 106 18l-18 -73q-42 -17 -92 -17q-97 0 -147 51t-50 117q0 68 47 127q35 44 88 76v150q-59 -90 -146 -131.5t-179 -41.5q-82 0 -156 31t-130 86.5t-89 139.5t-33 184q0 194 112.5 315
t295.5 121q209 0 325 -164zM506 776q-133 0 -229.5 -95t-96.5 -257q0 -96 37 -179t113.5 -136.5t177.5 -53.5q76 0 138.5 30.5t102 82t61 117.5t21.5 139q0 89 -30 159t-79 110.5t-104.5 61.5t-111.5 21z" />
    <glyph glyph-name="Cacute" unicode="&#x106;" horiz-adv-x="1388" 
d="M1278 1206v-119q-88 103 -208.5 159.5t-252.5 56.5q-129 0 -243 -49.5t-194.5 -134t-127.5 -200t-47 -243.5q0 -117 37.5 -219.5t99.5 -174t142 -123t165.5 -76t169.5 -24.5q115 0 238.5 50.5t220.5 156.5v-119q-99 -87 -217.5 -128.5t-237.5 -41.5q-200 0 -364.5 96
t-256 257t-91.5 350q0 193 94.5 355t257 255.5t356.5 93.5q74 0 144 -15.5t118 -35.5t93 -48t65.5 -45t38.5 -34zM913 1749l103 -51l-275 -258l-65 37z" />
    <glyph glyph-name="cacute" unicode="&#x107;" horiz-adv-x="905" 
d="M817 748v-109q-120 137 -289 137q-152 0 -250 -103.5t-98 -258.5q0 -86 30.5 -156.5t81 -113.5t110.5 -66t122 -23q166 0 303 150v-111q-131 -117 -305 -117q-188 0 -308 124t-120 311q0 191 118.5 316.5t315.5 125.5q162 0 289 -106zM625 1270l88 -51l-215 -263l-62 33z
" />
    <glyph glyph-name="Ccircumflex" unicode="&#x108;" horiz-adv-x="1388" 
d="M1278 1206v-119q-88 103 -208.5 159.5t-252.5 56.5q-129 0 -243 -49.5t-194.5 -134t-127.5 -200t-47 -243.5q0 -117 37.5 -219.5t99.5 -174t142 -123t165.5 -76t169.5 -24.5q115 0 238.5 50.5t220.5 156.5v-119q-99 -87 -217.5 -128.5t-237.5 -41.5q-200 0 -364.5 96
t-256 257t-91.5 350q0 193 94.5 355t257 255.5t356.5 93.5q74 0 144 -15.5t118 -35.5t93 -48t65.5 -45t38.5 -34zM819 1610l-196 -131l-70 55l266 184l266 -184l-69 -55z" />
    <glyph glyph-name="ccircumflex" unicode="&#x109;" horiz-adv-x="905" 
d="M817 748v-109q-120 137 -289 137q-152 0 -250 -103.5t-98 -258.5q0 -86 30.5 -156.5t81 -113.5t110.5 -66t122 -23q166 0 303 150v-111q-131 -117 -305 -117q-188 0 -308 124t-120 311q0 191 118.5 316.5t315.5 125.5q162 0 289 -106zM532 1096l-184 -140l-65 52l249 192
l250 -192l-65 -52z" />
    <glyph glyph-name="Cdotaccent" unicode="&#x10a;" horiz-adv-x="1388" 
d="M1278 1206v-119q-88 103 -208.5 159.5t-252.5 56.5q-129 0 -243 -49.5t-194.5 -134t-127.5 -200t-47 -243.5q0 -117 37.5 -219.5t99.5 -174t142 -123t165.5 -76t169.5 -24.5q115 0 238.5 50.5t220.5 156.5v-119q-99 -87 -217.5 -128.5t-237.5 -41.5q-200 0 -364.5 96
t-256 257t-91.5 350q0 193 94.5 355t257 255.5t356.5 93.5q74 0 144 -15.5t118 -35.5t93 -48t65.5 -45t38.5 -34zM739 1599q0 37 23.5 60.5t60.5 23.5t60.5 -23.5t23.5 -60.5t-23.5 -60t-60.5 -23t-60.5 23t-23.5 60z" />
    <glyph glyph-name="cdotaccent" unicode="&#x10b;" horiz-adv-x="905" 
d="M817 748v-109q-120 137 -289 137q-152 0 -250 -103.5t-98 -258.5q0 -86 30.5 -156.5t81 -113.5t110.5 -66t122 -23q166 0 303 150v-111q-131 -117 -305 -117q-188 0 -308 124t-120 311q0 191 118.5 316.5t315.5 125.5q162 0 289 -106zM455 1079q0 35 22.5 57.5t57.5 22.5
t57 -22.5t22 -57.5t-22 -57.5t-57 -22.5t-57.5 22.5t-22.5 57.5z" />
    <glyph glyph-name="Ccaron" unicode="&#x10c;" horiz-adv-x="1388" 
d="M1278 1206v-119q-88 103 -208.5 159.5t-252.5 56.5q-129 0 -243 -49.5t-194.5 -134t-127.5 -200t-47 -243.5q0 -117 37.5 -219.5t99.5 -174t142 -123t165.5 -76t169.5 -24.5q115 0 238.5 50.5t220.5 156.5v-119q-99 -87 -217.5 -128.5t-237.5 -41.5q-200 0 -364.5 96
t-256 257t-91.5 350q0 193 94.5 355t257 255.5t356.5 93.5q74 0 144 -15.5t118 -35.5t93 -48t65.5 -45t38.5 -34zM819 1587l197 131l69 -55l-266 -184l-266 184l70 55z" />
    <glyph glyph-name="ccaron" unicode="&#x10d;" horiz-adv-x="905" 
d="M817 748v-109q-120 137 -289 137q-152 0 -250 -103.5t-98 -258.5q0 -86 30.5 -156.5t81 -113.5t110.5 -66t122 -23q166 0 303 150v-111q-131 -117 -305 -117q-188 0 -308 124t-120 311q0 191 118.5 316.5t315.5 125.5q162 0 289 -106zM532 1059l185 139l65 -53l-250 -193
l-249 193l65 53z" />
    <glyph glyph-name="Dcaron" unicode="&#x10e;" horiz-adv-x="1265" 
d="M455 0h-271v1366h271q313 0 503 -190q101 -101 149 -234.5t48 -259.5t-48 -258.5t-149 -233.5q-190 -190 -503 -190zM274 1284v-1202h179q270 0 439 167t169 433q0 263 -170 432.5t-438 169.5h-179zM471 1587l197 131l69 -55l-266 -184l-266 184l69 55z" />
    <glyph glyph-name="dcaron" unicode="&#x10f;" horiz-adv-x="1110" 
d="M827 690v803h82v-1493h-82v150q-58 -90 -145.5 -131.5t-177.5 -41.5q-80 0 -153 29t-131 83t-92 140.5t-34 192.5q0 110 35 195.5t94.5 135.5t130.5 75.5t150 25.5q208 0 323 -164zM504 776q-137 0 -230.5 -92.5t-93.5 -259.5q0 -88 27.5 -160t73.5 -116.5t104.5 -68.5
t122.5 -24q133 0 228 97.5t95 271.5q0 151 -88 251.5t-239 100.5zM987 1065l94 328l90 -29l-127 -320z" />
    <glyph glyph-name="Dcroat" unicode="&#x110;" horiz-adv-x="1265" 
d="M455 0h-271v707h-184v81h184v578h271q313 0 503 -190q101 -101 149 -234.5t48 -259.5t-48 -258.5t-149 -233.5q-190 -190 -503 -190zM274 1284v-496h279v-81h-279v-625h179q270 0 439 167t169 433q0 263 -170 432.5t-438 169.5h-179z" />
    <glyph glyph-name="dcroat" unicode="&#x111;" horiz-adv-x="1056" 
d="M827 690v461h-368v78h368v264h82v-264h148v-78h-148v-1151h-82v150q-58 -90 -145.5 -131.5t-177.5 -41.5q-80 0 -153 29t-131 83t-92 140.5t-34 192.5q0 110 35 195.5t94.5 135.5t130.5 75.5t150 25.5q208 0 323 -164zM504 776q-137 0 -230.5 -92.5t-93.5 -259.5
q0 -88 27.5 -160t73.5 -116.5t104.5 -68.5t122.5 -24q133 0 228 97.5t95 271.5q0 151 -88 251.5t-239 100.5z" />
    <glyph glyph-name="Emacron" unicode="&#x112;" horiz-adv-x="950" 
d="M840 1366v-82h-566v-496h553v-81h-553v-625h566v-82h-656v1366h656zM236 1536v90h552v-90h-552z" />
    <glyph glyph-name="emacron" unicode="&#x113;" horiz-adv-x="989" 
d="M895 408h-715q0 -155 98 -254t234 -99q98 0 174 52t117 139l69 -41q-21 -40 -50 -76t-72.5 -72.5t-107 -58t-136.5 -21.5q-190 0 -301 124t-111 313q0 105 34.5 190.5t92 139t129.5 82t150 28.5q171 0 283 -124.5t112 -321.5zM186 485h623q-15 126 -100.5 208.5
t-208.5 82.5q-124 0 -210 -83t-104 -208zM221 1010v80h553v-80h-553z" />
    <glyph glyph-name="Edotaccent" unicode="&#x116;" horiz-adv-x="950" 
d="M840 1366v-82h-566v-496h553v-81h-553v-625h566v-82h-656v1366h656zM428 1599q0 37 23.5 60.5t60.5 23.5t60.5 -23.5t23.5 -60.5t-23.5 -60t-60.5 -23t-60.5 23t-23.5 60z" />
    <glyph glyph-name="edotaccent" unicode="&#x117;" horiz-adv-x="989" 
d="M895 408h-715q0 -155 98 -254t234 -99q98 0 174 52t117 139l69 -41q-21 -40 -50 -76t-72.5 -72.5t-107 -58t-136.5 -21.5q-190 0 -301 124t-111 313q0 105 34.5 190.5t92 139t129.5 82t150 28.5q171 0 283 -124.5t112 -321.5zM186 485h623q-15 126 -100.5 208.5
t-208.5 82.5q-124 0 -210 -83t-104 -208zM418 1079q0 35 22.5 57.5t57.5 22.5t57.5 -22.5t22.5 -57.5t-22.5 -57.5t-57.5 -22.5t-57.5 22.5t-22.5 57.5z" />
    <glyph glyph-name="Eogonek" unicode="&#x118;" horiz-adv-x="950" 
d="M840 1366v-82h-566v-496h553v-81h-553v-625h566v-82h-82q-140 -94 -140 -197q0 -47 29 -73q31 -29 101 -29q55 0 100 18l-19 -75q-47 -17 -92 -17q-103 0 -159 58q-46 48 -46 112q0 67 48 127q35 44 88 76h-484v1366h656z" />
    <glyph glyph-name="eogonek" unicode="&#x119;" horiz-adv-x="993" 
d="M899 408h-719q0 -80 27.5 -146.5t68.5 -109.5q42 -44 105 -70.5t131 -26.5q98 0 180 56q67 49 111 135l69 -41q-68 -128 -223 -209q-81 -42 -121 -88q-41 -47 -41 -107q0 -50 35 -75q32 -25 88 -25q44 0 107 18l-19 -73q-42 -17 -92 -17q-95 0 -149 54q-47 47 -47 114
q0 52 32 105q25 42 70 75q-189 0 -301 115q-117 119 -117 322q0 202 123 325q53 52 128 83.5t155 31.5q76 0 148 -27t124 -77q127 -127 127 -342zM186 485h619q-8 58 -33.5 115t-66.5 96q-83 80 -205 80q-132 0 -215 -86q-79 -79 -99 -205z" />
    <glyph glyph-name="Ecaron" unicode="&#x11a;" horiz-adv-x="950" 
d="M840 1366v-82h-566v-496h553v-81h-553v-625h566v-82h-656v1366h656zM512 1587l197 131l69 -55l-266 -184l-266 184l69 55z" />
    <glyph glyph-name="ecaron" unicode="&#x11b;" horiz-adv-x="989" 
d="M895 408h-715q0 -155 98 -254t234 -99q98 0 174 52t117 139l69 -41q-21 -40 -50 -76t-72.5 -72.5t-107 -58t-136.5 -21.5q-190 0 -301 124t-111 313q0 105 34.5 190.5t92 139t129.5 82t150 28.5q171 0 283 -124.5t112 -321.5zM186 485h623q-15 126 -100.5 208.5
t-208.5 82.5q-124 0 -210 -83t-104 -208zM498 1059l184 139l66 -53l-250 -193l-250 193l65 53z" />
    <glyph glyph-name="Gcircumflex" unicode="&#x11c;" horiz-adv-x="1581" 
d="M897 573v82h573q0 -272 -139 -448q-89 -114 -222 -172t-292 -58q-198 0 -359.5 90t-254 251t-92.5 362q0 199 95 361t257.5 252.5t359.5 90.5q238 0 428 -147q96 -76 164 -172l-72 -57q-48 82 -131 151q-172 144 -391 144q-172 0 -313.5 -83.5t-222 -227.5t-80.5 -316
q0 -169 78.5 -310.5t218.5 -224t313 -82.5q162 0 287.5 68.5t187.5 163.5q39 60 63 137t27 145h-483zM819 1610l-196 -131l-70 55l266 184l266 -184l-69 -55z" />
    <glyph glyph-name="gcircumflex" unicode="&#x11d;" horiz-adv-x="1064" 
d="M836 836h82v-811q0 -235 -111.5 -365.5t-308.5 -130.5q-170 0 -286.5 95.5t-123.5 262.5h86q10 -129 99.5 -204.5t224.5 -75.5q68 0 122.5 19.5t89 48t60 70.5t37.5 78.5t19.5 81.5t8.5 69t1 51v118q-60 -84 -147.5 -125t-182.5 -41q-78 0 -151 28.5t-131.5 82t-94 139.5
t-35.5 191q0 122 50 220.5t147 157t225 58.5q101 0 183 -43t137 -121v146zM508 776q-150 0 -239 -105.5t-89 -256.5q0 -154 89.5 -256.5t234.5 -102.5q152 0 244 104.5t92 262.5q0 151 -91 252.5t-241 101.5zM512 1096l-184 -140l-66 52l250 192l250 -192l-66 -52z" />
    <glyph glyph-name="Gbreve" unicode="&#x11e;" horiz-adv-x="1581" 
d="M897 573v82h573q0 -272 -139 -448q-89 -114 -222 -172t-292 -58q-198 0 -359.5 90t-254 251t-92.5 362q0 199 95 361t257.5 252.5t359.5 90.5q238 0 428 -147q96 -76 164 -172l-72 -57q-48 82 -131 151q-172 144 -391 144q-172 0 -313.5 -83.5t-222 -227.5t-80.5 -316
q0 -169 78.5 -310.5t218.5 -224t313 -82.5q162 0 287.5 68.5t187.5 163.5q39 60 63 137t27 145h-483zM559 1692h82q11 -42 49 -70q48 -37 129 -37t129 37q38 28 49 70h82q-9 -69 -59 -119q-74 -74 -201 -74t-201 74q-50 50 -59 119z" />
    <glyph glyph-name="gbreve" unicode="&#x11f;" horiz-adv-x="1064" 
d="M836 836h82v-811q0 -235 -111.5 -365.5t-308.5 -130.5q-170 0 -286.5 95.5t-123.5 262.5h86q10 -129 99.5 -204.5t224.5 -75.5q68 0 122.5 19.5t89 48t60 70.5t37.5 78.5t19.5 81.5t8.5 69t1 51v118q-60 -84 -147.5 -125t-182.5 -41q-78 0 -151 28.5t-131.5 82t-94 139.5
t-35.5 191q0 122 50 220.5t147 157t225 58.5q101 0 183 -43t137 -121v146zM508 776q-150 0 -239 -105.5t-89 -256.5q0 -154 89.5 -256.5t234.5 -102.5q152 0 244 104.5t92 262.5q0 151 -91 252.5t-241 101.5zM256 1174h78q10 -46 51 -76q52 -39 127 -39t127 39q41 30 51 76
h78q-8 -68 -59 -119q-74 -74 -197 -74t-197 74q-51 51 -59 119z" />
    <glyph glyph-name="Gdotaccent" unicode="&#x120;" horiz-adv-x="1581" 
d="M897 573v82h573q0 -272 -139 -448q-89 -114 -222 -172t-292 -58q-198 0 -359.5 90t-254 251t-92.5 362q0 199 95 361t257.5 252.5t359.5 90.5q238 0 428 -147q96 -76 164 -172l-72 -57q-48 82 -131 151q-172 144 -391 144q-172 0 -313.5 -83.5t-222 -227.5t-80.5 -316
q0 -169 78.5 -310.5t218.5 -224t313 -82.5q162 0 287.5 68.5t187.5 163.5q39 60 63 137t27 145h-483zM741 1599q0 37 23.5 60.5t60.5 23.5t60.5 -23.5t23.5 -60.5t-23.5 -60t-60.5 -23t-60.5 23t-23.5 60z" />
    <glyph glyph-name="gdotaccent" unicode="&#x121;" horiz-adv-x="1064" 
d="M836 836h82v-811q0 -235 -111.5 -365.5t-308.5 -130.5q-170 0 -286.5 95.5t-123.5 262.5h86q10 -129 99.5 -204.5t224.5 -75.5q68 0 122.5 19.5t89 48t60 70.5t37.5 78.5t19.5 81.5t8.5 69t1 51v118q-60 -84 -147.5 -125t-182.5 -41q-78 0 -151 28.5t-131.5 82t-94 139.5
t-35.5 191q0 122 50 220.5t147 157t225 58.5q101 0 183 -43t137 -121v146zM508 776q-150 0 -239 -105.5t-89 -256.5q0 -154 89.5 -256.5t234.5 -102.5q152 0 244 104.5t92 262.5q0 151 -91 252.5t-241 101.5zM436 1079q0 35 22.5 57.5t57.5 22.5t57.5 -22.5t22.5 -57.5
t-22.5 -57.5t-57.5 -22.5t-57.5 22.5t-22.5 57.5z" />
    <glyph glyph-name="Gcommaaccent" unicode="&#x122;" horiz-adv-x="1581" 
d="M897 573v82h573q0 -272 -139 -448q-89 -114 -222 -172t-292 -58q-198 0 -359.5 90t-254 251t-92.5 362q0 199 95 361t257.5 252.5t359.5 90.5q238 0 428 -147q96 -76 164 -172l-72 -57q-48 82 -131 151q-172 144 -391 144q-172 0 -313.5 -83.5t-222 -227.5t-80.5 -316
q0 -169 78.5 -310.5t218.5 -224t313 -82.5q162 0 287.5 68.5t187.5 163.5q39 60 63 137t27 145h-483zM674 -389l94 287l90 -29l-127 -279z" />
    <glyph glyph-name="gcommaaccent" unicode="&#x123;" horiz-adv-x="1064" 
d="M836 836h82v-811q0 -235 -111.5 -365.5t-308.5 -130.5q-170 0 -286.5 95.5t-123.5 262.5h86q10 -129 99.5 -204.5t224.5 -75.5q68 0 122.5 19.5t89 48t60 70.5t37.5 78.5t19.5 81.5t8.5 69t1 51v118q-60 -84 -147.5 -125t-182.5 -41q-78 0 -151 28.5t-131.5 82t-94 139.5
t-35.5 191q0 122 50 220.5t147 157t225 58.5q101 0 183 -43t137 -121v146zM508 776q-150 0 -239 -105.5t-89 -256.5q0 -154 89.5 -256.5t234.5 -102.5q152 0 244 104.5t92 262.5q0 151 -91 252.5t-241 101.5zM664 1296l-95 -286l-90 28l127 279z" />
    <glyph glyph-name="Hcircumflex" unicode="&#x124;" horiz-adv-x="1376" 
d="M274 1366v-580h828v580h90v-1366h-90v705h-828v-705h-90v1366h90zM688 1610l-196 -131l-70 55l266 184l266 -184l-69 -55z" />
    <glyph glyph-name="hcircumflex" unicode="&#x125;" horiz-adv-x="905" 
d="M147 0v1493h82v-788q83 149 256 149q52 0 95.5 -13.5t71 -35t41.5 -37t24 -31.5q41 -65 41 -211v-526h-82v526q0 118 -33 168q-48 82 -164 82q-139 0 -205 -117q-45 -80 -45 -225v-434h-82zM184 1587l-184 -139l-66 51l250 193l250 -193l-65 -51z" />
    <glyph glyph-name="Hbar" unicode="&#x126;" horiz-adv-x="1376" 
d="M274 1366v-111h828v111h90v-111h111v-69h-111v-1186h-90v705h-828v-705h-90v1186h-110v69h110v111h90zM1102 1186h-828v-400h828v400z" />
    <glyph glyph-name="hbar" unicode="&#x127;" horiz-adv-x="905" 
d="M147 0v1151h-147v78h147v264h82v-264h369v-78h-369v-446q83 149 256 149q52 0 95.5 -13.5t71 -35t41.5 -37t24 -31.5q41 -65 41 -211v-526h-82v526q0 118 -33 168q-48 82 -164 82q-139 0 -205 -117q-45 -80 -45 -225v-434h-82z" />
    <glyph glyph-name="Imacron" unicode="&#x12a;" horiz-adv-x="458" 
d="M184 1366h90v-1366h-90v1366zM20 1536v90h418v-90h-418z" />
    <glyph glyph-name="imacron" unicode="&#x12b;" horiz-adv-x="376" 
d="M147 836h82v-836h-82v836zM25 1010v80h327v-80h-327z" />
    <glyph glyph-name="Iogonek" unicode="&#x12e;" horiz-adv-x="458" 
d="M184 1366h90v-1366q-56 -38 -94 -86q-45 -58 -45 -113q0 -44 31 -72t92 -28q47 0 107 18l-19 -75q-49 -17 -92 -17q-91 0 -148 48t-57 122q0 68 47 127q35 44 88 76v1366z" />
    <glyph glyph-name="iogonek" unicode="&#x12f;" horiz-adv-x="376" 
d="M147 836h82v-836q-56 -38 -94 -86q-45 -58 -45 -113q0 -44 31 -72t92 -28q46 0 106 18l-18 -73q-43 -17 -92 -17q-97 0 -147 51t-50 117q0 68 47 127q35 44 88 76v836zM188 1038q-31 0 -52 21.5t-21 54.5t21 54.5t52 21.5t52.5 -21.5t21.5 -54.5t-21.5 -54.5t-52.5 -21.5
z" />
    <glyph glyph-name="Idotaccent" unicode="&#x130;" horiz-adv-x="458" 
d="M184 1366h90v-1366h-90v1366zM145 1599q0 37 23.5 60.5t60.5 23.5t60.5 -23.5t23.5 -60.5t-23.5 -60t-60.5 -23t-60.5 23t-23.5 60z" />
    <glyph glyph-name="dotlessi" unicode="&#x131;" horiz-adv-x="376" 
d="M147 836h82v-836h-82v836z" />
    <glyph glyph-name="Jcircumflex" unicode="&#x134;" horiz-adv-x="538" 
d="M264 1366h90v-1100q0 -44 -2.5 -73.5t-18.5 -75t-46 -76.5q-64 -64 -170 -64q-86 0 -150 52q-46 37 -80 92l64 53q27 -52 63 -78q48 -37 107 -37t98 39q20 20 30.5 49t12.5 50.5t2 54.5v1114zM307 1610l-196 -131l-70 55l266 184l266 -184l-69 -55z" />
    <glyph glyph-name="jcircumflex" unicode="&#x135;" horiz-adv-x="376" 
d="M147 836h82v-1307h-82v1307zM188 1087l-143 -122l-61 53l204 176l205 -176l-61 -53z" />
    <glyph glyph-name="Kcommaaccent" unicode="&#x136;" horiz-adv-x="1105" 
d="M274 1366v-643l646 643h118l-661 -653l700 -713h-123l-643 651l-37 -35v-616h-90v1366h90zM436 -389l94 287l91 -29l-127 -279z" />
    <glyph glyph-name="kcommaaccent" unicode="&#x137;" horiz-adv-x="811" 
d="M147 1493h82v-1016l344 359h107l-352 -363l467 -473h-111l-412 414l-43 -43v-371h-82v1493zM287 -389l94 287l90 -29l-127 -279z" />
    <glyph glyph-name="Lacute" unicode="&#x139;" horiz-adv-x="684" 
d="M184 1366h90v-1284h381v-82h-471v1366zM477 1749l103 -51l-275 -258l-65 37z" />
    <glyph glyph-name="lacute" unicode="&#x13a;" horiz-adv-x="376" 
d="M147 1493h82v-1493h-82v1493zM301 1843l88 -51l-215 -262l-61 33z" />
    <glyph glyph-name="Lcommaaccent" unicode="&#x13b;" horiz-adv-x="684" 
d="M184 1366h90v-1284h381v-82h-471v1366zM313 -389l95 287l90 -29l-127 -279z" />
    <glyph glyph-name="lcommaaccent" unicode="&#x13c;" horiz-adv-x="376" 
d="M147 1493h82v-1493h-82v1493zM70 -389l94 287l90 -29l-127 -279z" />
    <glyph glyph-name="Lcaron" unicode="&#x13d;" horiz-adv-x="684" 
d="M184 1366h90v-1284h381v-82h-471v1366zM475 1065l94 328l90 -29l-127 -320z" />
    <glyph glyph-name="lcaron" unicode="&#x13e;" horiz-adv-x="430" 
d="M147 1493h82v-1493h-82v1493zM307 1065l94 328l91 -29l-127 -320z" />
    <glyph glyph-name="Ldot" unicode="&#x13f;" horiz-adv-x="684" 
d="M184 1366h90v-1284h381v-82h-471v1366zM487 684q0 35 22.5 57.5t57.5 22.5t57.5 -22.5t22.5 -57.5t-22.5 -57.5t-57.5 -22.5t-57.5 22.5t-22.5 57.5z" />
    <glyph glyph-name="ldot" unicode="&#x140;" horiz-adv-x="557" 
d="M147 1493h82v-1493h-82v1493zM387 748q0 35 22.5 57t57.5 22t57.5 -22t22.5 -57t-22.5 -57.5t-57.5 -22.5t-57.5 22.5t-22.5 57.5z" />
    <glyph glyph-name="Lslash" unicode="&#x141;" horiz-adv-x="684" 
d="M184 1366h90v-575l205 131v-91l-205 -131v-618h381v-82h-471v651l-184 -119v91l184 118v625z" />
    <glyph glyph-name="lslash" unicode="&#x142;" horiz-adv-x="376" 
d="M147 1493h82v-510l148 115v-90l-148 -115v-893h-82v844l-147 -115v90l147 115v559z" />
    <glyph glyph-name="Nacute" unicode="&#x143;" horiz-adv-x="1605" 
d="M274 0h-90v1380l1147 -1200v1186h90v-1401l-1147 1200v-1165zM938 1749l102 -51l-274 -258l-66 37z" />
    <glyph glyph-name="nacute" unicode="&#x144;" horiz-adv-x="905" 
d="M147 0v836h82v-131q83 149 256 149q52 0 95.5 -13.5t71 -35t41.5 -37t24 -31.5q41 -65 41 -211v-526h-82v526q0 118 -33 168q-48 82 -164 82q-139 0 -205 -117q-45 -80 -45 -225v-434h-82zM565 1270l88 -51l-215 -263l-61 33z" />
    <glyph glyph-name="Ncommaaccent" unicode="&#x145;" horiz-adv-x="1605" 
d="M274 0h-90v1380l1147 -1200v1186h90v-1401l-1147 1200v-1165zM686 -389l94 287l90 -29l-127 -279z" />
    <glyph glyph-name="ncommaaccent" unicode="&#x146;" horiz-adv-x="905" 
d="M147 0v836h82v-131q83 149 256 149q52 0 95.5 -13.5t71 -35t41.5 -37t24 -31.5q41 -65 41 -211v-526h-82v526q0 118 -33 168q-48 82 -164 82q-139 0 -205 -117q-45 -80 -45 -225v-434h-82zM334 -389l94 287l90 -29l-127 -279z" />
    <glyph glyph-name="Ncaron" unicode="&#x147;" horiz-adv-x="1605" 
d="M274 0h-90v1380l1147 -1200v1186h90v-1401l-1147 1200v-1165zM803 1587l196 131l70 -55l-266 -184l-266 184l69 55z" />
    <glyph glyph-name="ncaron" unicode="&#x148;" horiz-adv-x="905" 
d="M147 0v836h82v-131q83 149 256 149q52 0 95.5 -13.5t71 -35t41.5 -37t24 -31.5q41 -65 41 -211v-526h-82v526q0 118 -33 168q-48 82 -164 82q-139 0 -205 -117q-45 -80 -45 -225v-434h-82zM492 1059l184 139l65 -53l-249 -193l-250 193l65 53z" />
    <glyph glyph-name="Omacron" unicode="&#x14c;" horiz-adv-x="1638" 
d="M819 1384q196 0 359 -93.5t256.5 -255t93.5 -355.5q0 -145 -55 -275t-149.5 -224t-226 -149t-278.5 -55q-148 0 -279.5 55t-225.5 149t-148.5 224t-54.5 275t55 275.5t149 224.5t225.5 149t278.5 55zM819 59q130 0 244.5 48.5t195.5 131.5t128 197.5t47 243.5
q0 173 -79.5 315.5t-221 225t-314.5 82.5t-314 -82.5t-220.5 -225t-79.5 -315.5q0 -172 79.5 -314t220.5 -224.5t314 -82.5zM543 1536v90h553v-90h-553z" />
    <glyph glyph-name="omacron" unicode="&#x14d;" horiz-adv-x="1064" 
d="M532 854q186 0 312.5 -126t126.5 -312t-126.5 -312.5t-312.5 -126.5t-312 126.5t-126 312.5t126 312t312 126zM532 55q150 0 251.5 104t101.5 257t-101.5 256.5t-251.5 103.5t-251 -103.5t-101 -256.5t101 -257t251 -104zM256 1010v80h553v-80h-553z" />
    <glyph glyph-name="Obreve" unicode="&#x14e;" horiz-adv-x="1638" 
d="M819 1384q196 0 359 -93.5t256.5 -255t93.5 -355.5q0 -145 -55 -275t-149.5 -224t-226 -149t-278.5 -55q-148 0 -279.5 55t-225.5 149t-148.5 224t-54.5 275t55 275.5t149 224.5t225.5 149t278.5 55zM819 59q130 0 244.5 48.5t195.5 131.5t128 197.5t47 243.5
q0 173 -79.5 315.5t-221 225t-314.5 82.5t-314 -82.5t-220.5 -225t-79.5 -315.5q0 -172 79.5 -314t220.5 -224.5t314 -82.5zM559 1692h82q11 -42 49 -70q48 -37 129 -37t129 37q38 28 49 70h82q-9 -69 -59 -119q-74 -74 -201 -74t-201 74q-50 50 -59 119z" />
    <glyph glyph-name="obreve" unicode="&#x14f;" horiz-adv-x="1064" 
d="M532 854q186 0 312.5 -126t126.5 -312t-126.5 -312.5t-312.5 -126.5t-312 126.5t-126 312.5t126 312t312 126zM532 55q150 0 251.5 104t101.5 257t-101.5 256.5t-251.5 103.5t-251 -103.5t-101 -256.5t101 -257t251 -104zM276 1174h78q10 -45 52 -76q52 -39 126 -39
q75 0 127 39q42 31 52 76h77q-8 -68 -59 -119q-74 -74 -197 -74q-122 0 -196 74q-52 52 -60 119z" />
    <glyph glyph-name="Ohungarumlaut" unicode="&#x150;" horiz-adv-x="1638" 
d="M819 1384q196 0 359 -93.5t256.5 -255t93.5 -355.5q0 -145 -55 -275t-149.5 -224t-226 -149t-278.5 -55q-148 0 -279.5 55t-225.5 149t-148.5 224t-54.5 275t55 275.5t149 224.5t225.5 149t278.5 55zM819 59q130 0 244.5 48.5t195.5 131.5t128 197.5t47 243.5
q0 173 -79.5 315.5t-221 225t-314.5 82.5t-314 -82.5t-220.5 -225t-79.5 -315.5q0 -172 79.5 -314t220.5 -224.5t314 -82.5zM799 1749l106 -53l-205 -256l-73 30zM1047 1749l106 -53l-205 -256l-74 30z" />
    <glyph glyph-name="ohungarumlaut" unicode="&#x151;" horiz-adv-x="1064" 
d="M532 854q186 0 312.5 -126t126.5 -312t-126.5 -312.5t-312.5 -126.5t-312 126.5t-126 312.5t126 312t312 126zM532 55q150 0 251.5 104t101.5 257t-101.5 256.5t-251.5 103.5t-251 -103.5t-101 -256.5t101 -257t251 -104zM530 1270l86 -51l-202 -263l-56 33zM758 1270
l86 -51l-203 -263l-55 33z" />
    <glyph glyph-name="OE" unicode="&#x152;" horiz-adv-x="2195" 
d="M2085 1366v-82h-563v-496h549v-81h-549v-625h563v-82h-653v350q-93 -174 -255 -273.5t-356 -99.5q-143 0 -275 56t-227.5 150.5t-152.5 224.5t-57 272q0 144 56.5 274.5t151.5 224.5t226.5 149.5t275.5 55.5q198 0 358.5 -98.5t254.5 -275.5v356h653zM821 1303
q-168 0 -310.5 -83.5t-225 -227t-82.5 -312.5q0 -166 82.5 -309.5t224 -227.5t307.5 -84q124 0 237.5 50t196.5 133.5t132 198.5t49 239q0 82 -24.5 167.5t-75.5 167.5t-121.5 146t-172 103t-217.5 39z" />
    <glyph glyph-name="oe" unicode="&#x153;" horiz-adv-x="1779" 
d="M1686 412h-715q0 -159 94 -258t235 -99q102 0 176.5 54t114.5 139l68 -41q-12 -23 -25.5 -45t-46 -58t-70 -62t-97.5 -45.5t-128 -19.5q-19 0 -38 2t-56.5 8.5t-72 23t-72.5 42t-72 70t-57 102.5q-45 -83 -88 -123q-53 -53 -133 -89t-173 -36q-180 0 -308 128.5
t-128 308.5q0 183 128 311.5t310 128.5q167 0 299 -117q50 -45 93 -129q44 116 141 181t221 65q174 0 287 -123t113 -319zM977 489h622q-18 132 -104.5 209.5t-206.5 77.5q-118 0 -204.5 -77t-106.5 -210zM530 776q-149 0 -249.5 -104.5t-100.5 -255.5q0 -152 100 -256.5
t248 -104.5q151 0 254 103t103 252q0 155 -102 260.5t-253 105.5z" />
    <glyph glyph-name="Racute" unicode="&#x154;" horiz-adv-x="958" 
d="M860 0h-102l-443 645h-41v-645h-90v1366h197q91 0 159 -14t130 -56q141 -98 141 -292q0 -112 -55 -202t-174 -130q-78 -27 -168 -27zM274 1284v-557h132q146 0 228.5 73.5t82.5 205.5q0 93 -36 151.5t-85 85.5q-71 41 -209 41h-113zM614 1749l103 -51l-275 -258l-65 37z
" />
    <glyph glyph-name="racute" unicode="&#x155;" horiz-adv-x="532" 
d="M147 0v836h82v-109q25 57 72.5 92t112.5 35q49 0 88 -20l-41 -74q-21 16 -62 16q-40 0 -70.5 -16t-48.5 -47t-29 -60.5t-15.5 -73.5t-5.5 -68.5t-1 -61.5v-449h-82zM420 1270l88 -51l-215 -263l-62 33z" />
    <glyph glyph-name="Rcommaaccent" unicode="&#x156;" horiz-adv-x="958" 
d="M860 0h-102l-443 645h-41v-645h-90v1366h197q91 0 159 -14t130 -56q141 -98 141 -292q0 -112 -55 -202t-174 -130q-78 -27 -168 -27zM274 1284v-557h132q146 0 228.5 73.5t82.5 205.5q0 93 -36 151.5t-85 85.5q-71 41 -209 41h-113zM362 -389l95 287l90 -29l-127 -279z
" />
    <glyph glyph-name="rcommaaccent" unicode="&#x157;" horiz-adv-x="532" 
d="M147 0v836h82v-109q25 57 72.5 92t112.5 35q49 0 88 -20l-41 -74q-21 16 -62 16q-40 0 -70.5 -16t-48.5 -47t-29 -60.5t-15.5 -73.5t-5.5 -68.5t-1 -61.5v-449h-82zM147 -389l95 287l90 -29l-127 -279z" />
    <glyph glyph-name="Rcaron" unicode="&#x158;" horiz-adv-x="958" 
d="M860 0h-102l-443 645h-41v-645h-90v1366h197q91 0 159 -14t130 -56q141 -98 141 -292q0 -112 -55 -202t-174 -130q-78 -27 -168 -27zM274 1284v-557h132q146 0 228.5 73.5t82.5 205.5q0 93 -36 151.5t-85 85.5q-71 41 -209 41h-113zM430 1587l197 131l69 -55l-266 -184
l-266 184l69 55z" />
    <glyph glyph-name="rcaron" unicode="&#x159;" horiz-adv-x="532" 
d="M147 0v836h82v-109q25 57 72.5 92t112.5 35q49 0 88 -20l-41 -74q-21 16 -62 16q-40 0 -70.5 -16t-48.5 -47t-29 -60.5t-15.5 -73.5t-5.5 -68.5t-1 -61.5v-449h-82zM307 1059l185 139l65 -53l-250 -193l-250 193l66 53z" />
    <glyph glyph-name="Sacute" unicode="&#x15a;" horiz-adv-x="1052" 
d="M872 1190l-65 -55q-29 57 -70 94.5t-83.5 51.5t-66.5 18t-48 4q-117 0 -185.5 -73.5t-68.5 -180.5q0 -31 7 -58t16 -47t29 -40t34.5 -33t46 -31t49.5 -27.5t57 -28.5q30 -15 86.5 -42t77.5 -37.5t52.5 -28t56.5 -35.5q28 -19 48.5 -38t45 -51t38 -76.5t13.5 -98.5
q0 -170 -124.5 -285t-301.5 -115q-193 0 -317 144q-61 70 -88 149l77 37q23 -67 74 -131q44 -57 113.5 -87t142.5 -30q139 0 234.5 91t95.5 225t-133 215q-59 35 -232 119q-115 56 -166 91t-84 89q-43 71 -43 155q0 49 13 96.5t41 91.5t68 78t99 54t130 20
q105 0 192.5 -49.5t138.5 -144.5zM688 1749l103 -51l-275 -258l-65 37z" />
    <glyph glyph-name="sacute" unicode="&#x15b;" horiz-adv-x="684" 
d="M573 719l-69 -37q-21 47 -60 70.5t-86 23.5q-66 0 -103.5 -41t-37.5 -92q0 -24 8.5 -43.5t19 -32t34 -26t38.5 -20t48 -19.5q10 -4 40.5 -15.5t42 -16.5t35.5 -16t37.5 -20.5t30 -24t29.5 -30.5q43 -53 43 -135q0 -68 -24 -121t-64.5 -84t-87.5 -46.5t-97 -15.5
q-106 0 -184.5 59.5t-104.5 162.5l80 24q21 -80 79 -124t130 -44q80 0 133.5 52t53.5 133q0 66 -41.5 102t-145.5 78q-52 22 -78.5 34t-56 32.5t-47.5 43.5q-37 51 -37 109q0 94 63.5 154.5t159.5 60.5q75 0 132.5 -34.5t86.5 -100.5zM485 1270l88 -51l-215 -263l-61 33z
" />
    <glyph glyph-name="Scircumflex" unicode="&#x15c;" horiz-adv-x="1052" 
d="M872 1190l-65 -55q-29 57 -70 94.5t-83.5 51.5t-66.5 18t-48 4q-117 0 -185.5 -73.5t-68.5 -180.5q0 -31 7 -58t16 -47t29 -40t34.5 -33t46 -31t49.5 -27.5t57 -28.5q30 -15 86.5 -42t77.5 -37.5t52.5 -28t56.5 -35.5q28 -19 48.5 -38t45 -51t38 -76.5t13.5 -98.5
q0 -170 -124.5 -285t-301.5 -115q-193 0 -317 144q-61 70 -88 149l77 37q23 -67 74 -131q44 -57 113.5 -87t142.5 -30q139 0 234.5 91t95.5 225t-133 215q-59 35 -232 119q-115 56 -166 91t-84 89q-43 71 -43 155q0 49 13 96.5t41 91.5t68 78t99 54t130 20
q105 0 192.5 -49.5t138.5 -144.5zM553 1610l-197 -131l-69 55l266 184l266 -184l-69 -55z" />
    <glyph glyph-name="scircumflex" unicode="&#x15d;" horiz-adv-x="684" 
d="M573 719l-69 -37q-21 47 -60 70.5t-86 23.5q-66 0 -103.5 -41t-37.5 -92q0 -24 8.5 -43.5t19 -32t34 -26t38.5 -20t48 -19.5q10 -4 40.5 -15.5t42 -16.5t35.5 -16t37.5 -20.5t30 -24t29.5 -30.5q43 -53 43 -135q0 -68 -24 -121t-64.5 -84t-87.5 -46.5t-97 -15.5
q-106 0 -184.5 59.5t-104.5 162.5l80 24q21 -80 79 -124t130 -44q80 0 133.5 52t53.5 133q0 66 -41.5 102t-145.5 78q-52 22 -78.5 34t-56 32.5t-47.5 43.5q-37 51 -37 109q0 94 63.5 154.5t159.5 60.5q75 0 132.5 -34.5t86.5 -100.5zM360 1096l-184 -140l-65 52l249 192
l250 -192l-65 -52z" />
    <glyph glyph-name="Scedilla" unicode="&#x15e;" horiz-adv-x="1052" 
d="M872 1190l-65 -55q-29 57 -70 94.5t-83.5 51.5t-66.5 18t-48 4q-117 0 -185.5 -73.5t-68.5 -180.5q0 -31 7 -58t16 -47t29 -40t34.5 -33t46 -31t49.5 -27.5t57 -28.5q30 -15 86.5 -42t77.5 -37.5t52.5 -28t56.5 -35.5q28 -19 48.5 -38t45 -51t38 -76.5t13.5 -98.5
q0 -170 -124.5 -285t-301.5 -115q-193 0 -317 144q-61 70 -88 149l77 37q23 -67 74 -131q44 -57 113.5 -87t142.5 -30q139 0 234.5 91t95.5 225t-133 215q-59 35 -232 119q-115 56 -166 91t-84 89q-43 71 -43 155q0 49 13 96.5t41 91.5t68 78t99 54t130 20
q105 0 192.5 -49.5t138.5 -144.5zM512 -102l94 -54l-221 -258l-61 37z" />
    <glyph glyph-name="scedilla" unicode="&#x15f;" horiz-adv-x="684" 
d="M573 719l-69 -37q-21 47 -60 70.5t-86 23.5q-66 0 -103.5 -41t-37.5 -92q0 -24 8.5 -43.5t19 -32t34 -26t38.5 -20t48 -19.5q10 -4 40.5 -15.5t42 -16.5t35.5 -16t37.5 -20.5t30 -24t29.5 -30.5q43 -53 43 -135q0 -68 -24 -121t-64.5 -84t-87.5 -46.5t-97 -15.5
q-106 0 -184.5 59.5t-104.5 162.5l80 24q21 -80 79 -124t130 -44q80 0 133.5 52t53.5 133q0 66 -41.5 102t-145.5 78q-52 22 -78.5 34t-56 32.5t-47.5 43.5q-37 51 -37 109q0 94 63.5 154.5t159.5 60.5q75 0 132.5 -34.5t86.5 -100.5zM348 -102l94 -41l-204 -254l-58 32z
" />
    <glyph glyph-name="Scaron" unicode="&#x160;" horiz-adv-x="1052" 
d="M872 1190l-65 -55q-29 57 -70 94.5t-83.5 51.5t-66.5 18t-48 4q-117 0 -185.5 -73.5t-68.5 -180.5q0 -31 7 -58t16 -47t29 -40t34.5 -33t46 -31t49.5 -27.5t57 -28.5q30 -15 86.5 -42t77.5 -37.5t52.5 -28t56.5 -35.5q28 -19 48.5 -38t45 -51t38 -76.5t13.5 -98.5
q0 -170 -124.5 -285t-301.5 -115q-193 0 -317 144q-61 70 -88 149l77 37q23 -67 74 -131q44 -57 113.5 -87t142.5 -30q139 0 234.5 91t95.5 225t-133 215q-59 35 -232 119q-115 56 -166 91t-84 89q-43 71 -43 155q0 49 13 96.5t41 91.5t68 78t99 54t130 20
q105 0 192.5 -49.5t138.5 -144.5zM537 1587l196 131l70 -55l-266 -184l-267 184l70 55z" />
    <glyph glyph-name="scaron" unicode="&#x161;" horiz-adv-x="684" 
d="M573 719l-69 -37q-21 47 -60 70.5t-86 23.5q-66 0 -103.5 -41t-37.5 -92q0 -24 8.5 -43.5t19 -32t34 -26t38.5 -20t48 -19.5q10 -4 40.5 -15.5t42 -16.5t35.5 -16t37.5 -20.5t30 -24t29.5 -30.5q43 -53 43 -135q0 -68 -24 -121t-64.5 -84t-87.5 -46.5t-97 -15.5
q-106 0 -184.5 59.5t-104.5 162.5l80 24q21 -80 79 -124t130 -44q80 0 133.5 52t53.5 133q0 66 -41.5 102t-145.5 78q-52 22 -78.5 34t-56 32.5t-47.5 43.5q-37 51 -37 109q0 94 63.5 154.5t159.5 60.5q75 0 132.5 -34.5t86.5 -100.5zM356 1059l185 139l65 -53l-250 -193
l-250 193l66 53z" />
    <glyph glyph-name="Tcedilla" unicode="&#x162;" horiz-adv-x="856" 
d="M827 1284h-354v-1284h-90v1284h-354v82h798v-82zM430 -102l94 -54l-221 -258l-61 37z" />
    <glyph glyph-name="tcedilla" unicode="&#x163;" horiz-adv-x="397" 
d="M381 758h-145v-758h-82v758h-93v78h93v299h82v-299h145v-78zM180 -102l94 -41l-204 -254l-58 32z" />
    <glyph glyph-name="Tcaron" unicode="&#x164;" horiz-adv-x="856" 
d="M827 1284h-354v-1284h-90v1284h-354v82h798v-82zM428 1587l197 131l69 -55l-266 -184l-266 184l69 55z" />
    <glyph glyph-name="tcaron" unicode="&#x165;" horiz-adv-x="421" 
d="M381 758h-145v-758h-82v758h-93v78h93v299h82v-299h145v-78zM299 1065l94 328l90 -29l-127 -320z" />
    <glyph glyph-name="Utilde" unicode="&#x168;" horiz-adv-x="1298" 
d="M184 1366h90v-854q0 -108 11 -173t47 -122q28 -46 69.5 -79t86.5 -49t84.5 -23t76.5 -7q85 0 174.5 36t143.5 122q36 57 46.5 121.5t10.5 173.5v854h90v-854q0 -127 -14.5 -203t-63.5 -147q-126 -185 -387 -185t-387 185q-49 71 -63.5 147t-14.5 203v854zM442 1468
l-59 45q22 50 47 78q42 45 92 45t131 -34q12 -5 35 -14t33 -12.5t25 -7t28 -3.5q27 0 51 24q23 26 31 53l59 -45q-18 -54 -57 -88t-94 -34q-41 0 -119 34q-4 2 -22.5 9.5t-26.5 10.5t-22.5 8t-25.5 7t-22 2q-35 0 -57 -28q-12 -15 -27 -50z" />
    <glyph glyph-name="utilde" unicode="&#x169;" horiz-adv-x="897" 
d="M147 836h82v-504q0 -144 54 -209q57 -68 166 -68q108 0 165 68q54 65 54 209v504h82v-527q0 -146 -64 -229q-79 -103 -237 -103q-159 0 -238 103q-64 83 -64 229v527zM242 997l-54 39q17 50 48 78q39 39 94 39q15 0 31.5 -3t35 -9.5t29 -10.5t30 -12.5t21.5 -9.5
q66 -27 96 -27q34 0 56 25q7 9 14 21.5t10.5 20.5t3.5 9l52 -41q-16 -47 -54 -82q-41 -35 -92 -35q-38 0 -119 35q-7 3 -22.5 9.5t-22.5 9t-19 7t-19.5 6.5t-17.5 3.5t-19 1.5q-37 0 -58 -24q-16 -20 -24 -50z" />
    <glyph glyph-name="Umacron" unicode="&#x16a;" horiz-adv-x="1298" 
d="M184 1366h90v-854q0 -108 11 -173t47 -122q28 -46 69.5 -79t86.5 -49t84.5 -23t76.5 -7q85 0 174.5 36t143.5 122q36 57 46.5 121.5t10.5 173.5v854h90v-854q0 -127 -14.5 -203t-63.5 -147q-126 -185 -387 -185t-387 185q-49 71 -63.5 147t-14.5 203v854zM373 1536v90
h553v-90h-553z" />
    <glyph glyph-name="umacron" unicode="&#x16b;" horiz-adv-x="897" 
d="M147 836h82v-504q0 -144 54 -209q57 -68 166 -68q108 0 165 68q54 65 54 209v504h82v-527q0 -146 -64 -229q-79 -103 -237 -103q-159 0 -238 103q-64 83 -64 229v527zM172 1010v80h553v-80h-553z" />
    <glyph glyph-name="Ubreve" unicode="&#x16c;" horiz-adv-x="1298" 
d="M184 1366h90v-854q0 -108 11 -173t47 -122q28 -46 69.5 -79t86.5 -49t84.5 -23t76.5 -7q85 0 174.5 36t143.5 122q36 57 46.5 121.5t10.5 173.5v854h90v-854q0 -127 -14.5 -203t-63.5 -147q-126 -185 -387 -185t-387 185q-49 71 -63.5 147t-14.5 203v854zM389 1692h82
q11 -42 49 -70q48 -37 129 -37t129 37q38 28 49 70h82q-9 -69 -59 -119q-74 -74 -201 -74q-126 0 -200 74q-51 51 -60 119z" />
    <glyph glyph-name="ubreve" unicode="&#x16d;" horiz-adv-x="897" 
d="M147 836h82v-504q0 -144 54 -209q57 -68 166 -68q108 0 165 68q54 65 54 209v504h82v-527q0 -146 -64 -229q-79 -103 -237 -103q-159 0 -238 103q-64 83 -64 229v527zM193 1174h77q10 -45 52 -76q52 -39 127 -39q74 0 126 39q42 31 52 76h78q-8 -67 -60 -119
q-74 -74 -196 -74q-123 0 -197 74q-51 51 -59 119z" />
    <glyph glyph-name="Uring" unicode="&#x16e;" horiz-adv-x="1298" 
d="M184 1366h90v-854q0 -108 11 -173t47 -122q28 -46 69.5 -79t86.5 -49t84.5 -23t76.5 -7q85 0 174.5 36t143.5 122q36 57 46.5 121.5t10.5 173.5v854h90v-854q0 -127 -14.5 -203t-63.5 -147q-126 -185 -387 -185t-387 185q-49 71 -63.5 147t-14.5 203v854zM485 1612
q0 68 48.5 116t115.5 48t115.5 -48t48.5 -116t-48.5 -116t-115.5 -48t-115.5 48t-48.5 116zM565 1612q0 -37 23.5 -60.5t60.5 -23.5t60.5 23.5t23.5 60.5t-23.5 60.5t-60.5 23.5t-60.5 -23.5t-23.5 -60.5z" />
    <glyph glyph-name="uring" unicode="&#x16f;" horiz-adv-x="897" 
d="M147 836h82v-504q0 -144 54 -209q57 -68 166 -68q108 0 165 68q54 65 54 209v504h82v-527q0 -146 -64 -229q-79 -103 -237 -103q-159 0 -238 103q-64 83 -64 229v527zM291 1124q0 68 45.5 113t112.5 45t112 -45t45 -113t-45 -112.5t-112 -44.5q-68 0 -113 45t-45 112z
M365 1124q0 -37 23.5 -60.5t60.5 -23.5t60 23.5t23 60.5t-23 60.5t-60 23.5t-60.5 -23.5t-23.5 -60.5z" />
    <glyph glyph-name="Uhungarumlaut" unicode="&#x170;" horiz-adv-x="1298" 
d="M184 1366h90v-854q0 -108 11 -173t47 -122q28 -46 69.5 -79t86.5 -49t84.5 -23t76.5 -7q85 0 174.5 36t143.5 122q36 57 46.5 121.5t10.5 173.5v854h90v-854q0 -127 -14.5 -203t-63.5 -147q-126 -185 -387 -185t-387 185q-49 71 -63.5 147t-14.5 203v854zM629 1749
l106 -53l-205 -256l-73 30zM877 1749l106 -53l-205 -256l-73 30z" />
    <glyph glyph-name="uhungarumlaut" unicode="&#x171;" horiz-adv-x="897" 
d="M147 836h82v-504q0 -144 54 -209q57 -68 166 -68q108 0 165 68q54 65 54 209v504h82v-527q0 -146 -64 -229q-79 -103 -237 -103q-159 0 -238 103q-64 83 -64 229v527zM446 1270l86 -51l-202 -263l-56 33zM674 1270l86 -51l-203 -263l-55 33z" />
    <glyph glyph-name="Uogonek" unicode="&#x172;" horiz-adv-x="1298" 
d="M184 1366h90v-874q0 -111 20 -191t83 -141q50 -48 121.5 -74.5t150.5 -26.5q172 0 277 105q34 35 55.5 77t30 93t10.5 86t2 92v854h90v-854q0 -127 -14.5 -203t-63.5 -147q-38 -55 -77 -85.5t-109 -68.5q-96 -51 -131 -92q-47 -53 -47 -115q0 -40 24 -67q28 -33 99 -33
q61 0 106 18l-18 -75q-49 -17 -92 -17q-100 0 -158 56q-47 44 -47 114q0 51 35 109q29 46 69 74q-130 0 -219 25.5t-162 98.5q-76 76 -100.5 165t-24.5 223v874z" />
    <glyph glyph-name="uogonek" unicode="&#x173;" horiz-adv-x="897" 
d="M147 836h82v-504q0 -144 54 -209q57 -68 166 -68q108 0 165 68q54 65 54 209v504h82v-527q0 -78 -13.5 -131t-50.5 -98q-11 -14 -21.5 -24t-23.5 -20t-19 -14t-24.5 -14.5t-22.5 -13.5q-68 -44 -104 -90q-39 -51 -39 -103q0 -42 25 -67q33 -33 98 -33q55 0 107 18
l-19 -73q-53 -17 -92 -17q-96 0 -150 54q-47 47 -47 114q0 58 39 115q25 36 64 65q-165 0 -246 103q-64 84 -64 229v527z" />
    <glyph glyph-name="Ydieresis" unicode="&#x178;" horiz-adv-x="1056" 
d="M477 0v584l-448 782h102l393 -690l402 690h102l-461 -782v-584h-90zM260 1597q0 32 23 55t55 23t55 -23t23 -55t-23 -54.5t-55 -22.5t-55 22.5t-23 54.5zM641 1597q0 32 23 55t55 23t55 -23t23 -55t-23 -54.5t-55 -22.5t-55 22.5t-23 54.5z" />
    <glyph glyph-name="Zacute" unicode="&#x179;" horiz-adv-x="1134" 
d="M1059 1366l-832 -1284h809v-82h-960l831 1284h-751v82h903zM729 1749l102 -51l-274 -258l-65 37z" />
    <glyph glyph-name="zacute" unicode="&#x17a;" horiz-adv-x="925" 
d="M889 836l-676 -758h672v-78h-848l684 758h-578v78h746zM604 1270l88 -51l-215 -263l-61 33z" />
    <glyph glyph-name="Zdotaccent" unicode="&#x17b;" horiz-adv-x="1134" 
d="M1059 1366l-832 -1284h809v-82h-960l831 1284h-751v82h903zM510 1599q0 37 23.5 60.5t60.5 23.5t60.5 -23.5t23.5 -60.5t-23.5 -60t-60.5 -23t-60.5 23t-23.5 60z" />
    <glyph glyph-name="zdotaccent" unicode="&#x17c;" horiz-adv-x="925" 
d="M889 836l-676 -758h672v-78h-848l684 758h-578v78h746zM412 1079q0 35 22.5 57.5t57.5 22.5t57 -22.5t22 -57.5t-22 -57.5t-57 -22.5t-57.5 22.5t-22.5 57.5z" />
    <glyph glyph-name="Zcaron" unicode="&#x17d;" horiz-adv-x="1134" 
d="M1059 1366l-832 -1284h809v-82h-960l831 1284h-751v82h903zM594 1587l197 131l69 -55l-266 -184l-266 184l69 55z" />
    <glyph glyph-name="zcaron" unicode="&#x17e;" horiz-adv-x="925" 
d="M889 836l-676 -758h672v-78h-848l684 758h-578v78h746zM492 1059l184 139l65 -53l-249 -193l-250 193l65 53z" />
    <glyph glyph-name="uni018F" unicode="&#x18f;" horiz-adv-x="1583" 
d="M111 655h1267v21q0 172 -79 315.5t-221 227.5t-316 84q-118 0 -218.5 -41t-172.5 -103q-83 -69 -131 -151l-72 57q68 96 164 172q190 147 428 147q147 0 278.5 -53.5t227 -146t151.5 -224t56 -280.5q0 -150 -54.5 -281.5t-148.5 -223.5t-225 -145t-279 -53
q-56 0 -112.5 8.5t-129 30.5t-144 71t-128.5 120q-141 177 -141 448zM1370 573h-1165q3 -66 27 -146t61 -136q62 -95 188 -163.5t287 -68.5q120 0 226 41t182.5 111.5t127 163.5t66.5 198z" />
    <glyph glyph-name="florin" unicode="&#x192;" horiz-adv-x="1122" 
d="M377 758l14 78h127l92 481q20 99 68 147q52 52 141 52q59 0 119 -29l-16 -74q-49 25 -95 25q-61 0 -94 -31t-43 -90l-90 -481h207l-14 -78h-207l-148 -789q-33 -182 -92 -241q-56 -56 -151 -56q-75 0 -140 29l17 76q62 -27 114 -27q66 0 101 35q36 36 63 172l154 801
h-127z" />
    <glyph glyph-name="uni01CF" unicode="&#x1cf;" horiz-adv-x="458" 
d="M184 1366h90v-1366h-90v1366zM229 1595l164 123l72 -57l-236 -182l-235 182l72 57z" />
    <glyph glyph-name="uni01D0" unicode="&#x1d0;" horiz-adv-x="376" 
d="M147 836h82v-836h-82v836zM188 1071l144 123l61 -53l-205 -176l-204 176l61 53z" />
    <glyph glyph-name="uni01DD" unicode="&#x1dd;" horiz-adv-x="989" 
d="M94 424h715q0 165 -96.5 258.5t-235.5 93.5q-98 0 -174 -52t-117 -138l-69 41q21 40 50 76t72.5 72t107 57.5t136.5 21.5q190 0 301 -123.5t111 -312.5q0 -105 -34.5 -191t-92 -139.5t-129.5 -82t-150 -28.5q-172 0 -283.5 122t-111.5 325zM803 346h-623
q15 -126 100.5 -208.5t208.5 -82.5q124 0 210 83t104 208z" />
    <glyph glyph-name="Gcaron" unicode="&#x1e6;" horiz-adv-x="1581" 
d="M897 573v82h573q0 -272 -139 -448q-89 -114 -222 -172t-292 -58q-198 0 -359.5 90t-254 251t-92.5 362q0 199 95 361t257.5 252.5t359.5 90.5q238 0 428 -147q96 -76 164 -172l-72 -57q-48 82 -131 151q-172 144 -391 144q-172 0 -313.5 -83.5t-222 -227.5t-80.5 -316
q0 -169 78.5 -310.5t218.5 -224t313 -82.5q162 0 287.5 68.5t187.5 163.5q39 60 63 137t27 145h-483zM791 1587l196 131l70 -55l-266 -184l-267 184l70 55z" />
    <glyph glyph-name="gcaron" unicode="&#x1e7;" horiz-adv-x="1064" 
d="M836 836h82v-811q0 -235 -111.5 -365.5t-308.5 -130.5q-170 0 -286.5 95.5t-123.5 262.5h86q10 -129 99.5 -204.5t224.5 -75.5q68 0 122.5 19.5t89 48t60 70.5t37.5 78.5t19.5 81.5t8.5 69t1 51v118q-60 -84 -147.5 -125t-182.5 -41q-78 0 -151 28.5t-131.5 82t-94 139.5
t-35.5 191q0 122 50 220.5t147 157t225 58.5q101 0 183 -43t137 -121v146zM508 776q-150 0 -239 -105.5t-89 -256.5q0 -154 89.5 -256.5t234.5 -102.5q152 0 244 104.5t92 262.5q0 151 -91 252.5t-241 101.5zM532 1059l185 139l65 -53l-250 -193l-249 193l65 53z" />
    <glyph glyph-name="AEacute" unicode="&#x1fc;" horiz-adv-x="1744" 
d="M1071 0l-182 449h-584l-178 -449h-98l551 1366h591l35 -82h-563l203 -496h549l35 -81h-549l254 -625h559l37 -82h-660zM338 530h516l-260 644zM1008 1749l102 -51l-274 -258l-66 37z" />
    <glyph glyph-name="aeacute" unicode="&#x1fd;" horiz-adv-x="1622" 
d="M1530 406h-717q3 -157 94.5 -254t229.5 -97q106 0 181 55.5t120 133.5l69 -49q-62 -97 -157 -157.5t-215 -60.5q-118 0 -206.5 56t-137.5 153q-34 -103 -125.5 -156t-221.5 -53q-167 0 -259.5 77t-92.5 184q0 34 10 68t36.5 70.5t66 63.5t105.5 44.5t149 17.5
q81 0 145.5 -17.5t122.5 -68.5q0 170 -70.5 265t-220.5 95q-136 0 -284 -76v84q140 70 288 70q120 0 207.5 -59t126.5 -174q53 108 147.5 170.5t211.5 62.5q61 0 117.5 -17t106.5 -53.5t88 -88.5t60.5 -126.5t24.5 -162.5zM823 483h621q-19 127 -106 210t-208 83
q-120 0 -204.5 -84t-102.5 -209zM457 424q-135 0 -207 -53t-72 -133q0 -77 69 -130t197 -53q75 0 131 18t86.5 47t45 61t14.5 65q0 70 -63.5 124t-200.5 54zM924 1270l88 -51l-215 -263l-62 33z" />
    <glyph glyph-name="Scommaaccent" unicode="&#x218;" horiz-adv-x="1052" 
d="M872 1190l-65 -55q-29 57 -70 94.5t-83.5 51.5t-66.5 18t-48 4q-117 0 -185.5 -73.5t-68.5 -180.5q0 -31 7 -58t16 -47t29 -40t34.5 -33t46 -31t49.5 -27.5t57 -28.5q30 -15 86.5 -42t77.5 -37.5t52.5 -28t56.5 -35.5q28 -19 48.5 -38t45 -51t38 -76.5t13.5 -98.5
q0 -170 -124.5 -285t-301.5 -115q-193 0 -317 144q-61 70 -88 149l77 37q23 -67 74 -131q44 -57 113.5 -87t142.5 -30q139 0 234.5 91t95.5 225t-133 215q-59 35 -232 119q-115 56 -166 91t-84 89q-43 71 -43 155q0 49 13 96.5t41 91.5t68 78t99 54t130 20
q105 0 192.5 -49.5t138.5 -144.5zM395 -389l94 287l91 -29l-127 -279z" />
    <glyph glyph-name="scommaaccent" unicode="&#x219;" horiz-adv-x="684" 
d="M573 719l-69 -37q-21 47 -60 70.5t-86 23.5q-66 0 -103.5 -41t-37.5 -92q0 -24 8.5 -43.5t19 -32t34 -26t38.5 -20t48 -19.5q10 -4 40.5 -15.5t42 -16.5t35.5 -16t37.5 -20.5t30 -24t29.5 -30.5q43 -53 43 -135q0 -68 -24 -121t-64.5 -84t-87.5 -46.5t-97 -15.5
q-106 0 -184.5 59.5t-104.5 162.5l80 24q21 -80 79 -124t130 -44q80 0 133.5 52t53.5 133q0 66 -41.5 102t-145.5 78q-52 22 -78.5 34t-56 32.5t-47.5 43.5q-37 51 -37 109q0 94 63.5 154.5t159.5 60.5q75 0 132.5 -34.5t86.5 -100.5zM213 -389l94 287l90 -29l-127 -279z
" />
    <glyph glyph-name="Tcommaaccent" unicode="&#x21a;" horiz-adv-x="856" 
d="M827 1284h-354v-1284h-90v1284h-354v82h798v-82zM313 -389l95 287l90 -29l-127 -279z" />
    <glyph glyph-name="tcommaaccent" unicode="&#x21b;" horiz-adv-x="397" 
d="M381 758h-145v-758h-82v758h-93v78h93v299h82v-299h145v-78zM86 -389l94 287l90 -29l-127 -279z" />
    <glyph glyph-name="uni0228" unicode="&#x228;" horiz-adv-x="950" 
d="M840 1366v-82h-566v-496h553v-81h-553v-625h566v-82h-656v1366h656zM516 -102l94 -54l-221 -258l-61 37z" />
    <glyph glyph-name="uni0229" unicode="&#x229;" horiz-adv-x="989" 
d="M895 408h-715q0 -155 98 -254t234 -99q98 0 174 52t117 139l69 -41q-21 -40 -50 -76t-72.5 -72.5t-107 -58t-136.5 -21.5q-190 0 -301 124t-111 313q0 105 34.5 190.5t92 139t129.5 82t150 28.5q171 0 283 -124.5t112 -321.5zM186 485h623q-15 126 -100.5 208.5
t-208.5 82.5q-124 0 -210 -83t-104 -208zM530 -102l95 -41l-205 -254l-58 32z" />
    <glyph glyph-name="uni0237" unicode="&#x237;" horiz-adv-x="376" 
d="M147 836h82v-1307h-82v1307z" />
    <glyph glyph-name="uni0259" unicode="&#x259;" horiz-adv-x="989" 
d="M94 424h715q0 165 -96.5 258.5t-235.5 93.5q-98 0 -174 -52t-117 -138l-69 41q21 40 50 76t72.5 72t107 57.5t136.5 21.5q190 0 301 -123.5t111 -312.5q0 -105 -34.5 -191t-92 -139.5t-129.5 -82t-150 -28.5q-172 0 -283.5 122t-111.5 325zM803 346h-623
q15 -126 100.5 -208.5t208.5 -82.5q124 0 210 83t104 208z" />
    <glyph glyph-name="afii57929" unicode="&#x2bc;" 
d="M393 1065l94 328l91 -29l-127 -320z" />
    <glyph glyph-name="circumflex" unicode="&#x2c6;" 
d="M512 1096l-184 -140l-66 52l250 192l250 -192l-66 -52z" />
    <glyph glyph-name="caron" unicode="&#x2c7;" 
d="M512 1059l184 139l66 -53l-250 -193l-250 193l66 53z" />
    <glyph glyph-name="uni02C9" unicode="&#x2c9;" 
d="M236 1010v80h552v-80h-552z" />
    <glyph glyph-name="breve" unicode="&#x2d8;" 
d="M256 1174h78q10 -46 51 -76q52 -39 127 -39t127 39q41 30 51 76h78q-8 -68 -59 -119q-74 -74 -197 -74t-197 74q-51 51 -59 119z" />
    <glyph glyph-name="dotaccent" unicode="&#x2d9;" 
d="M432 1079q0 35 22.5 57.5t57.5 22.5t57.5 -22.5t22.5 -57.5t-22.5 -57.5t-57.5 -22.5t-57.5 22.5t-22.5 57.5z" />
    <glyph glyph-name="ring" unicode="&#x2da;" 
d="M354 1124q0 68 45 113t113 45t113 -45t45 -113q0 -67 -45 -112t-113 -45t-113 45t-45 112zM428 1124q0 -37 23.5 -60.5t60.5 -23.5t60.5 23.5t23.5 60.5t-23.5 60.5t-60.5 23.5t-60.5 -23.5t-23.5 -60.5z" />
    <glyph glyph-name="ogonek" unicode="&#x2db;" 
d="M733 -281l-18 -73q-43 -17 -92 -17q-97 0 -147 51t-50 117q0 68 47 127q35 44 88 76h82q-56 -38 -94 -86q-45 -58 -45 -113q0 -44 31 -72t92 -28q46 0 106 18z" />
    <glyph glyph-name="tilde" unicode="&#x2dc;" 
d="M305 997l-53 39q18 52 47 78q39 39 94 39q15 0 31.5 -3t35.5 -9.5t28.5 -10t30.5 -13t22 -9.5q66 -27 96 -27q33 0 55 25q7 9 14.5 21.5t11 20.5t3.5 9l51 -41q-17 -49 -53 -82q-41 -35 -92 -35q-38 0 -119 35q-6 2 -23 9t-22.5 9.5t-18.5 7t-20.5 6.5t-17.5 3.5t-19 1.5
q-36 0 -57 -24q-18 -21 -25 -50z" />
    <glyph glyph-name="hungarumlaut" unicode="&#x2dd;" 
d="M510 1270l86 -51l-203 -263l-55 33zM737 1270l86 -51l-202 -263l-56 33z" />
    <glyph glyph-name="acutecomb" unicode="&#x301;" horiz-adv-x="4" 
d="M-354 1270l88 -51l-215 -263l-62 33z" />
    <glyph glyph-name="uni0394" unicode="&#x394;" horiz-adv-x="1286" 
d="M1257 0h-1228l573 1366h82zM643 1235l-479 -1153h958z" />
    <glyph glyph-name="uni0394" unicode="&#x2206;" horiz-adv-x="1286" 
d="M1257 0h-1228l573 1366h82zM643 1235l-479 -1153h958z" />
    <glyph glyph-name="uni03A9" unicode="&#x3a9;" horiz-adv-x="1363" 
d="M57 82h418q-131 67 -237 188q-181 208 -181 455q0 127 47.5 254t139.5 223q173 182 438 182q263 0 438 -182q84 -86 135.5 -206t51.5 -265q0 -254 -181 -461q-106 -121 -237 -188h418v-82h-525v90q74 39 151.5 98t131.5 125q147 178 147 406q0 131 -44.5 241.5
t-116.5 184.5q-73 75 -170.5 116.5t-198.5 41.5q-100 0 -197.5 -39.5t-171.5 -118.5q-80 -84 -120.5 -198.5t-40.5 -229.5q0 -226 147 -404q54 -66 131.5 -125t151.5 -98v-90h-525v82z" />
    <glyph glyph-name="uni03A9" unicode="&#x2126;" horiz-adv-x="1363" 
d="M57 82h418q-131 67 -237 188q-181 208 -181 455q0 127 47.5 254t139.5 223q173 182 438 182q263 0 438 -182q84 -86 135.5 -206t51.5 -265q0 -254 -181 -461q-106 -121 -237 -188h418v-82h-525v90q74 39 151.5 98t131.5 125q147 178 147 406q0 131 -44.5 241.5
t-116.5 184.5q-73 75 -170.5 116.5t-198.5 41.5q-100 0 -197.5 -39.5t-171.5 -118.5q-80 -84 -120.5 -198.5t-40.5 -229.5q0 -226 147 -404q54 -66 131.5 -125t151.5 -98v-90h-525v82z" />
    <glyph glyph-name="pi" unicode="&#x3c0;" horiz-adv-x="1007" 
d="M274 0h-81v758h-148v78h918v-78h-148v-758h-82v758h-459v-758z" />
    <glyph glyph-name="afii10023" unicode="&#x401;" horiz-adv-x="950" 
d="M840 1366v-82h-566v-496h553v-81h-553v-625h566v-82h-656v1366h656zM248 1597q0 32 23 55t55 23t54.5 -23t22.5 -55t-22.5 -54.5t-54.5 -22.5t-55 22.5t-23 54.5zM629 1597q0 32 23 55t55 23t54.5 -23t22.5 -55t-22.5 -54.5t-54.5 -22.5t-55 22.5t-23 54.5z" />
    <glyph glyph-name="afii10051" unicode="&#x402;" horiz-adv-x="1261" 
d="M868 1284h-409v-536q145 47 280 47q235 0 342 -125q86 -100 86 -273q0 -113 -37 -199t-100 -135q-95 -75 -260 -75q-61 0 -139 12v82q56 -12 129 -12q70 0 122.5 14t96.5 53q94 85 94 256q0 135 -67 219q-83 101 -261 101q-147 0 -286 -47v-666h-90v1284h-340v82h839v-82
z" />
    <glyph glyph-name="afii10052" unicode="&#x403;" horiz-adv-x="819" 
d="M184 0v1366h607v-82h-517v-1284h-90zM647 1749l103 -51l-275 -258l-65 37z" />
    <glyph glyph-name="afii10053" unicode="&#x404;" horiz-adv-x="1388" 
d="M1278 1206v-119q-88 103 -208.5 159.5t-252.5 56.5q-154 0 -287.5 -71.5t-219.5 -199.5t-101 -287h905v-81h-909q2 -112 39 -210.5t98 -169.5t139 -122.5t164.5 -77t173.5 -25.5q115 0 238.5 50.5t220.5 156.5v-119q-99 -87 -217.5 -128.5t-237.5 -41.5q-200 0 -364.5 96
t-256 257t-91.5 350q0 193 94.5 355t257 255.5t356.5 93.5q74 0 144 -15.5t118 -35.5t93 -48t65.5 -45t38.5 -34z" />
    <glyph glyph-name="afii10054" unicode="&#x405;" horiz-adv-x="1052" 
d="M872 1190l-65 -55q-29 57 -70 94.5t-83.5 51.5t-66.5 18t-48 4q-117 0 -185.5 -73.5t-68.5 -180.5q0 -31 7 -58t16 -47t29 -40t34.5 -33t46 -31t49.5 -27.5t57 -28.5q30 -15 86.5 -42t77.5 -37.5t52.5 -28t56.5 -35.5q28 -19 48.5 -38t45 -51t38 -76.5t13.5 -98.5
q0 -170 -124.5 -285t-301.5 -115q-193 0 -317 144q-61 70 -88 149l77 37q23 -67 74 -131q44 -57 113.5 -87t142.5 -30q139 0 234.5 91t95.5 225t-133 215q-59 35 -232 119q-10 5 -44.5 21.5t-49 24t-43 24.5t-44.5 31t-35.5 35t-33.5 44q-43 71 -43 155q0 49 13 96.5
t41 91.5t68 78t99 54t130 20q105 0 192.5 -49.5t138.5 -144.5z" />
    <glyph glyph-name="afii10055" unicode="&#x406;" horiz-adv-x="458" 
d="M184 1366h90v-1366h-90v1366z" />
    <glyph glyph-name="afii10056" unicode="&#x407;" horiz-adv-x="458" 
d="M184 1366h90v-1366h-90v1366zM20 1597q0 32 23 55t55 23t55 -23t23 -55t-23 -54.5t-55 -22.5t-55 22.5t-23 54.5zM283 1597q0 32 22.5 55t54.5 23t55 -23t23 -55t-23 -54.5t-55 -22.5t-54.5 22.5t-22.5 54.5z" />
    <glyph glyph-name="afii10057" unicode="&#x408;" horiz-adv-x="538" 
d="M264 1366h90v-1100q0 -44 -2.5 -73.5t-18.5 -75t-46 -76.5q-64 -64 -170 -64q-78 0 -150 52q-37 27 -78 92l62 53q27 -52 63 -78q48 -37 107 -37q65 0 98 39q45 49 45 168v1100z" />
    <glyph glyph-name="afii10058" unicode="&#x409;" horiz-adv-x="1888" 
d="M315 1366h770v-588h238q41 0 78.5 -2.5t87 -12t90 -25t82 -44.5t69.5 -67t46 -95.5t18 -128.5q0 -63 -15 -120.5t-49 -109.5t-84.5 -90t-125.5 -60.5t-168 -22.5h-357v1284h-589v-795q0 -75 -2 -118t-10.5 -106t-29.5 -110.5t-55 -84.5q-75 -82 -198 -82q-32 0 -82 12v82
q40 -12 75 -12q81 0 134 53q22 23 37.5 57.5t23 64t11.5 80.5t4.5 78.5t0.5 85.5v877zM1085 696v-614h230q43 0 70 1.5t72.5 9t85 27.5t71.5 52q86 82 86 231q0 180 -141 252q-37 19 -86 28.5t-82 11t-93 1.5h-213z" />
    <glyph glyph-name="afii10059" unicode="&#x40a;" horiz-adv-x="1994" 
d="M274 1366v-588h828v588h90v-588h238q41 0 78.5 -2.5t87 -12t90 -25t82 -44.5t69.5 -67t46 -95.5t18 -128.5q0 -80 -25 -150t-76 -128t-139 -91.5t-203 -33.5h-356v696h-828v-696h-90v1366h90zM1192 696v-614h229q43 0 70 1.5t72.5 9t85 27.5t71.5 52q86 82 86 231
q0 180 -141 252q-37 19 -86 28.5t-81.5 11t-92.5 1.5h-213z" />
    <glyph glyph-name="afii10060" unicode="&#x40b;" horiz-adv-x="1372" 
d="M868 1284h-409v-498h348q186 0 278 -45q89 -44 116.5 -114t27.5 -191v-436h-90v436q0 39 -2.5 64t-12 62t-33.5 65t-63 47q-63 31 -250 31h-319v-705h-90v1284h-340v82h839v-82z" />
    <glyph glyph-name="afii10061" unicode="&#x40c;" horiz-adv-x="1105" 
d="M274 1366v-643l646 643h118l-661 -653l700 -713h-123l-643 651l-37 -35v-616h-90v1366h90zM688 1749l103 -51l-275 -258l-65 37z" />
    <glyph glyph-name="afii10062" unicode="&#x40e;" horiz-adv-x="1126" 
d="M29 1366h102l473 -885l400 885h94l-625 -1366h-94l174 381zM297 1645l72 38q60 -131 215 -131t215 131l71 -38q-29 -66 -83.5 -107.5t-103.5 -54.5t-99 -13t-99 13t-104 54.5t-84 107.5z" />
    <glyph glyph-name="afii10145" unicode="&#x40f;" horiz-adv-x="1363" 
d="M184 0v1366h90v-1284h816v1284h90v-1366h-453v-307h-90v307h-453z" />
    <glyph glyph-name="afii10017" unicode="&#x410;" horiz-adv-x="1200" 
d="M1073 0l-182 449h-582l-182 -449h-98l575 1407l567 -1407h-98zM342 530h516l-256 648z" />
    <glyph glyph-name="afii10018" unicode="&#x411;" horiz-adv-x="1093" 
d="M184 0v1366h658v-82h-568v-506h238q41 0 78.5 -2.5t87 -12t90 -25t82 -44.5t69.5 -67t46 -95.5t18 -128.5q0 -63 -15 -120.5t-49 -109.5t-84.5 -90t-125.5 -60.5t-168 -22.5h-357zM274 696v-614h230q43 0 70 1.5t72.5 9t85 27.5t71.5 52q86 82 86 231q0 180 -141 252
q-38 19 -88.5 28.5t-83 11t-89.5 1.5h-213z" />
    <glyph glyph-name="afii10019" unicode="&#x412;" horiz-adv-x="1093" 
d="M184 0v1366h299q176 0 276.5 -93t100.5 -249q0 -201 -160 -299q132 -21 207.5 -114.5t75.5 -227.5q0 -177 -117.5 -280t-306.5 -103h-375zM274 1284v-536h218q59 0 102 11.5t84 45.5q90 74 90 209q0 137 -92 213q-73 57 -227 57h-175zM274 666v-584h230q64 0 101 2.5
t95 22t101 57.5q88 78 88 209q0 187 -146 254q-90 39 -256 39h-213z" />
    <glyph glyph-name="afii10020" unicode="&#x413;" horiz-adv-x="819" 
d="M184 0v1366h607v-82h-517v-1284h-90z" />
    <glyph glyph-name="afii10021" unicode="&#x414;" horiz-adv-x="1249" 
d="M295 1366h770v-1284h156v-356h-86v274h-1020v-274h-86v356q70 0 127 51.5t90 132.5q49 123 49 359v741zM385 1284v-659q0 -253 -49 -381q-35 -92 -105 -162h744v1202h-590z" />
    <glyph glyph-name="afii10022" unicode="&#x415;" horiz-adv-x="950" 
d="M840 1366v-82h-566v-496h553v-81h-553v-625h566v-82h-656v1366h656z" />
    <glyph glyph-name="afii10024" unicode="&#x416;" horiz-adv-x="1630" 
d="M770 1366h90v-643l578 643h118l-606 -661l652 -705h-119l-596 643l-27 -27v-616h-90v616l-27 27l-596 -643h-118l651 705l-606 661h119l577 -643v643z" />
    <glyph glyph-name="afii10025" unicode="&#x417;" horiz-adv-x="1134" 
d="M279 1135l-66 55q118 194 371 194q154 0 247 -88q99 -92 99 -245q0 -104 -49.5 -180t-130.5 -119q131 -33 202.5 -131t71.5 -230q0 -113 -45 -196.5t-111 -131.5q-51 -37 -122.5 -58t-108.5 -24.5t-66 -3.5q-170 0 -286.5 82.5t-173.5 206.5l86 41q35 -83 103 -141.5
t138.5 -82.5t139.5 -24q59 0 126 20t109 52q117 87 117 260q0 142 -97 222.5t-268 80.5h-123v82h123q108 0 189.5 75.5t81.5 199.5q0 107 -64 176q-71 76 -199 76q-186 0 -294 -168z" />
    <glyph glyph-name="afii10026" unicode="&#x418;" horiz-adv-x="1433" 
d="M1159 0v1139l-975 -1174v1401h90v-1159l975 1173v-1380h-90z" />
    <glyph glyph-name="afii10027" unicode="&#x419;" horiz-adv-x="1433" 
d="M1159 0v1139l-975 -1174v1401h90v-1159l975 1173v-1380h-90zM430 1645l72 38q60 -131 215 -131t215 131l72 -38q-29 -66 -84 -107.5t-104 -54.5t-99 -13t-99 13t-104 54.5t-84 107.5z" />
    <glyph glyph-name="afii10028" unicode="&#x41a;" horiz-adv-x="1105" 
d="M274 1366v-643l646 643h118l-661 -653l700 -713h-123l-643 651l-37 -35v-616h-90v1366h90z" />
    <glyph glyph-name="afii10029" unicode="&#x41b;" horiz-adv-x="1269" 
d="M315 1366h770v-1366h-90v1284h-589v-795q0 -75 -2 -118t-10.5 -106t-29.5 -110.5t-55 -84.5q-75 -82 -198 -82q-32 0 -82 12v82q40 -12 75 -12q81 0 134 53q22 23 37.5 57.5t23 64t11.5 80.5t4.5 78.5t0.5 85.5v877z" />
    <glyph glyph-name="afii10030" unicode="&#x41c;" horiz-adv-x="1835" 
d="M260 0h-90l156 1413l592 -1263l591 1263l156 -1413h-90l-121 1098l-536 -1147l-537 1147z" />
    <glyph glyph-name="afii10031" unicode="&#x41d;" horiz-adv-x="1376" 
d="M274 1366v-580h828v580h90v-1366h-90v705h-828v-705h-90v1366h90z" />
    <glyph glyph-name="afii10032" unicode="&#x41e;" horiz-adv-x="1638" 
d="M819 1384q196 0 359 -93.5t256.5 -255t93.5 -355.5q0 -145 -55 -275t-149.5 -224t-226 -149t-278.5 -55t-278.5 55t-225.5 149t-149 224t-55 275t55 275.5t149 224.5t225.5 149t278.5 55zM819 59q130 0 244.5 48.5t195.5 131.5t128 197.5t47 243.5q0 173 -79.5 315.5
t-221 225t-314.5 82.5t-314 -82.5t-220.5 -225t-79.5 -315.5q0 -172 79.5 -314t220.5 -224.5t314 -82.5z" />
    <glyph glyph-name="afii10033" unicode="&#x41f;" horiz-adv-x="1376" 
d="M184 1366h1008v-1366h-90v1284h-828v-1284h-90v1366z" />
    <glyph glyph-name="afii10034" unicode="&#x420;" horiz-adv-x="913" 
d="M451 649h-177v-649h-90v1366h265q174 0 286.5 -93.5t112.5 -262.5q0 -168 -109 -264.5t-288 -96.5zM274 1284v-553h181q135 0 217 74.5t82 202.5t-83 202t-231 74h-166z" />
    <glyph glyph-name="afii10035" unicode="&#x421;" horiz-adv-x="1388" 
d="M1278 1206v-119q-88 103 -208.5 159.5t-252.5 56.5q-129 0 -243 -49.5t-194.5 -134t-127.5 -200t-47 -243.5q0 -117 37.5 -219.5t99.5 -174t142 -123t165.5 -76t169.5 -24.5q115 0 238.5 50.5t220.5 156.5v-119q-99 -87 -217.5 -128.5t-237.5 -41.5q-200 0 -364.5 96
t-256 257t-91.5 350q0 193 94.5 355t257 255.5t356.5 93.5q74 0 144 -15.5t118 -35.5t93 -48t65.5 -45t38.5 -34z" />
    <glyph glyph-name="afii10036" unicode="&#x422;" horiz-adv-x="856" 
d="M827 1284h-354v-1284h-90v1284h-354v82h798v-82z" />
    <glyph glyph-name="afii10037" unicode="&#x423;" horiz-adv-x="1126" 
d="M29 1366h102l473 -885l400 885h94l-625 -1366h-94l174 381z" />
    <glyph glyph-name="afii10038" unicode="&#x424;" horiz-adv-x="1679" 
d="M795 0v193h-58q-146 0 -259.5 34.5t-181 88.5t-111 127t-59 141.5t-15.5 140.5t15.5 140.5t59 141.5t111 127t181 88.5t259.5 34.5h58v164h90v-164h57q106 0 194.5 -18t152 -48.5t113.5 -73.5t80.5 -89.5t50.5 -100.5t28 -103t8 -99t-8 -99t-28 -103t-50.5 -100.5
t-80.5 -89.5t-113.5 -73.5t-152 -48.5t-194.5 -18h-57v-193h-90zM795 274v902h-62q-122 0 -216.5 -28.5t-152 -73t-94.5 -106t-51 -120.5t-14 -123t14 -123t51 -120.5t94.5 -106t152 -73t216.5 -28.5h62zM885 1176v-902h61q102 0 185.5 19.5t139.5 54t97 78t64 95.5t33 102
t10 102t-10 102t-33 102t-64 95.5t-97 78t-139.5 54t-185.5 19.5h-61z" />
    <glyph glyph-name="afii10039" unicode="&#x425;" horiz-adv-x="962" 
d="M47 0l375 696l-359 670h99l309 -584l311 584h99l-357 -670l375 -696h-98l-330 614l-326 -614h-98z" />
    <glyph glyph-name="afii10040" unicode="&#x426;" horiz-adv-x="1363" 
d="M184 0v1366h90v-1284h816v1284h90v-1284h155v-356h-86v274h-1065z" />
    <glyph glyph-name="afii10041" unicode="&#x427;" horiz-adv-x="1187" 
d="M913 0v614q-229 -14 -348 -14q-186 0 -278 45q-89 44 -116.5 114t-27.5 191v416h90v-416q0 -40 2 -63.5t11.5 -61.5t34 -65.5t63.5 -46.5q63 -31 250 -31q141 0 319 14v670h91v-1366h-91z" />
    <glyph glyph-name="afii10042" unicode="&#x428;" horiz-adv-x="1884" 
d="M184 0v1366h90v-1284h623v1284h90v-1284h623v1284h90v-1366h-1516z" />
    <glyph glyph-name="afii10043" unicode="&#x429;" horiz-adv-x="1884" 
d="M184 0v1366h90v-1284h623v1284h90v-1284h623v1284h90v-1284h155v-356h-86v274h-1585z" />
    <glyph glyph-name="afii10044" unicode="&#x42a;" horiz-adv-x="1249" 
d="M356 0v1284h-327v82h417v-588h238q41 0 78.5 -2.5t87 -12t90 -25t82 -44.5t69.5 -67t46 -95.5t18 -128.5q0 -63 -15 -120.5t-49 -109.5t-84.5 -90t-125.5 -60.5t-168 -22.5h-357zM446 696v-614h230q43 0 70 1.5t72.5 9t85 27.5t71.5 52q86 82 86 231q0 180 -141 252
q-37 19 -86 28.5t-82 11t-93 1.5h-213z" />
    <glyph glyph-name="afii10045" unicode="&#x42b;" horiz-adv-x="1413" 
d="M184 0v1366h90v-588h238q41 0 78.5 -2.5t87 -12t90 -25t82 -44.5t69.5 -67t46 -95.5t18 -128.5q0 -63 -15 -120.5t-49 -109.5t-84.5 -90t-125.5 -60.5t-168 -22.5h-357zM274 696v-614h230q43 0 70 1.5t72.5 9t85 27.5t71.5 52q86 82 86 231q0 180 -141 252
q-37 19 -86 28.5t-82 11t-93 1.5h-213zM1139 1366h90v-1366h-90v1366z" />
    <glyph glyph-name="afii10046" unicode="&#x42c;" horiz-adv-x="1077" 
d="M184 0v1366h90v-588h238q41 0 78.5 -2.5t87 -12t90 -25t82 -44.5t69.5 -67t46 -95.5t18 -128.5q0 -63 -15 -120.5t-49 -109.5t-84.5 -90t-125.5 -60.5t-168 -22.5h-357zM274 696v-614h230q43 0 70 1.5t72.5 9t85 27.5t71.5 52q86 82 86 231q0 180 -141 252
q-37 19 -86 28.5t-82 11t-93 1.5h-213z" />
    <glyph glyph-name="afii10047" unicode="&#x42d;" horiz-adv-x="1388" 
d="M111 147v119q97 -106 220 -156.5t238 -50.5q87 0 174 25.5t165 77.5t138.5 123t97.5 169.5t40 209.5h-910v81h906q-11 119 -64.5 223.5t-135 177.5t-188 115t-221.5 42q-132 0 -252 -56.5t-208 -159.5v119q24 23 54.5 45.5t89.5 56.5t141.5 55t172.5 21q145 0 276 -55
t226 -149t151 -224.5t56 -275.5q0 -141 -54.5 -270t-148 -224.5t-227 -152t-283.5 -56.5q-119 0 -237 41.5t-217 128.5z" />
    <glyph glyph-name="afii10048" unicode="&#x42e;" horiz-adv-x="1966" 
d="M274 762h209q31 270 225.5 446t458.5 176q143 0 271 -55t219.5 -149t144.5 -224.5t53 -275.5t-53.5 -275t-145 -224t-219 -149t-270.5 -55q-144 0 -272 55.5t-218.5 150.5t-143.5 224.5t-54 272.5h-205v-680h-90v1366h90v-604zM1167 59q168 0 304.5 82.5t213 224.5
t76.5 314t-76.5 314.5t-213 225.5t-304.5 83t-304.5 -83t-213 -225.5t-76.5 -314.5t76.5 -314t213 -224.5t304.5 -82.5z" />
    <glyph glyph-name="afii10049" unicode="&#x42f;" horiz-adv-x="962" 
d="M70 0l413 612q-74 3 -153 31q-20 7 -40 17.5t-55 38.5t-60 63.5t-44.5 95.5t-19.5 131q0 64 17 119.5t45 94.5t56.5 65.5t59.5 44.5q90 53 256 53h233v-1366h-90v612h-102l-410 -612h-106zM688 1284h-143q-120 0 -187 -33q-72 -34 -112.5 -103.5t-40.5 -158.5
q0 -143 90 -223q80 -72 237 -72h156v590z" />
    <glyph glyph-name="afii10065" unicode="&#x430;" horiz-adv-x="1056" 
d="M827 690v146h82v-836h-82v150q-59 -90 -146 -131.5t-179 -41.5q-82 0 -156 31t-130 86.5t-89 139.5t-33 184q0 194 112.5 315t295.5 121q209 0 325 -164zM506 776q-133 0 -229.5 -95t-96.5 -257q0 -96 37 -179t113.5 -136.5t177.5 -53.5q76 0 138.5 30.5t102 82t61 117.5
t21.5 139q0 89 -30 159t-79 110.5t-104.5 61.5t-111.5 21z" />
    <glyph glyph-name="afii10066" unicode="&#x431;" horiz-adv-x="1064" 
d="M178 637h4q47 109 148.5 163t218.5 54q190 0 306 -121t116 -315q0 -134 -59 -235t-158.5 -153.5t-223.5 -52.5q-179 0 -292 105q-48 45 -79.5 105t-44 126.5t-16.5 112.5t-4 102q0 503 262 674q24 16 54 29.5t49.5 21.5t60 18t51.5 12.5t59 12t50 9.5q88 19 128 44.5
t56 63.5h103q-15 -34 -35.5 -62t-48 -47.5t-50.5 -33t-58.5 -24.5t-55 -16t-55.5 -13q-59 -12 -95 -20.5t-96 -33.5t-102 -59q-94 -76 -141 -205t-52 -262zM530 55q92 0 163 33t111.5 87t60.5 116t20 127q0 54 -13.5 105.5t-42 97.5t-67.5 80.5t-94 54.5t-119 20
q-86 0 -156.5 -31.5t-114 -83t-67 -114.5t-23.5 -129q0 -64 22 -130t58 -112q93 -121 262 -121z" />
    <glyph glyph-name="afii10067" unicode="&#x432;" horiz-adv-x="847" 
d="M147 836h273q115 0 178 -50q74 -60 74 -159q0 -115 -92 -174q56 -8 102 -47q72 -64 72 -168q0 -117 -84 -181q-74 -57 -205 -57h-318v836zM229 471h191q76 0 119 35q51 40 51 110q0 69 -51 109q-42 33 -119 33h-191v-287zM229 78h236q93 0 143 37q60 44 60 125
q0 73 -56 116q-48 37 -147 37h-236v-315z" />
    <glyph glyph-name="afii10068" unicode="&#x433;" horiz-adv-x="614" 
d="M147 0v836h451v-78h-369v-758h-82z" />
    <glyph glyph-name="afii10069" unicode="&#x434;" horiz-adv-x="901" 
d="M205 836h549v-758h123v-303h-78v225h-705v-225h-78v303q54 3 93 34.5t61 75.5q35 71 35 226v422zM672 78v680h-385v-369q0 -220 -107 -311h492z" />
    <glyph glyph-name="afii10070" unicode="&#x435;" horiz-adv-x="989" 
d="M895 408h-715q0 -155 98 -254t234 -99q98 0 174 52t117 139l69 -41q-21 -40 -50 -76t-72.5 -72.5t-107 -58t-136.5 -21.5q-190 0 -301 124t-111 313q0 105 34.5 190.5t92 139t129.5 82t150 28.5q171 0 283 -124.5t112 -321.5zM186 485h623q-15 126 -100.5 208.5
t-208.5 82.5q-124 0 -210 -83t-104 -208z" />
    <glyph glyph-name="afii10072" unicode="&#x436;" horiz-adv-x="1146" 
d="M532 836h82v-398l377 398h107l-389 -402l421 -434h-110l-365 381l-41 -41v-340h-82v340l-40 41l-365 -381h-111l422 434l-389 402h107l376 -398v398z" />
    <glyph glyph-name="afii10073" unicode="&#x437;" horiz-adv-x="819" 
d="M215 659l-68 48q87 147 265 147q120 0 184 -59q68 -60 68 -162q0 -122 -97 -174q56 -13 99 -56q59 -59 59 -159q0 -129 -98 -205q-83 -62 -213 -62q-135 0 -219 64q-69 55 -101 121l74 47q33 -71 88 -107q64 -47 158 -47q104 0 159 47q66 54 66 144q0 80 -57 123
q-50 37 -154 37h-86v77h64q78 0 124 35q52 41 52 107q0 65 -43 108q-48 43 -129 43q-130 0 -195 -117z" />
    <glyph glyph-name="afii10074" unicode="&#x438;" horiz-adv-x="970" 
d="M147 836h82v-670l594 717v-883h-82v666l-594 -717v887z" />
    <glyph glyph-name="afii10075" unicode="&#x439;" horiz-adv-x="970" 
d="M147 836h82v-670l594 717v-883h-82v666l-594 -717v887zM242 1174l69 34q16 -64 68.5 -106.5t128.5 -42.5t128.5 42.5t68.5 106.5l69 -34q-10 -32 -27 -61.5t-47 -61.5t-79.5 -51t-112.5 -19t-112.5 19t-79.5 51t-47 61.5t-27 61.5z" />
    <glyph glyph-name="afii10076" unicode="&#x43a;" horiz-adv-x="811" 
d="M147 836h82v-398l422 398h111l-426 -398l459 -438h-119l-402 383l-45 -43v-340h-82v836z" />
    <glyph glyph-name="afii10077" unicode="&#x43b;" horiz-adv-x="880" 
d="M733 836v-836h-82v758h-385v-484q0 -136 -49 -202q-55 -76 -160 -76q-13 0 -41 4v78q20 -4 31 -4q72 0 109 55q28 43 28 145v562h549z" />
    <glyph glyph-name="afii10078" unicode="&#x43c;" horiz-adv-x="1159" 
d="M49 0l197 887l334 -754l333 754l197 -887h-86l-135 653l-309 -704l-310 704l-135 -653h-86z" />
    <glyph glyph-name="afii10079" unicode="&#x43d;" horiz-adv-x="929" 
d="M147 0v836h82v-369h471v369h82v-836h-82v389h-471v-389h-82z" />
    <glyph glyph-name="afii10080" unicode="&#x43e;" horiz-adv-x="1064" 
d="M532 854q186 0 312.5 -126t126.5 -312t-126.5 -312.5t-312.5 -126.5t-312 126.5t-126 312.5t126 312t312 126zM532 55q150 0 251.5 104t101.5 257t-101.5 256.5t-251.5 103.5t-251 -103.5t-101 -256.5t101 -257t251 -104z" />
    <glyph glyph-name="afii10081" unicode="&#x43f;" horiz-adv-x="917" 
d="M147 0v836h623v-836h-82v758h-459v-758h-82z" />
    <glyph glyph-name="afii10082" unicode="&#x440;" horiz-adv-x="1056" 
d="M229 150v-621h-82v1307h82v-146q120 164 328 164q185 0 295.5 -122t110.5 -308q0 -92 -28.5 -173.5t-80.5 -142t-130 -96t-171 -35.5q-72 0 -132.5 20t-99.5 52.5t-58.5 55t-33.5 45.5zM551 55q153 0 239.5 104.5t86.5 264.5q0 165 -94 258.5t-230 93.5q-63 0 -121 -22.5
t-104.5 -64.5t-74.5 -109.5t-28 -151.5q0 -163 86.5 -268t239.5 -105z" />
    <glyph glyph-name="afii10083" unicode="&#x441;" horiz-adv-x="905" 
d="M817 748v-109q-120 137 -289 137q-152 0 -250 -103.5t-98 -258.5q0 -86 30.5 -156.5t81 -113.5t110.5 -66t122 -23q166 0 303 150v-111q-131 -117 -305 -117q-188 0 -308 124t-120 311q0 191 118.5 316.5t315.5 125.5q162 0 289 -106z" />
    <glyph glyph-name="afii10084" unicode="&#x442;" horiz-adv-x="696" 
d="M307 0v758h-291v78h664v-78h-291v-758h-82z" />
    <glyph glyph-name="afii10085" unicode="&#x443;" horiz-adv-x="876" 
d="M217 -471l197 457l-398 850h95l350 -744l305 744h94l-549 -1307h-94z" />
    <glyph glyph-name="afii10086" unicode="&#x444;" horiz-adv-x="1228" 
d="M573 -471v457q-208 0 -337 108q-142 121 -142 324q0 204 142 325q128 105 337 105v518h82v-518q210 0 338 -105q142 -121 142 -325q0 -203 -142 -324q-129 -108 -338 -108v-457h-82zM573 63v707q-175 0 -280 -86q-113 -94 -113 -266q0 -173 113 -266q50 -41 127.5 -65
t152.5 -24zM655 770v-707q75 0 153 24t128 65q113 93 113 266q0 172 -113 266q-105 86 -281 86z" />
    <glyph glyph-name="afii10087" unicode="&#x445;" horiz-adv-x="819" 
d="M16 0l338 438l-309 398h100l265 -344l260 344h100l-303 -398l336 -438h-101l-292 385l-293 -385h-101z" />
    <glyph glyph-name="afii10088" unicode="&#x446;" horiz-adv-x="909" 
d="M147 0v836h82v-758h451v758h82v-758h123v-303h-78v225h-660z" />
    <glyph glyph-name="afii10089" unicode="&#x447;" horiz-adv-x="843" 
d="M614 0v346q-136 -20 -219 -20q-133 0 -196 45q-27 19 -43.5 45.5t-23 60t-8 53.5t-1.5 54v252h82v-252q0 -115 55 -154q40 -27 125 -27q90 0 229 21v412h82v-836h-82z" />
    <glyph glyph-name="afii10090" unicode="&#x448;" horiz-adv-x="1318" 
d="M147 0v836h82v-758h389v758h82v-758h390v758h81v-836h-1024z" />
    <glyph glyph-name="afii10091" unicode="&#x449;" horiz-adv-x="1318" 
d="M147 0v836h82v-758h389v758h82v-758h390v758h81v-758h123v-303h-77v225h-1070z" />
    <glyph glyph-name="afii10092" unicode="&#x44a;" horiz-adv-x="851" 
d="M16 836h287v-349h199q146 0 213 -77q59 -65 59 -166q0 -113 -74 -181q-67 -63 -200 -63h-279v758h-205v78zM303 78h197q85 0 131 39q57 47 57 127q0 83 -59 129q-48 37 -133 37h-193v-332z" />
    <glyph glyph-name="afii10093" unicode="&#x44b;" 
d="M147 836h82v-349h199q146 0 213 -77q59 -65 59 -166q0 -114 -73 -181q-67 -63 -201 -63h-279v836zM229 78h197q85 0 131 39q57 47 57 127q0 83 -59 129q-48 37 -133 37h-193v-332zM795 836h82v-836h-82v836z" />
    <glyph glyph-name="afii10094" unicode="&#x44c;" horiz-adv-x="778" 
d="M147 836h82v-349h199q146 0 213 -77q59 -65 59 -166q0 -114 -73 -181q-67 -63 -201 -63h-279v836zM229 78h197q85 0 131 39q57 47 57 127q0 83 -59 129q-48 37 -133 37h-193v-332z" />
    <glyph glyph-name="afii10095" unicode="&#x44d;" horiz-adv-x="843" 
d="M78 20v86q91 -51 225 -51q169 0 270 109q86 90 91 225h-490v78h490q-16 150 -138 242q-94 67 -229 67q-131 0 -211 -43v82q102 39 211 39q195 0 313 -104q140 -119 140 -330q0 -203 -125 -324q-124 -119 -322 -119q-137 0 -225 43z" />
    <glyph glyph-name="afii10096" unicode="&#x44e;" horiz-adv-x="1310" 
d="M229 467h144q19 168 136.5 277.5t285.5 109.5q180 0 301 -126t121 -312t-121 -312.5t-301 -126.5q-167 0 -290 113.5t-132 298.5h-144v-389h-82v836h82v-369zM795 55q144 0 239.5 104t95.5 257t-95.5 256.5t-239.5 103.5t-240 -103.5t-96 -256.5t96 -257t240 -104z" />
    <glyph glyph-name="afii10097" unicode="&#x44f;" horiz-adv-x="790" 
d="M57 0l267 365q-97 3 -164 61q-70 63 -70 166q0 121 76 184q69 60 199 60h278v-836h-82v360h-143l-262 -360h-99zM561 438v320h-196q-87 0 -134 -37q-55 -47 -55 -127t53 -119q48 -37 136 -37h196z" />
    <glyph glyph-name="afii10071" unicode="&#x451;" horiz-adv-x="989" 
d="M895 408h-715q0 -155 98 -254t234 -99q98 0 174 52t117 139l69 -41q-21 -40 -50 -76t-72.5 -72.5t-107 -58t-136.5 -21.5q-190 0 -301 124t-111 313q0 105 34.5 190.5t92 139t129.5 82t150 28.5q171 0 283 -124.5t112 -321.5zM186 485h623q-15 126 -100.5 208.5
t-208.5 82.5q-124 0 -210 -83t-104 -208zM260 1077q0 31 21.5 52.5t52.5 21.5t52.5 -21.5t21.5 -52.5t-21.5 -52t-52.5 -21t-52.5 21t-21.5 52zM600 1077q0 31 21.5 52.5t52.5 21.5t52.5 -21.5t21.5 -52.5t-21.5 -52t-52.5 -21t-52.5 21t-21.5 52z" />
    <glyph glyph-name="afii10099" unicode="&#x452;" horiz-adv-x="905" 
d="M147 0v1069h-147v78h147v346h82v-346h369v-78h-369v-446q83 149 256 149q52 0 95.5 -13.5t71 -35t41.5 -37t24 -31.5q41 -65 41 -211v-639q0 -154 -72 -223q-55 -53 -147 -53q-35 0 -72 12v76q25 -10 57 -10q66 0 103 35q49 47 49 178v624q0 118 -33 168q-48 82 -164 82
q-140 0 -205 -116q-45 -80 -45 -226v-352h-82z" />
    <glyph glyph-name="afii10100" unicode="&#x453;" horiz-adv-x="614" 
d="M147 0v836h451v-78h-369v-758h-82zM481 1270l88 -51l-215 -263l-61 33z" />
    <glyph glyph-name="afii10101" unicode="&#x454;" horiz-adv-x="903" 
d="M815 748v-109q-120 137 -289 137q-138 0 -236 -88.5t-110 -220.5h488v-78h-488q4 -147 106 -240.5t236 -93.5q166 0 303 150v-111q-131 -117 -305 -117q-187 0 -306.5 124t-119.5 311q0 124 51.5 224t150.5 159t230 59q162 0 289 -106z" />
    <glyph glyph-name="afii10102" unicode="&#x455;" horiz-adv-x="684" 
d="M573 719l-69 -37q-21 47 -60 70.5t-86 23.5q-66 0 -103.5 -41t-37.5 -92q0 -24 8.5 -43.5t19 -32t34 -26t38.5 -20t48 -19.5q10 -4 40.5 -15.5t42 -16.5t35.5 -16t37.5 -20.5t30 -24t29.5 -30.5q43 -53 43 -135q0 -68 -24 -121t-64.5 -84t-87.5 -46.5t-97 -15.5
q-106 0 -184.5 59.5t-104.5 162.5l80 24q21 -80 79 -124t130 -44q80 0 133.5 52t53.5 133q0 66 -41.5 102t-145.5 78q-52 22 -78.5 34t-56 32.5t-47.5 43.5q-37 51 -37 109q0 94 63.5 154.5t159.5 60.5q75 0 132.5 -34.5t86.5 -100.5z" />
    <glyph glyph-name="afii10103" unicode="&#x456;" horiz-adv-x="376" 
d="M147 836h82v-836h-82v836zM188 1038q-31 0 -52 21.5t-21 54.5t21 54.5t52 21.5t52.5 -21.5t21.5 -54.5t-21.5 -54.5t-52.5 -21.5z" />
    <glyph glyph-name="afii10104" unicode="&#x457;" horiz-adv-x="376" 
d="M145 836h82v-836h-82v836zM16 1116q0 31 21.5 52.5t52.5 21.5t52.5 -21.5t21.5 -52.5t-21.5 -52.5t-52.5 -21.5t-52.5 21.5t-21.5 52.5zM213 1116q0 31 21.5 52.5t52.5 21.5t52 -21.5t21 -52.5t-21 -52.5t-52 -21.5t-52.5 21.5t-21.5 52.5z" />
    <glyph glyph-name="afii10105" unicode="&#x458;" horiz-adv-x="376" 
d="M147 836h82v-1307h-82v1307zM188 1038q-31 0 -52 21.5t-21 54.5t21 54.5t52 21.5t52.5 -21.5t21.5 -54.5t-21.5 -54.5t-52.5 -21.5z" />
    <glyph glyph-name="afii10106" unicode="&#x459;" horiz-adv-x="1282" 
d="M733 836v-349h199q146 0 213 -77q59 -65 59 -166q0 -113 -74 -181q-67 -63 -200 -63h-279v758h-385v-484q0 -136 -49 -202q-55 -76 -160 -76q-13 0 -41 4v78q20 -4 31 -4q72 0 109 55q28 43 28 145v562h549zM733 78h197q85 0 131 39q57 47 57 127q0 83 -59 129
q-48 37 -133 37h-193v-332z" />
    <glyph glyph-name="afii10107" unicode="&#x45a;" horiz-adv-x="1331" 
d="M147 0v836h82v-349h471v349h82v-349h199q146 0 213 -77q59 -65 59 -166q0 -114 -73 -181q-67 -63 -201 -63h-279v410h-471v-410h-82zM782 78h197q85 0 131 39q57 47 57 127q0 83 -59 129q-48 37 -133 37h-193v-332z" />
    <glyph glyph-name="afii10108" unicode="&#x45b;" horiz-adv-x="905" 
d="M147 0v1069h-147v78h147v346h82v-346h369v-78h-369v-446q83 149 256 149q52 0 95.5 -13.5t71 -35t41.5 -37t24 -31.5q41 -65 41 -211v-444h-82v444q0 118 -33 168q-48 82 -164 82q-140 0 -205 -116q-45 -80 -45 -226v-352h-82z" />
    <glyph glyph-name="afii10109" unicode="&#x45c;" horiz-adv-x="811" 
d="M147 836h82v-398l422 398h111l-426 -398l459 -438h-119l-402 383l-45 -43v-340h-82v836zM518 1270l88 -51l-215 -263l-61 33z" />
    <glyph glyph-name="afii10110" unicode="&#x45e;" horiz-adv-x="876" 
d="M217 -471l197 457l-398 850h95l350 -744l305 744h94l-549 -1307h-94zM184 1174l70 34q16 -64 68.5 -106.5t128.5 -42.5t128 42.5t68 106.5l70 -34q-10 -32 -27 -61.5t-47 -61.5t-79.5 -51t-112.5 -19t-112.5 19t-80 51t-47.5 61.5t-27 61.5z" />
    <glyph glyph-name="afii10193" unicode="&#x45f;" horiz-adv-x="909" 
d="M147 0v836h82v-758h451v758h82v-836h-266v-246h-82v246h-267z" />
    <glyph glyph-name="afii10146" unicode="&#x462;" horiz-adv-x="1249" 
d="M356 0v1079h-327v82h327v260h90v-260h410v-82h-410v-301h238q41 0 78.5 -2.5t87 -12t90 -25t82 -44.5t69.5 -67t46 -95.5t18 -128.5q0 -63 -15 -120.5t-49 -109.5t-84.5 -90t-125.5 -60.5t-168 -22.5h-357zM446 696v-614h230q43 0 70 1.5t72.5 9t85 27.5t71.5 52
q86 82 86 231q0 180 -141 252q-37 19 -86 28.5t-82 11t-93 1.5h-213z" />
    <glyph glyph-name="afii10194" unicode="&#x463;" horiz-adv-x="851" 
d="M16 836h205v530h82v-530h246v-78h-246v-271h199q146 0 213 -77q59 -65 59 -166q0 -113 -74 -181q-67 -63 -200 -63h-279v758h-205v78zM303 78h197q85 0 131 39q57 47 57 127q0 83 -59 129q-48 37 -133 37h-193v-332z" />
    <glyph glyph-name="afii10147" unicode="&#x472;" horiz-adv-x="1638" 
d="M819 1384q196 0 359 -93.5t256.5 -255t93.5 -355.5q0 -145 -55 -275t-149.5 -224t-226 -149t-278.5 -55t-278.5 55t-225.5 149t-149 224t-55 275t55 275.5t149 224.5t225.5 149t278.5 55zM819 59q134 0 248.5 49t192.5 131.5t123.5 190t50.5 225.5h-1229
q5 -118 50.5 -225.5t123 -190t192 -131.5t248.5 -49zM207 737h1225q-15 167 -102.5 297.5t-221.5 199.5t-289 69q-116 0 -222.5 -41t-188.5 -113.5t-136 -179.5t-65 -232z" />
    <glyph glyph-name="afii10195" unicode="&#x473;" horiz-adv-x="1064" 
d="M532 854q186 0 312.5 -126t126.5 -312t-126.5 -312.5t-312.5 -126.5t-312 126.5t-126 312.5t126 312t312 126zM883 387h-701q9 -146 110.5 -239t239.5 -93t240 93t111 239zM182 465h701q-19 146 -122.5 228.5t-228.5 82.5q-80 0 -153 -33.5t-128.5 -106t-68.5 -171.5z
" />
    <glyph glyph-name="afii10148" unicode="&#x474;" horiz-adv-x="1044" 
d="M29 1366h98l401 -1163l390 1163h98l-488 -1421z" />
    <glyph glyph-name="afii10196" unicode="&#x475;" horiz-adv-x="798" 
d="M16 836h90l295 -695l291 695h90l-381 -887z" />
    <glyph glyph-name="afii10050" unicode="&#x490;" horiz-adv-x="819" 
d="M184 0v1366h521v272h86v-354h-517v-1284h-90z" />
    <glyph glyph-name="afii10098" unicode="&#x491;" horiz-adv-x="614" 
d="M147 0v836h373v225h78v-303h-369v-758h-82z" />
    <glyph glyph-name="uni0492" unicode="&#x492;" horiz-adv-x="819" 
d="M184 0v707h-184v81h184v578h607v-82h-517v-496h279v-81h-279v-707h-90z" />
    <glyph glyph-name="uni0493" unicode="&#x493;" horiz-adv-x="614" 
d="M147 0v410h-147v77h147v349h451v-78h-369v-271h205v-77h-205v-410h-82z" />
    <glyph glyph-name="uni0494" unicode="&#x494;" horiz-adv-x="1077" 
d="M791 1284h-517v-536q145 47 281 47q235 0 342 -125q86 -100 86 -273q0 -113 -37 -199t-100 -135q-95 -75 -260 -75q-62 0 -140 12v82q56 -12 129 -12q71 0 123.5 14t96.5 53q94 85 94 256q0 133 -68 219q-83 101 -260 101q-148 0 -287 -47v-666h-90v1366h607v-82z" />
    <glyph glyph-name="uni0495" unicode="&#x495;" horiz-adv-x="778" 
d="M147 0v836h451v-78h-369v-275h62q146 0 246 -71q147 -105 147 -340q0 -222 -143 -365q-107 -107 -265 -133v82q122 26 207 115q115 123 115 305q0 88 -33 162.5t-92 115.5q-77 52 -182 52h-62v-406h-82z" />
    <glyph glyph-name="uni0496" unicode="&#x496;" horiz-adv-x="1630" 
d="M770 1366h90v-643l578 643h118l-606 -661l576 -623h76v-356h-86v274h-33l-596 643l-27 -27v-616h-90v616l-27 27l-596 -643h-118l651 705l-606 661h119l577 -643v643z" />
    <glyph glyph-name="uni0497" unicode="&#x497;" horiz-adv-x="1146" 
d="M532 836h82v-398l377 398h107l-389 -402l346 -356h75v-303h-77v225h-33l-365 381l-41 -41v-340h-82v340l-40 41l-365 -381h-111l422 434l-389 402h107l376 -398v398z" />
    <glyph glyph-name="uni0498" unicode="&#x498;" horiz-adv-x="1134" 
d="M279 1135l-66 55q55 93 152 145q89 49 213 49q158 0 253 -88q99 -92 99 -245q0 -104 -53 -187q-52 -80 -127 -112q100 -23 174 -97q100 -103 100 -260q0 -86 -31 -167t-86 -134q-54 -52 -135 -81.5t-160 -32.5v-287h-90v289q-148 3 -262 96q-92 74 -149 188l86 41
q44 -88 118 -153q112 -95 263 -95q71 0 146.5 27.5t121.5 73.5q84 84 84 231q0 139 -99 223q-94 80 -266 80h-123v82h103q137 0 219 84q72 72 72 191q0 107 -64 176q-71 76 -201 76q-110 0 -192 -60q-59 -43 -100 -108z" />
    <glyph glyph-name="uni0499" unicode="&#x499;" horiz-adv-x="819" 
d="M215 659l-68 48q87 147 265 147q120 0 184 -59q68 -60 68 -162q0 -122 -97 -174q56 -13 99 -56q59 -59 59 -161q0 -128 -98 -203q-77 -59 -176 -62v-223h-82v226q-96 5 -170 59q-62 40 -105 123l74 47q33 -71 88 -107q64 -47 158 -47q104 0 159 47q66 54 66 144
q0 80 -57 123q-50 37 -154 37h-86v77h64q78 0 124 35q52 41 52 107q0 65 -43 108q-48 43 -129 43q-130 0 -195 -117z" />
    <glyph glyph-name="uni049A" unicode="&#x49a;" horiz-adv-x="1105" 
d="M184 1366h90v-643l646 643h118l-661 -653l620 -631h80v-356h-86v274h-37l-643 651l-37 -35v-616h-90v1366z" />
    <glyph glyph-name="uni049B" unicode="&#x49b;" horiz-adv-x="811" 
d="M147 836h82v-398l422 398h111l-426 -398l377 -360h82v-303h-78v225h-41l-402 383l-45 -43v-340h-82v836z" />
    <glyph glyph-name="uni049C" unicode="&#x49c;" horiz-adv-x="1228" 
d="M184 1366h90v-621h148v287h82v-287l551 621h106l-588 -653l627 -713h-110l-586 664v-328h-82v328h-148v-664h-90v1366z" />
    <glyph glyph-name="uni049D" unicode="&#x49d;" horiz-adv-x="819" 
d="M147 836h82v-365h88v205h78v-205l305 365h95l-332 -398l340 -438h-103l-305 393v-246h-78v246h-88v-393h-82v836z" />
    <glyph glyph-name="uni04A0" unicode="&#x4a0;" horiz-adv-x="1277" 
d="M356 0v1284h-327v82h417v-643l646 643h118l-661 -653l700 -713h-123l-643 651l-37 -35v-616h-90z" />
    <glyph glyph-name="uni04A1" unicode="&#x4a1;" horiz-adv-x="884" 
d="M221 0v758h-205v78h287v-398l422 398h111l-426 -398l458 -438h-118l-402 383l-45 -43v-340h-82z" />
    <glyph glyph-name="uni04A2" unicode="&#x4a2;" horiz-adv-x="1376" 
d="M184 0v1366h90v-580h828v580h90v-1284h156v-356h-86v274h-160v705h-828v-705h-90z" />
    <glyph glyph-name="uni04A3" unicode="&#x4a3;" horiz-adv-x="929" 
d="M147 0v836h82v-369h471v369h82v-758h123v-303h-78v225h-127v389h-471v-389h-82z" />
    <glyph glyph-name="uni04A4" unicode="&#x4a4;" horiz-adv-x="1736" 
d="M184 0v1366h90v-580h828v580h606v-82h-516v-1284h-90v705h-828v-705h-90z" />
    <glyph glyph-name="uni04A5" unicode="&#x4a5;" horiz-adv-x="1167" 
d="M147 0v836h82v-369h471v369h451v-78h-369v-758h-82v389h-471v-389h-82z" />
    <glyph glyph-name="uni04AA" unicode="&#x4aa;" horiz-adv-x="1388" 
d="M1278 1206v-119q-92 110 -216.5 163t-244.5 53q-256 0 -436 -185q-176 -179 -176 -442q0 -255 172 -430q183 -187 446 -187q255 0 455 207v-119q-182 -156 -395 -167v-287h-90v289q-275 3 -476 202q-206 203 -206 496q0 300 208 504q99 99 228 149.5t272 50.5
q117 0 239 -42.5t220 -135.5z" />
    <glyph glyph-name="uni04AB" unicode="&#x4ab;" horiz-adv-x="905" 
d="M817 748v-109q-120 137 -285 137q-155 0 -253 -102q-99 -104 -99 -260t96 -256q47 -49 112 -76t136 -27q94 0 171.5 44t131.5 106v-111q-110 -99 -252 -114v-226h-81v226q-168 5 -281 122q-119 123 -119 310q0 198 123 321q118 121 307 121q163 0 293 -106z" />
    <glyph glyph-name="uni04AE" unicode="&#x4ae;" horiz-adv-x="1056" 
d="M477 0v584l-448 782h102l393 -690l402 690h102l-461 -782v-584h-90z" />
    <glyph glyph-name="uni04AF" unicode="&#x4af;" horiz-adv-x="798" 
d="M16 836h90l293 -695l293 695h90l-342 -793v-514h-82v514z" />
    <glyph glyph-name="uni04B0" unicode="&#x4b0;" horiz-adv-x="1056" 
d="M477 0v502h-409v82h409l-448 782h102l393 -690l402 690h102l-461 -782h410v-82h-410v-502h-90z" />
    <glyph glyph-name="uni04B1" unicode="&#x4b1;" horiz-adv-x="798" 
d="M16 836h90l293 -695l293 695h90l-342 -793v-43h246v-78h-246v-393h-82v393h-245v78h245v43z" />
    <glyph glyph-name="uni04B2" unicode="&#x4b2;" horiz-adv-x="962" 
d="M47 0l375 696l-359 670h99l309 -584l311 584h99l-357 -670l330 -614h45v-356h-86v274h-12l-330 614l-326 -614h-98z" />
    <glyph glyph-name="uni04B3" unicode="&#x4b3;" horiz-adv-x="819" 
d="M16 0l338 438l-309 398h100l265 -344l260 344h100l-303 -398l276 -360h60v-303h-78v225h-23l-292 385l-293 -385h-101z" />
    <glyph glyph-name="uni04B6" unicode="&#x4b6;" horiz-adv-x="1187" 
d="M913 0v614q-229 -14 -348 -14q-186 0 -278 45q-89 44 -116.5 114t-27.5 191v416h90v-416q0 -40 2 -63.5t11.5 -61.5t34 -65.5t63.5 -46.5q63 -31 250 -31q141 0 319 14v670h91v-1284h155v-356h-86v274h-160z" />
    <glyph glyph-name="uni04B7" unicode="&#x4b7;" horiz-adv-x="843" 
d="M614 0v346q-136 -20 -219 -20q-133 0 -196 45q-27 19 -43.5 45.5t-23 60t-8 53.5t-1.5 54v252h82v-252q0 -115 55 -154q40 -27 125 -27q90 0 229 21v412h82v-758h123v-303h-78v225h-127z" />
    <glyph glyph-name="uni04B8" unicode="&#x4b8;" horiz-adv-x="1187" 
d="M913 0v614q-24 -2 -286 -14v-264h-82v264q-168 0 -258 45q-89 44 -116.5 114t-27.5 191v416h90v-416q0 -40 2 -63.5t11.5 -61.5t34 -65.5t63.5 -46.5q65 -31 201 -31v350h82v-350q103 0 286 14v670h91v-1366h-91z" />
    <glyph glyph-name="uni04B9" unicode="&#x4b9;" horiz-adv-x="860" 
d="M631 0v346q-80 -17 -172 -20v-164h-78v164q-50 0 -101 12t-81 33q-27 19 -43.5 45.5t-23 60t-8 53.5t-1.5 54v252h82v-252q0 -118 55 -154q43 -27 121 -27v246h78v-246q87 3 172 21v412h82v-836h-82z" />
    <glyph glyph-name="uni04BA" unicode="&#x4ba;" horiz-adv-x="1187" 
d="M274 1366v-580h349q186 0 278 -45q89 -43 116 -113t27 -192v-436h-90v436q0 33 -0.5 50t-6 50t-16.5 54t-33 45t-54 39q-63 31 -250 31h-320v-705h-90v1366h90z" />
    <glyph glyph-name="uni04BB" unicode="&#x4bb;" horiz-adv-x="905" 
d="M147 0v1493h82v-788q83 149 256 149q52 0 95.5 -13.5t71 -35t41.5 -37t24 -31.5q41 -65 41 -211v-526h-82v526q0 118 -33 168q-48 82 -164 82q-139 0 -205 -117q-45 -80 -45 -225v-434h-82z" />
    <glyph glyph-name="uni04C0" unicode="&#x4c0;" horiz-adv-x="376" 
d="M147 1366h82v-1366h-82v1366z" />
    <glyph glyph-name="uni04C1" unicode="&#x4c1;" horiz-adv-x="1630" 
d="M770 1366h90v-643l578 643h118l-606 -661l652 -705h-119l-596 643l-27 -27v-616h-90v616l-27 27l-596 -643h-118l651 705l-606 661h119l577 -643v643zM528 1645l72 38q60 -131 215 -131t215 131l72 -38q-29 -66 -84 -107.5t-104 -54.5t-99 -13t-99 13t-104 54.5
t-84 107.5z" />
    <glyph glyph-name="uni04C2" unicode="&#x4c2;" horiz-adv-x="1146" 
d="M532 836h82v-398l377 398h107l-389 -402l421 -434h-110l-365 381l-41 -41v-340h-82v340l-40 41l-365 -381h-111l422 434l-389 402h107l376 -398v398zM307 1174l70 34q16 -64 68 -106.5t128 -42.5t128.5 42.5t68.5 106.5l70 -34q-10 -32 -27 -61.5t-47.5 -61.5t-80 -51
t-112.5 -19t-112.5 19t-79.5 51t-47 61.5t-27 61.5z" />
    <glyph glyph-name="uni04C3" unicode="&#x4c3;" horiz-adv-x="1099" 
d="M184 1366h90v-643l646 643h118l-606 -610q155 0 237.5 -14.5t155.5 -65.5q105 -71 146 -187.5t41 -275.5q0 -150 -30.5 -258t-104.5 -178q-111 -105 -297 -105q-53 0 -123 13v82q62 -13 118 -13q152 0 238 86q105 108 105 365q0 137 -37 233.5t-99 149.5q-102 88 -284 88
q-93 0 -224 -23v-653h-90v1366z" />
    <glyph glyph-name="uni04C4" unicode="&#x4c4;" horiz-adv-x="813" 
d="M147 836h82v-398l422 398h111l-426 -396q132 0 221 -53q164 -96 164 -330q0 -95 -35 -187t-108 -163q-112 -108 -265 -133v82q124 28 207 115q60 63 87.5 140t27.5 148q0 80 -31.5 158t-109.5 119q-76 39 -193 39h-72v-375h-82v836z" />
    <glyph glyph-name="uni04C7" unicode="&#x4c7;" horiz-adv-x="1376" 
d="M184 0v1366h90v-580h828v580h90v-1552q0 -166 -78 -236q-54 -49 -143 -49q-51 0 -94 14v84q35 -12 75 -12q66 0 103 37q47 47 47 186v867h-828v-705h-90z" />
    <glyph glyph-name="uni04C8" unicode="&#x4c8;" horiz-adv-x="929" 
d="M147 0v836h82v-369h471v369h82v-1022q0 -75 -15 -133.5t-62 -102.5q-54 -49 -136 -49q-45 0 -77 12v76q40 -10 61 -10q61 0 96 35q51 49 51 188v559h-471v-389h-82z" />
    <glyph glyph-name="uni04D0" unicode="&#x4d0;" horiz-adv-x="1200" 
d="M1073 0l-182 449h-582l-182 -449h-98l575 1407l567 -1407h-98zM342 530h516l-256 648zM313 1645l72 38q60 -131 215 -131t215 131l72 -38q-29 -66 -84 -107.5t-104 -54.5t-99 -13t-99 13t-104 54.5t-84 107.5z" />
    <glyph glyph-name="uni04D1" unicode="&#x4d1;" horiz-adv-x="1056" 
d="M827 690v146h82v-836h-82v150q-59 -90 -146 -131.5t-179 -41.5q-82 0 -156 31t-130 86.5t-89 139.5t-33 184q0 194 112.5 315t295.5 121q209 0 325 -164zM506 776q-133 0 -229.5 -95t-96.5 -257q0 -96 37 -179t113.5 -136.5t177.5 -53.5q76 0 138.5 30.5t102 82t61 117.5
t21.5 139q0 89 -30 159t-79 110.5t-104.5 61.5t-111.5 21zM262 1174l70 34q16 -64 68 -106.5t128 -42.5t128.5 42.5t68.5 106.5l70 -34q-10 -32 -27 -61.5t-47.5 -61.5t-80 -51t-112.5 -19t-112.5 19t-79.5 51t-47 61.5t-27 61.5z" />
    <glyph glyph-name="uni04D2" unicode="&#x4d2;" horiz-adv-x="1200" 
d="M1073 0l-182 449h-582l-182 -449h-98l575 1407l567 -1407h-98zM342 530h516l-256 648zM332 1597q0 32 23 55t55 23t54.5 -23t22.5 -55t-22.5 -54.5t-54.5 -22.5t-55 22.5t-23 54.5zM713 1597q0 32 23 55t55 23t54.5 -23t22.5 -55t-22.5 -54.5t-54.5 -22.5t-55 22.5
t-23 54.5z" />
    <glyph glyph-name="uni04D3" unicode="&#x4d3;" horiz-adv-x="1056" 
d="M827 690v146h82v-836h-82v150q-59 -90 -146 -131.5t-179 -41.5q-82 0 -156 31t-130 86.5t-89 139.5t-33 184q0 194 112.5 315t295.5 121q209 0 325 -164zM506 776q-133 0 -229.5 -95t-96.5 -257q0 -96 37 -179t113.5 -136.5t177.5 -53.5q76 0 138.5 30.5t102 82t61 117.5
t21.5 139q0 89 -30 159t-79 110.5t-104.5 61.5t-111.5 21zM276 1077q0 31 21.5 52.5t52.5 21.5t52.5 -21.5t21.5 -52.5t-21.5 -52t-52.5 -21t-52.5 21t-21.5 52zM616 1077q0 31 21.5 52.5t52.5 21.5t52.5 -21.5t21.5 -52.5t-21.5 -52t-52.5 -21t-52.5 21t-21.5 52z" />
    <glyph glyph-name="uni04D4" unicode="&#x4d4;" horiz-adv-x="1744" 
d="M1071 0l-182 449h-584l-178 -449h-98l551 1366h591l35 -82h-563l203 -496h549l35 -81h-549l254 -625h559l37 -82h-660zM338 530h516l-260 644z" />
    <glyph glyph-name="uni04D5" unicode="&#x4d5;" horiz-adv-x="1622" 
d="M1530 406h-717q3 -157 94.5 -254t229.5 -97q106 0 181 55.5t120 133.5l69 -49q-62 -97 -157 -157.5t-215 -60.5q-118 0 -206.5 56t-137.5 153q-34 -103 -125.5 -156t-221.5 -53q-167 0 -259.5 77t-92.5 184q0 34 10 68t36.5 70.5t66 63.5t105.5 44.5t149 17.5
q81 0 145.5 -17.5t122.5 -68.5q0 170 -70.5 265t-220.5 95q-136 0 -284 -76v84q140 70 288 70q120 0 207.5 -59t126.5 -174q53 108 147.5 170.5t211.5 62.5q61 0 117.5 -17t106.5 -53.5t88 -88.5t60.5 -126.5t24.5 -162.5zM823 483h621q-19 127 -106 210t-208 83
q-120 0 -204.5 -84t-102.5 -209zM457 424q-135 0 -207 -53t-72 -133q0 -77 69 -130t197 -53q75 0 131 18t86.5 47t45 61t14.5 65q0 70 -63.5 124t-200.5 54z" />
    <glyph glyph-name="uni04D6" unicode="&#x4d6;" horiz-adv-x="950" 
d="M840 1366v-82h-566v-496h553v-81h-553v-625h566v-82h-656v1366h656zM225 1645l72 38q60 -131 215 -131t215 131l72 -38q-29 -66 -84 -107.5t-104 -54.5t-99 -13t-99 13t-104 54.5t-84 107.5z" />
    <glyph glyph-name="uni04D7" unicode="&#x4d7;" horiz-adv-x="989" 
d="M895 408h-715q0 -155 98 -254t234 -99q98 0 174 52t117 139l69 -41q-21 -40 -50 -76t-72.5 -72.5t-107 -58t-136.5 -21.5q-190 0 -301 124t-111 313q0 105 34.5 190.5t92 139t129.5 82t150 28.5q171 0 283 -124.5t112 -321.5zM186 485h623q-15 126 -100.5 208.5
t-208.5 82.5q-124 0 -210 -83t-104 -208zM229 1174l70 34q16 -64 68.5 -106.5t128.5 -42.5t128 42.5t68 106.5l70 -34q-10 -32 -27 -61.5t-47 -61.5t-79.5 -51t-112.5 -19t-112.5 19t-80 51t-47.5 61.5t-27 61.5z" />
    <glyph glyph-name="uni04D8" unicode="&#x4d8;" horiz-adv-x="1583" 
d="M111 655h1267v21q0 172 -79 315.5t-221 227.5t-316 84q-118 0 -218.5 -41t-172.5 -103q-83 -69 -131 -151l-72 57q68 96 164 172q190 147 428 147q147 0 278.5 -53.5t227 -146t151.5 -224t56 -280.5q0 -150 -54.5 -281.5t-148.5 -223.5t-225 -145t-279 -53
q-56 0 -112.5 8.5t-129 30.5t-144 71t-128.5 120q-141 177 -141 448zM1370 573h-1165q3 -66 27 -146t61 -136q62 -95 188 -163.5t287 -68.5q120 0 226 41t182.5 111.5t127 163.5t66.5 198z" />
    <glyph glyph-name="afii10846" unicode="&#x4d9;" horiz-adv-x="989" 
d="M94 424h715q0 165 -96.5 258.5t-235.5 93.5q-98 0 -174 -52t-117 -138l-69 41q21 40 50 76t72.5 72t107 57.5t136.5 21.5q190 0 301 -123.5t111 -312.5q0 -105 -34.5 -191t-92 -139.5t-129.5 -82t-150 -28.5q-172 0 -283.5 122t-111.5 325zM803 346h-623
q15 -126 100.5 -208.5t208.5 -82.5q124 0 210 83t104 208z" />
    <glyph glyph-name="uni04DA" unicode="&#x4da;" horiz-adv-x="1583" 
d="M111 655h1267v21q0 172 -79 315.5t-221 227.5t-316 84q-118 0 -218.5 -41t-172.5 -103q-83 -69 -131 -151l-72 57q68 96 164 172q190 147 428 147q147 0 278.5 -53.5t227 -146t151.5 -224t56 -280.5q0 -150 -54.5 -281.5t-148.5 -223.5t-225 -145t-279 -53
q-56 0 -112.5 8.5t-129 30.5t-144 71t-128.5 120q-141 177 -141 448zM1370 573h-1165q3 -66 27 -146t61 -136q62 -95 188 -163.5t287 -68.5q120 0 226 41t182.5 111.5t127 163.5t66.5 198zM502 1597q0 32 23 55t55 23t54.5 -23t22.5 -55t-22.5 -54.5t-54.5 -22.5t-55 22.5
t-23 54.5zM883 1597q0 32 23 55t55 23t54.5 -23t22.5 -55t-22.5 -54.5t-54.5 -22.5t-55 22.5t-23 54.5z" />
    <glyph glyph-name="uni04DB" unicode="&#x4db;" horiz-adv-x="989" 
d="M94 424h715q0 165 -96.5 258.5t-235.5 93.5q-98 0 -174 -52t-117 -138l-69 41q21 40 50 76t72.5 72t107 57.5t136.5 21.5q190 0 301 -123.5t111 -312.5q0 -105 -34.5 -191t-92 -139.5t-129.5 -82t-150 -28.5q-172 0 -283.5 122t-111.5 325zM803 346h-623
q15 -126 100.5 -208.5t208.5 -82.5q124 0 210 83t104 208zM248 1077q0 31 21.5 52.5t52.5 21.5t52 -21.5t21 -52.5t-21 -52t-52 -21t-52.5 21t-21.5 52zM588 1077q0 31 21.5 52.5t52.5 21.5t52 -21.5t21 -52.5t-21 -52t-52 -21t-52.5 21t-21.5 52z" />
    <glyph glyph-name="uni04DC" unicode="&#x4dc;" horiz-adv-x="1630" 
d="M770 1366h90v-643l578 643h118l-606 -661l652 -705h-119l-596 643l-27 -27v-616h-90v616l-27 27l-596 -643h-118l651 705l-606 661h119l577 -643v643zM547 1597q0 32 23 55t55 23t54.5 -23t22.5 -55t-22.5 -54.5t-54.5 -22.5t-55 22.5t-23 54.5zM928 1597q0 32 23 55
t55 23t54.5 -23t22.5 -55t-22.5 -54.5t-54.5 -22.5t-55 22.5t-23 54.5z" />
    <glyph glyph-name="uni04DD" unicode="&#x4dd;" horiz-adv-x="1146" 
d="M532 836h82v-398l377 398h107l-389 -402l421 -434h-110l-365 381l-41 -41v-340h-82v340l-40 41l-365 -381h-111l422 434l-389 402h107l376 -398v398zM330 1077q0 31 21 52.5t52 21.5t52.5 -21.5t21.5 -52.5t-21.5 -52t-52.5 -21t-52 21t-21 52zM670 1077q0 31 21 52.5
t52 21.5t52.5 -21.5t21.5 -52.5t-21.5 -52t-52.5 -21t-52 21t-21 52z" />
    <glyph glyph-name="uni04DE" unicode="&#x4de;" horiz-adv-x="1134" 
d="M279 1135l-66 55q118 194 371 194q154 0 247 -88q99 -92 99 -245q0 -104 -49.5 -180t-130.5 -119q131 -33 202.5 -131t71.5 -230q0 -113 -45 -196.5t-111 -131.5q-51 -37 -122.5 -58t-108.5 -24.5t-66 -3.5q-170 0 -286.5 82.5t-173.5 206.5l86 41q35 -83 103 -141.5
t138.5 -82.5t139.5 -24q59 0 126 20t109 52q117 87 117 260q0 142 -97 222.5t-268 80.5h-123v82h123q108 0 189.5 75.5t81.5 199.5q0 107 -64 176q-71 76 -199 76q-186 0 -294 -168zM315 1597q0 32 23 55t55 23t55 -23t23 -55t-23 -54.5t-55 -22.5t-55 22.5t-23 54.5z
M696 1597q0 32 23 55t55 23t55 -23t23 -55t-23 -54.5t-55 -22.5t-55 22.5t-23 54.5z" />
    <glyph glyph-name="uni04DF" unicode="&#x4df;" horiz-adv-x="819" 
d="M215 659l-68 48q87 147 265 147q120 0 184 -59q68 -60 68 -162q0 -122 -97 -174q56 -13 99 -56q59 -59 59 -159q0 -129 -98 -205q-83 -62 -213 -62q-135 0 -219 64q-69 55 -101 121l74 47q33 -71 88 -107q64 -47 158 -47q104 0 159 47q66 54 66 144q0 80 -57 123
q-50 37 -154 37h-86v77h64q78 0 124 35q52 41 52 107q0 65 -43 108q-48 43 -129 43q-130 0 -195 -117zM166 1077q0 31 21.5 52.5t52.5 21.5t52 -21.5t21 -52.5t-21 -52t-52 -21t-52.5 21t-21.5 52zM506 1077q0 31 21.5 52.5t52.5 21.5t52 -21.5t21 -52.5t-21 -52t-52 -21
t-52.5 21t-21.5 52z" />
    <glyph glyph-name="uni04E2" unicode="&#x4e2;" horiz-adv-x="1433" 
d="M1159 0v1139l-975 -1174v1401h90v-1159l975 1173v-1380h-90zM440 1536v90h553v-90h-553z" />
    <glyph glyph-name="uni04E3" unicode="&#x4e3;" horiz-adv-x="970" 
d="M147 836h82v-670l594 717v-883h-82v666l-594 -717v887zM209 1010v80h553v-80h-553z" />
    <glyph glyph-name="uni04E4" unicode="&#x4e4;" horiz-adv-x="1433" 
d="M1159 0v1139l-975 -1174v1401h90v-1159l975 1173v-1380h-90zM449 1597q0 32 22.5 55t54.5 23t55 -23t23 -55t-23 -54.5t-55 -22.5t-54.5 22.5t-22.5 54.5zM829 1597q0 32 23 55t55 23t55 -23t23 -55t-23 -54.5t-55 -22.5t-55 22.5t-23 54.5z" />
    <glyph glyph-name="uni04E5" unicode="&#x4e5;" horiz-adv-x="970" 
d="M147 836h82v-670l594 717v-883h-82v666l-594 -717v887zM242 1077q0 31 21 52.5t52 21.5t52.5 -21.5t21.5 -52.5t-21.5 -52t-52.5 -21t-52 21t-21 52zM582 1077q0 31 21 52.5t52 21.5t52.5 -21.5t21.5 -52.5t-21.5 -52t-52.5 -21t-52 21t-21 52z" />
    <glyph glyph-name="uni04E6" unicode="&#x4e6;" horiz-adv-x="1638" 
d="M819 1384q196 0 359 -93.5t256.5 -255t93.5 -355.5q0 -145 -55 -275t-149.5 -224t-226 -149t-278.5 -55t-278.5 55t-225.5 149t-149 224t-55 275t55 275.5t149 224.5t225.5 149t278.5 55zM819 59q130 0 244.5 48.5t195.5 131.5t128 197.5t47 243.5q0 173 -79.5 315.5
t-221 225t-314.5 82.5t-314 -82.5t-220.5 -225t-79.5 -315.5q0 -172 79.5 -314t220.5 -224.5t314 -82.5zM551 1597q0 32 23 55t55 23t55 -23t23 -55t-23 -54.5t-55 -22.5t-55 22.5t-23 54.5zM932 1597q0 32 23 55t55 23t54.5 -23t22.5 -55t-22.5 -54.5t-54.5 -22.5t-55 22.5
t-23 54.5z" />
    <glyph glyph-name="uni04E7" unicode="&#x4e7;" horiz-adv-x="1064" 
d="M532 854q186 0 312.5 -126t126.5 -312t-126.5 -312.5t-312.5 -126.5t-312 126.5t-126 312.5t126 312t312 126zM532 55q150 0 251.5 104t101.5 257t-101.5 256.5t-251.5 103.5t-251 -103.5t-101 -256.5t101 -257t251 -104zM289 1077q0 31 21 52.5t52 21.5t52.5 -21.5
t21.5 -52.5t-21.5 -52t-52.5 -21t-52 21t-21 52zM629 1077q0 31 21 52.5t52 21.5t52.5 -21.5t21.5 -52.5t-21.5 -52t-52.5 -21t-52 21t-21 52z" />
    <glyph glyph-name="uni04E8" unicode="&#x4e8;" horiz-adv-x="1638" 
d="M819 1384q196 0 359 -93.5t256.5 -255t93.5 -355.5q0 -145 -55 -275t-149.5 -224t-226 -149t-278.5 -55t-278.5 55t-225.5 149t-149 224t-55 275t55 275.5t149 224.5t225.5 149t278.5 55zM819 59q134 0 248.5 49t192.5 131.5t123.5 190t50.5 225.5h-1229
q5 -118 50.5 -225.5t123 -190t192 -131.5t248.5 -49zM207 737h1225q-15 167 -102.5 297.5t-221.5 199.5t-289 69q-116 0 -222.5 -41t-188.5 -113.5t-136 -179.5t-65 -232z" />
    <glyph glyph-name="uni04E9" unicode="&#x4e9;" horiz-adv-x="1064" 
d="M532 854q186 0 312.5 -126t126.5 -312t-126.5 -312.5t-312.5 -126.5t-312 126.5t-126 312.5t126 312t312 126zM883 387h-701q9 -146 110.5 -239t239.5 -93t240 93t111 239zM182 465h701q-19 146 -122.5 228.5t-228.5 82.5q-80 0 -153 -33.5t-128.5 -106t-68.5 -171.5z
" />
    <glyph glyph-name="uni04EA" unicode="&#x4ea;" horiz-adv-x="1638" 
d="M819 1384q196 0 359 -93.5t256.5 -255t93.5 -355.5q0 -145 -55 -275t-149.5 -224t-226 -149t-278.5 -55t-278.5 55t-225.5 149t-149 224t-55 275t55 275.5t149 224.5t225.5 149t278.5 55zM819 59q134 0 248.5 49t192.5 131.5t123.5 190t50.5 225.5h-1229
q5 -118 50.5 -225.5t123 -190t192 -131.5t248.5 -49zM207 737h1225q-15 167 -102.5 297.5t-221.5 199.5t-289 69q-116 0 -222.5 -41t-188.5 -113.5t-136 -179.5t-65 -232zM551 1597q0 32 23 55t55 23t55 -23t23 -55t-23 -54.5t-55 -22.5t-55 22.5t-23 54.5zM932 1597
q0 32 23 55t55 23t54.5 -23t22.5 -55t-22.5 -54.5t-54.5 -22.5t-55 22.5t-23 54.5z" />
    <glyph glyph-name="uni04EB" unicode="&#x4eb;" horiz-adv-x="1064" 
d="M532 854q186 0 312.5 -126t126.5 -312t-126.5 -312.5t-312.5 -126.5t-312 126.5t-126 312.5t126 312t312 126zM883 387h-701q9 -146 110.5 -239t239.5 -93t240 93t111 239zM182 465h701q-19 146 -122.5 228.5t-228.5 82.5q-80 0 -153 -33.5t-128.5 -106t-68.5 -171.5z
M289 1077q0 31 21 52.5t52 21.5t52.5 -21.5t21.5 -52.5t-21.5 -52t-52.5 -21t-52 21t-21 52zM629 1077q0 31 21 52.5t52 21.5t52.5 -21.5t21.5 -52.5t-21.5 -52t-52.5 -21t-52 21t-21 52z" />
    <glyph glyph-name="uni04EE" unicode="&#x4ee;" horiz-adv-x="1126" 
d="M29 1366h102l473 -885l400 885h94l-625 -1366h-94l174 381zM307 1536v90h553v-90h-553z" />
    <glyph glyph-name="uni04EF" unicode="&#x4ef;" horiz-adv-x="876" 
d="M217 -471l197 457l-398 850h95l350 -744l305 744h94l-549 -1307h-94zM162 1010v80h553v-80h-553z" />
    <glyph glyph-name="uni04F0" unicode="&#x4f0;" horiz-adv-x="1126" 
d="M29 1366h102l473 -885l400 885h94l-625 -1366h-94l174 381zM313 1597q0 32 23 55t55 23t55 -23t23 -55t-23 -54.5t-55 -22.5t-55 22.5t-23 54.5zM694 1597q0 32 23 55t55 23t55 -23t23 -55t-23 -54.5t-55 -22.5t-55 22.5t-23 54.5z" />
    <glyph glyph-name="uni04F1" unicode="&#x4f1;" horiz-adv-x="876" 
d="M217 -471l197 457l-398 850h95l350 -744l305 744h94l-549 -1307h-94zM207 1077q0 31 21.5 52.5t52.5 21.5t52 -21.5t21 -52.5t-21 -52t-52 -21t-52.5 21t-21.5 52zM547 1077q0 31 21.5 52.5t52.5 21.5t52 -21.5t21 -52.5t-21 -52t-52 -21t-52.5 21t-21.5 52z" />
    <glyph glyph-name="uni04F2" unicode="&#x4f2;" horiz-adv-x="1126" 
d="M29 1366h102l473 -885l400 885h94l-625 -1366h-94l174 381zM543 1749l106 -53l-205 -256l-73 30zM791 1749l106 -53l-205 -256l-74 30z" />
    <glyph glyph-name="uni04F3" unicode="&#x4f3;" horiz-adv-x="876" 
d="M217 -471l197 457l-398 850h95l350 -744l305 744h94l-549 -1307h-94zM436 1270l86 -51l-203 -263l-55 33zM664 1270l86 -51l-203 -263l-55 33z" />
    <glyph glyph-name="uni04F4" unicode="&#x4f4;" horiz-adv-x="1187" 
d="M913 0v614q-229 -14 -348 -14q-186 0 -278 45q-89 44 -116.5 114t-27.5 191v416h90v-416q0 -40 2 -63.5t11.5 -61.5t34 -65.5t63.5 -46.5q63 -31 250 -31q141 0 319 14v670h91v-1366h-91zM326 1597q0 32 22.5 55t54.5 23t55 -23t23 -55t-23 -54.5t-55 -22.5t-54.5 22.5
t-22.5 54.5zM707 1597q0 32 22.5 55t54.5 23t55 -23t23 -55t-23 -54.5t-55 -22.5t-54.5 22.5t-22.5 54.5z" />
    <glyph glyph-name="uni04F5" unicode="&#x4f5;" horiz-adv-x="843" 
d="M614 0v346q-136 -20 -219 -20q-133 0 -196 45q-27 19 -43.5 45.5t-23 60t-8 53.5t-1.5 54v252h82v-252q0 -115 55 -154q40 -27 125 -27q90 0 229 21v412h82v-836h-82zM178 1077q0 31 21.5 52.5t52.5 21.5t52.5 -21.5t21.5 -52.5t-21.5 -52t-52.5 -21t-52.5 21t-21.5 52z
M518 1077q0 31 21.5 52.5t52.5 21.5t52.5 -21.5t21.5 -52.5t-21.5 -52t-52.5 -21t-52.5 21t-21.5 52z" />
    <glyph glyph-name="uni04F8" unicode="&#x4f8;" horiz-adv-x="1413" 
d="M184 0v1366h90v-588h238q41 0 78.5 -2.5t87 -12t90 -25t82 -44.5t69.5 -67t46 -95.5t18 -128.5q0 -63 -15 -120.5t-49 -109.5t-84.5 -90t-125.5 -60.5t-168 -22.5h-357zM274 696v-614h230q43 0 70 1.5t72.5 9t85 27.5t71.5 52q86 82 86 231q0 180 -141 252
q-37 19 -86 28.5t-82 11t-93 1.5h-213zM1139 1366h90v-1366h-90v1366zM438 1597q0 32 23 55t55 23t55 -23t23 -55t-23 -54.5t-55 -22.5t-55 22.5t-23 54.5zM819 1597q0 32 23 55t55 23t55 -23t23 -55t-23 -54.5t-55 -22.5t-55 22.5t-23 54.5z" />
    <glyph glyph-name="uni04F9" unicode="&#x4f9;" 
d="M147 836h82v-349h199q146 0 213 -77q59 -65 59 -166q0 -114 -73 -181q-67 -63 -201 -63h-279v836zM229 78h197q85 0 131 39q57 47 57 127q0 83 -59 129q-48 37 -133 37h-193v-332zM795 836h82v-836h-82v836zM268 1077q0 31 21.5 52.5t52.5 21.5t52.5 -21.5t21.5 -52.5
t-21.5 -52t-52.5 -21t-52.5 21t-21.5 52zM608 1077q0 31 21.5 52.5t52.5 21.5t52.5 -21.5t21.5 -52.5t-21.5 -52t-52.5 -21t-52.5 21t-21.5 52z" />
    <glyph glyph-name="uni1E9E" unicode="&#x1e9e;" horiz-adv-x="1146" 
d="M184 0v1024q0 166 119 272q53 47 124 67.5t134 20.5q137 0 232 -63q61 -40 94.5 -104t32.5 -140l-293 -276q67 -8 147 -38.5t133 -74.5q129 -104 129 -264q0 -84 -31 -154.5t-106 -138.5q-64 -57 -169 -90.5t-198 -40.5v82q192 10 304 106q106 93 106 226q0 74 -39 137
t-100 102q-107 66 -271 78v82l291 281q-6 92 -78 155q-62 54 -186 54q-123 0 -194 -64q-91 -82 -91 -223v-1016h-90z" />
    <glyph glyph-name="uni2010" unicode="&#x2010;" horiz-adv-x="614" 
d="M102 377v94h410v-94h-410z" />
    <glyph glyph-name="uni2011" unicode="&#x2011;" horiz-adv-x="614" 
d="M102 377v94h410v-94h-410z" />
    <glyph glyph-name="figuredash" unicode="&#x2012;" horiz-adv-x="1105" 
d="M143 653v78h820v-78h-820z" />
    <glyph glyph-name="endash" unicode="&#x2013;" horiz-adv-x="1105" 
d="M143 385v78h820v-78h-820z" />
    <glyph glyph-name="emdash" unicode="&#x2014;" horiz-adv-x="1515" 
d="M143 385v78h1229v-78h-1229z" />
    <glyph glyph-name="afii00208" unicode="&#x2015;" horiz-adv-x="1515" 
d="M143 385v78h1229v-78h-1229z" />
    <glyph glyph-name="quoteleft" unicode="&#x2018;" horiz-adv-x="466" 
d="M336 1366l-123 -414l-82 25l152 409z" />
    <glyph glyph-name="quoteright" unicode="&#x2019;" horiz-adv-x="466" 
d="M131 977l123 414l82 -25l-152 -410z" />
    <glyph glyph-name="quotesinglbase" unicode="&#x201a;" horiz-adv-x="520" 
d="M131 -281l123 414l82 -24l-152 -410z" />
    <glyph glyph-name="quotedblleft" unicode="&#x201c;" horiz-adv-x="704" 
d="M336 1366l-123 -414l-82 25l152 409zM573 1366l-122 -414l-82 25l151 409z" />
    <glyph glyph-name="quotedblright" unicode="&#x201d;" horiz-adv-x="704" 
d="M131 977l123 414l82 -25l-152 -410zM369 977l123 414l81 -25l-151 -410z" />
    <glyph glyph-name="quotedblbase" unicode="&#x201e;" horiz-adv-x="757" 
d="M131 -281l123 414l82 -24l-152 -410zM369 -281l123 414l81 -24l-151 -410z" />
    <glyph glyph-name="dagger" unicode="&#x2020;" horiz-adv-x="1122" 
d="M516 1001v492h90v-492h328v-81h-328v-1248h-90v1248h-328v81h328z" />
    <glyph glyph-name="daggerdbl" unicode="&#x2021;" horiz-adv-x="1122" 
d="M606 -328h-90v541h-328v82h328v625h-328v81h328v492h90v-492h328v-81h-328v-625h328v-82h-328v-541z" />
    <glyph glyph-name="bullet" unicode="&#x2022;" horiz-adv-x="2048" 
d="M737 696q0 118 84.5 202.5t202.5 84.5t202.5 -84.5t84.5 -202.5t-84 -202t-203 -84t-203 84t-84 202z" />
    <glyph glyph-name="ellipsis" unicode="&#x2026;" horiz-adv-x="1241" 
d="M131 61q0 32 22 54t54 22t54 -22t22 -54t-22 -53.5t-54 -21.5t-54 21.5t-22 53.5zM545 61q0 32 22 54t54 22t53.5 -22t21.5 -54t-21.5 -53.5t-53.5 -21.5t-54 21.5t-22 53.5zM958 61q0 32 22 54t54 22t54 -22t22 -54t-22 -53.5t-54 -21.5t-54 21.5t-22 53.5z" />
    <glyph glyph-name="perthousand" unicode="&#x2030;" horiz-adv-x="1904" 
d="M346 1378q124 0 200.5 -75.5t76.5 -192.5t-76.5 -192.5t-200.5 -75.5t-200 75.5t-76 192.5t76 192.5t200 75.5zM346 915q93 0 144 59.5t51 135.5t-51 135.5t-144 59.5t-143.5 -59.5t-50.5 -135.5t50.5 -135.5t143.5 -59.5zM188 2l807 1395l62 -33l-807 -1395zM899 524
q124 0 200.5 -75.5t76.5 -192.5t-76.5 -192.5t-200.5 -75.5t-200 75.5t-76 192.5t76 192.5t200 75.5zM899 61q93 0 144 59.5t51 135.5t-51 135.5t-144 59.5t-143.5 -59.5t-50.5 -135.5t50.5 -135.5t143.5 -59.5zM1559 524q124 0 200 -75.5t76 -192.5t-76 -192.5t-200 -75.5
t-200.5 75.5t-76.5 192.5t76.5 192.5t200.5 75.5zM1559 61q93 0 143.5 59.5t50.5 135.5t-50.5 135.5t-143.5 59.5t-144 -59.5t-51 -135.5t51 -135.5t144 -59.5z" />
    <glyph glyph-name="guilsinglleft" unicode="&#x2039;" horiz-adv-x="495" 
d="M385 682l-221 -258l221 -258l-53 -49l-266 307l266 307z" />
    <glyph glyph-name="guilsinglright" unicode="&#x203a;" horiz-adv-x="495" 
d="M111 166l221 258l-221 258l53 49l266 -307l-266 -307z" />
    <glyph glyph-name="fraction" unicode="&#x2044;" horiz-adv-x="253" 
d="M-307 2l807 1395l61 -33l-807 -1395z" />
    <glyph glyph-name="uni2080" unicode="&#x2080;" horiz-adv-x="675" 
d="M338 829q110 0 192 -98q105 -127 105 -321q0 -191 -105 -322q-81 -98 -192 -98q-112 0 -193 98q-104 130 -104 322q0 196 104 321q82 98 193 98zM338 63q80 0 137 74q78 99 78 273q0 168 -78 270q-60 76 -137 76t-137 -76q-78 -102 -78 -270q0 -174 78 -273
q57 -74 137 -74z" />
    <glyph glyph-name="uni2081" unicode="&#x2081;" horiz-adv-x="675" 
d="M311 0v745h-127l25 74h180v-819h-78z" />
    <glyph glyph-name="uni2082" unicode="&#x2082;" horiz-adv-x="675" 
d="M580 0h-504l299 346q66 76 84 109q43 67 43 143q0 69 -44.5 113.5t-119.5 44.5q-81 0 -127 -51q-43 -47 -43 -117h-74q0 102 66 172q65 69 180 69q107 0 175.5 -65.5t68.5 -165.5q0 -85 -54 -170q-4 -5 -18 -24.5t-27 -37.5t-20 -26l-225 -266h340v-74z" />
    <glyph glyph-name="uni2083" unicode="&#x2083;" horiz-adv-x="675" 
d="M98 201h74q3 -45 25 -76q20 -28 55.5 -45t71.5 -17q66 0 112.5 50t46.5 123q0 93 -82 133q-44 20 -114 20v74q70 0 119 35q67 49 67 125q0 57 -35 95t-98 38t-100 -39q-37 -37 -37 -92h-74q3 88 59 147q50 57 152 57q98 0 156.5 -59t58.5 -145q0 -62 -31 -116t-98 -81
q66 -20 102.5 -74t36.5 -125q0 -105 -69 -172t-172 -67q-69 0 -119.5 32t-77.5 74q-29 50 -29 105z" />
    <glyph glyph-name="uni2084" unicode="&#x2084;" horiz-adv-x="675" 
d="M512 846v-617h115v-73h-115v-156h-78v156h-418zM160 229h274v389z" />
    <glyph glyph-name="uni2085" unicode="&#x2085;" horiz-adv-x="675" 
d="M578 819v-74h-275l-61 -196q36 8 53 8q51 0 99 -17t89 -50t65.5 -89t24.5 -127q0 -132 -83 -208t-207 -76q-170 0 -246 135l78 20q54 -82 168 -82q92 0 150.5 58.5t58.5 152.5q0 95 -56 152t-149 57q-82 0 -154 -37l119 373h326z" />
    <glyph glyph-name="uni2086" unicode="&#x2086;" horiz-adv-x="675" 
d="M371 829l57 -43l-170 -243q41 20 94 20q116 0 196.5 -81.5t80.5 -205.5t-82 -205t-211 -81q-71 0 -128.5 25.5t-91.5 67.5t-51.5 91t-17.5 100q0 101 66 191zM338 63q89 0 149 59t60 152q0 94 -59 154.5t-150 60.5t-150 -60.5t-59 -154.5q0 -91 58.5 -151t150.5 -60z" />
    <glyph glyph-name="uni2087" unicode="&#x2087;" horiz-adv-x="673" 
d="M27 39l479 706h-447v74h594l-557 -827z" />
    <glyph glyph-name="uni2088" unicode="&#x2088;" horiz-adv-x="675" 
d="M236 426q-115 61 -115 188q0 92 61.5 153.5t155.5 61.5t155.5 -61.5t61.5 -153.5q0 -127 -115 -188q39 -14 67.5 -39.5t42 -49.5t21 -53.5t8.5 -42t1 -24.5q0 -103 -69.5 -165t-172.5 -62t-172.5 62t-69.5 165q0 12 1 24.5t8.5 42t21 53.5t42 49.5t67.5 39.5zM338 463
q62 0 100.5 46.5t38.5 104.5q0 53 -37.5 97.5t-101.5 44.5t-101.5 -44.5t-37.5 -97.5q0 -58 38.5 -104.5t100.5 -46.5zM338 63q73 0 116.5 45.5t43.5 114.5q0 73 -44.5 119.5t-115.5 46.5t-115.5 -46.5t-44.5 -119.5q0 -69 43.5 -114.5t116.5 -45.5z" />
    <glyph glyph-name="uni2089" unicode="&#x2089;" horiz-adv-x="675" 
d="M305 -10l-57 43l170 243q-41 -20 -94 -20q-116 0 -196.5 81.5t-80.5 205.5t82 205t211 81q71 0 128.5 -25.5t91.5 -67.5t51.5 -91t17.5 -100q0 -101 -66 -191zM338 756q-89 0 -149 -59t-60 -152q0 -94 59 -154.5t150 -60.5t150 60.5t59 154.5q0 91 -58.5 151t-150.5 60z
" />
    <glyph glyph-name="Euro" unicode="&#x20ac;" horiz-adv-x="1122" 
d="M1032 1288l-41 -76q-133 91 -297 91q-99 0 -182.5 -39t-139 -103t-91 -133.5t-54.5 -144.5h666l-33 -82h-647q-8 -55 -8 -123q0 -30 4 -88h569l-33 -82h-524q9 -49 23 -97t48.5 -115.5t80.5 -116.5t124 -84.5t175 -35.5q101 0 195 38.5t165 107.5v-119
q-155 -109 -358 -109q-119 0 -214.5 39.5t-152.5 96.5t-97.5 134t-57.5 138t-25 123h-139l32 82h95q-4 58 -4 88q0 68 8 123h-131l32 82h113q47 222 202 361.5t370 139.5q183 0 327 -96z" />
    <glyph glyph-name="uni20B4" unicode="&#x20b4;" horiz-adv-x="1122" 
d="M287 1135l-66 55q66 83 154 135q104 59 229 59q144 0 221 -77q36 -36 57 -87.5t21 -101.5q0 -62 -27 -125.5t-73 -109.5h184v-82h-260l-240 -211h500v-82h-575q-84 -96 -84 -223q0 -107 63 -166q60 -60 172 -60q116 0 211 86q79 71 111 162l78 -37q-42 -96 -125 -176
q-63 -60 -128 -88.5t-155 -28.5q-141 0 -223 72q-99 86 -99 240q0 117 76 219h-174v82h234l239 211h-473v82h547q58 47 92.5 108t34.5 121q0 77 -45 129q-53 62 -160 62q-104 0 -190 -54q-71 -42 -127 -114z" />
    <glyph glyph-name="uni20B6" unicode="&#x20b6;" horiz-adv-x="1122" 
d="M291 731v635h264q199 0 305 -111q94 -97 94 -245q0 -72 -25 -139t-71 -113q-105 -109 -301 -109h-176v-184h342v-82h-342v-383h-90v383h-154v82h154v184h-154v82h154zM381 1284v-553h180q140 0 223 80q76 73 76 197q0 126 -80 200q-50 46 -107 61t-126 15h-166z" />
    <glyph glyph-name="uni20B6" unicode="&#x20cf;" horiz-adv-x="1122" 
d="M291 731v635h264q199 0 305 -111q94 -97 94 -245q0 -72 -25 -139t-71 -113q-105 -109 -301 -109h-176v-184h342v-82h-342v-383h-90v383h-154v82h154v184h-154v82h154zM381 1284v-553h180q140 0 223 80q76 73 76 197q0 126 -80 200q-50 46 -107 61t-126 15h-166z" />
    <glyph glyph-name="uni20B6" unicode="&#x20ce;" horiz-adv-x="1122" 
d="M291 731v635h264q199 0 305 -111q94 -97 94 -245q0 -72 -25 -139t-71 -113q-105 -109 -301 -109h-176v-184h342v-82h-342v-383h-90v383h-154v82h154v184h-154v82h154zM381 1284v-553h180q140 0 223 80q76 73 76 197q0 126 -80 200q-50 46 -107 61t-126 15h-166z" />
    <glyph glyph-name="uni20B6" unicode="&#x20cd;" horiz-adv-x="1122" 
d="M291 731v635h264q199 0 305 -111q94 -97 94 -245q0 -72 -25 -139t-71 -113q-105 -109 -301 -109h-176v-184h342v-82h-342v-383h-90v383h-154v82h154v184h-154v82h154zM381 1284v-553h180q140 0 223 80q76 73 76 197q0 126 -80 200q-50 46 -107 61t-126 15h-166z" />
    <glyph glyph-name="uni20B6" unicode="&#x20cc;" horiz-adv-x="1122" 
d="M291 731v635h264q199 0 305 -111q94 -97 94 -245q0 -72 -25 -139t-71 -113q-105 -109 -301 -109h-176v-184h342v-82h-342v-383h-90v383h-154v82h154v184h-154v82h154zM381 1284v-553h180q140 0 223 80q76 73 76 197q0 126 -80 200q-50 46 -107 61t-126 15h-166z" />
    <glyph glyph-name="uni20B6" unicode="&#x20cb;" horiz-adv-x="1122" 
d="M291 731v635h264q199 0 305 -111q94 -97 94 -245q0 -72 -25 -139t-71 -113q-105 -109 -301 -109h-176v-184h342v-82h-342v-383h-90v383h-154v82h154v184h-154v82h154zM381 1284v-553h180q140 0 223 80q76 73 76 197q0 126 -80 200q-50 46 -107 61t-126 15h-166z" />
    <glyph glyph-name="uni20B6" unicode="&#x20ca;" horiz-adv-x="1122" 
d="M291 731v635h264q199 0 305 -111q94 -97 94 -245q0 -72 -25 -139t-71 -113q-105 -109 -301 -109h-176v-184h342v-82h-342v-383h-90v383h-154v82h154v184h-154v82h154zM381 1284v-553h180q140 0 223 80q76 73 76 197q0 126 -80 200q-50 46 -107 61t-126 15h-166z" />
    <glyph glyph-name="uni20B6" unicode="&#x20c9;" horiz-adv-x="1122" 
d="M291 731v635h264q199 0 305 -111q94 -97 94 -245q0 -72 -25 -139t-71 -113q-105 -109 -301 -109h-176v-184h342v-82h-342v-383h-90v383h-154v82h154v184h-154v82h154zM381 1284v-553h180q140 0 223 80q76 73 76 197q0 126 -80 200q-50 46 -107 61t-126 15h-166z" />
    <glyph glyph-name="uni20B6" unicode="&#x20c8;" horiz-adv-x="1122" 
d="M291 731v635h264q199 0 305 -111q94 -97 94 -245q0 -72 -25 -139t-71 -113q-105 -109 -301 -109h-176v-184h342v-82h-342v-383h-90v383h-154v82h154v184h-154v82h154zM381 1284v-553h180q140 0 223 80q76 73 76 197q0 126 -80 200q-50 46 -107 61t-126 15h-166z" />
    <glyph glyph-name="uni20B6" unicode="&#x20c7;" horiz-adv-x="1122" 
d="M291 731v635h264q199 0 305 -111q94 -97 94 -245q0 -72 -25 -139t-71 -113q-105 -109 -301 -109h-176v-184h342v-82h-342v-383h-90v383h-154v82h154v184h-154v82h154zM381 1284v-553h180q140 0 223 80q76 73 76 197q0 126 -80 200q-50 46 -107 61t-126 15h-166z" />
    <glyph glyph-name="uni20B6" unicode="&#x20c6;" horiz-adv-x="1122" 
d="M291 731v635h264q199 0 305 -111q94 -97 94 -245q0 -72 -25 -139t-71 -113q-105 -109 -301 -109h-176v-184h342v-82h-342v-383h-90v383h-154v82h154v184h-154v82h154zM381 1284v-553h180q140 0 223 80q76 73 76 197q0 126 -80 200q-50 46 -107 61t-126 15h-166z" />
    <glyph glyph-name="uni20B6" unicode="&#x20c5;" horiz-adv-x="1122" 
d="M291 731v635h264q199 0 305 -111q94 -97 94 -245q0 -72 -25 -139t-71 -113q-105 -109 -301 -109h-176v-184h342v-82h-342v-383h-90v383h-154v82h154v184h-154v82h154zM381 1284v-553h180q140 0 223 80q76 73 76 197q0 126 -80 200q-50 46 -107 61t-126 15h-166z" />
    <glyph glyph-name="uni20B6" unicode="&#x20c4;" horiz-adv-x="1122" 
d="M291 731v635h264q199 0 305 -111q94 -97 94 -245q0 -72 -25 -139t-71 -113q-105 -109 -301 -109h-176v-184h342v-82h-342v-383h-90v383h-154v82h154v184h-154v82h154zM381 1284v-553h180q140 0 223 80q76 73 76 197q0 126 -80 200q-50 46 -107 61t-126 15h-166z" />
    <glyph glyph-name="uni20B6" unicode="&#x20c3;" horiz-adv-x="1122" 
d="M291 731v635h264q199 0 305 -111q94 -97 94 -245q0 -72 -25 -139t-71 -113q-105 -109 -301 -109h-176v-184h342v-82h-342v-383h-90v383h-154v82h154v184h-154v82h154zM381 1284v-553h180q140 0 223 80q76 73 76 197q0 126 -80 200q-50 46 -107 61t-126 15h-166z" />
    <glyph glyph-name="uni20B6" unicode="&#x20c2;" horiz-adv-x="1122" 
d="M291 731v635h264q199 0 305 -111q94 -97 94 -245q0 -72 -25 -139t-71 -113q-105 -109 -301 -109h-176v-184h342v-82h-342v-383h-90v383h-154v82h154v184h-154v82h154zM381 1284v-553h180q140 0 223 80q76 73 76 197q0 126 -80 200q-50 46 -107 61t-126 15h-166z" />
    <glyph glyph-name="uni20B6" unicode="&#x20c1;" horiz-adv-x="1122" 
d="M291 731v635h264q199 0 305 -111q94 -97 94 -245q0 -72 -25 -139t-71 -113q-105 -109 -301 -109h-176v-184h342v-82h-342v-383h-90v383h-154v82h154v184h-154v82h154zM381 1284v-553h180q140 0 223 80q76 73 76 197q0 126 -80 200q-50 46 -107 61t-126 15h-166z" />
    <glyph glyph-name="uni20B6" unicode="&#x20c0;" horiz-adv-x="1122" 
d="M291 731v635h264q199 0 305 -111q94 -97 94 -245q0 -72 -25 -139t-71 -113q-105 -109 -301 -109h-176v-184h342v-82h-342v-383h-90v383h-154v82h154v184h-154v82h154zM381 1284v-553h180q140 0 223 80q76 73 76 197q0 126 -80 200q-50 46 -107 61t-126 15h-166z" />
    <glyph glyph-name="uni20B6" unicode="&#x20bf;" horiz-adv-x="1122" 
d="M291 731v635h264q199 0 305 -111q94 -97 94 -245q0 -72 -25 -139t-71 -113q-105 -109 -301 -109h-176v-184h342v-82h-342v-383h-90v383h-154v82h154v184h-154v82h154zM381 1284v-553h180q140 0 223 80q76 73 76 197q0 126 -80 200q-50 46 -107 61t-126 15h-166z" />
    <glyph glyph-name="uni20B6" unicode="&#x20be;" horiz-adv-x="1122" 
d="M291 731v635h264q199 0 305 -111q94 -97 94 -245q0 -72 -25 -139t-71 -113q-105 -109 -301 -109h-176v-184h342v-82h-342v-383h-90v383h-154v82h154v184h-154v82h154zM381 1284v-553h180q140 0 223 80q76 73 76 197q0 126 -80 200q-50 46 -107 61t-126 15h-166z" />
    <glyph glyph-name="uni20B6" unicode="&#x20bd;" horiz-adv-x="1122" 
d="M291 731v635h264q199 0 305 -111q94 -97 94 -245q0 -72 -25 -139t-71 -113q-105 -109 -301 -109h-176v-184h342v-82h-342v-383h-90v383h-154v82h154v184h-154v82h154zM381 1284v-553h180q140 0 223 80q76 73 76 197q0 126 -80 200q-50 46 -107 61t-126 15h-166z" />
    <glyph glyph-name="uni20B6" unicode="&#x20bc;" horiz-adv-x="1122" 
d="M291 731v635h264q199 0 305 -111q94 -97 94 -245q0 -72 -25 -139t-71 -113q-105 -109 -301 -109h-176v-184h342v-82h-342v-383h-90v383h-154v82h154v184h-154v82h154zM381 1284v-553h180q140 0 223 80q76 73 76 197q0 126 -80 200q-50 46 -107 61t-126 15h-166z" />
    <glyph glyph-name="uni20B6" unicode="&#x20bb;" horiz-adv-x="1122" 
d="M291 731v635h264q199 0 305 -111q94 -97 94 -245q0 -72 -25 -139t-71 -113q-105 -109 -301 -109h-176v-184h342v-82h-342v-383h-90v383h-154v82h154v184h-154v82h154zM381 1284v-553h180q140 0 223 80q76 73 76 197q0 126 -80 200q-50 46 -107 61t-126 15h-166z" />
    <glyph glyph-name="uni20B6" unicode="&#x20ba;" horiz-adv-x="1122" 
d="M291 731v635h264q199 0 305 -111q94 -97 94 -245q0 -72 -25 -139t-71 -113q-105 -109 -301 -109h-176v-184h342v-82h-342v-383h-90v383h-154v82h154v184h-154v82h154zM381 1284v-553h180q140 0 223 80q76 73 76 197q0 126 -80 200q-50 46 -107 61t-126 15h-166z" />
    <glyph glyph-name="uni20B6" unicode="&#x20b9;" horiz-adv-x="1122" 
d="M291 731v635h264q199 0 305 -111q94 -97 94 -245q0 -72 -25 -139t-71 -113q-105 -109 -301 -109h-176v-184h342v-82h-342v-383h-90v383h-154v82h154v184h-154v82h154zM381 1284v-553h180q140 0 223 80q76 73 76 197q0 126 -80 200q-50 46 -107 61t-126 15h-166z" />
    <glyph glyph-name="uni20B6" unicode="&#x20b7;" horiz-adv-x="1122" 
d="M291 731v635h264q199 0 305 -111q94 -97 94 -245q0 -72 -25 -139t-71 -113q-105 -109 -301 -109h-176v-184h342v-82h-342v-383h-90v383h-154v82h154v184h-154v82h154zM381 1284v-553h180q140 0 223 80q76 73 76 197q0 126 -80 200q-50 46 -107 61t-126 15h-166z" />
    <glyph glyph-name="uni20B8" unicode="&#x20b8;" horiz-adv-x="1122" 
d="M961 1100h-355v-1100h-90v1100h-354v82h799v-82zM961 1284h-799v82h799v-82z" />
    <glyph glyph-name="afii61352" unicode="&#x2116;" horiz-adv-x="1925" 
d="M274 0h-90v1380l918 -1155v1141h90v-1401l-918 1155v-1120zM1583 1366q124 0 200.5 -75.5t76.5 -192.5t-76.5 -193t-200.5 -76t-200 76t-76 193t76 192.5t200 75.5zM1583 903q93 0 144 59.5t51 135.5t-51 135t-144 59t-143.5 -59t-50.5 -135t50.5 -135.5t143.5 -59.5z
M1348 571v95h471v-95h-471z" />
    <glyph glyph-name="uni2117" unicode="&#x2117;" horiz-adv-x="1515" 
d="M608 1034h146q110 0 168 -53q55 -51 55 -145q0 -95 -55 -150q-59 -59 -189 -59h-55v-351h-70v758zM678 971v-281h65q90 0 127 39q35 35 35 102q0 70 -35 105t-114 35h-78zM1460 684q0 -134 -55 -270.5t-158 -237.5q-92 -91 -217.5 -143.5t-271.5 -52.5q-147 0 -272.5 53
t-217.5 143q-103 101 -158 237.5t-55 270.5q0 132 55.5 268.5t157.5 237.5q92 90 217.5 143t272.5 53q146 0 271.5 -52.5t217.5 -143.5q102 -101 157.5 -237.5t55.5 -268.5zM758 1325q-118 0 -229.5 -43.5t-200.5 -128.5q-93 -89 -148 -214.5t-55 -254.5q0 -131 55 -256.5
t148 -214.5q89 -85 200.5 -128.5t229.5 -43.5t229.5 43.5t200.5 128.5q93 89 148 214.5t55 256.5q0 129 -55 254.5t-148 214.5q-89 85 -200.5 128.5t-229.5 43.5z" />
    <glyph glyph-name="trademark" unicode="&#x2122;" horiz-adv-x="1474" 
d="M463 1292h-191v-704h-82v704h-190v74h463v-74zM621 588h-78l92 839l334 -712l336 712l92 -839h-78l-64 567l-286 -612l-287 612z" />
    <glyph glyph-name="partialdiff" unicode="&#x2202;" horiz-adv-x="1056" 
d="M215 1303l10 75q130 -13 254 -67q75 -33 139.5 -81t109.5 -100.5t74 -96t52 -87.5q109 -210 109 -469q0 -181 -76 -305q-60 -96 -157 -145.5t-200 -49.5q-126 0 -227 63t-155 167t-54 227q0 193 125.5 327t317.5 134t301 -160h4q-34 138 -125 271q-109 158 -283 235
q-103 48 -219 62zM877 446q0 159 -92.5 265t-247.5 106q-154 0 -255.5 -109.5t-101.5 -277.5q0 -89 31 -162t82 -118.5t112 -70t125 -24.5q66 0 127.5 26t111 74t79 123.5t29.5 167.5z" />
    <glyph glyph-name="product" unicode="&#x220f;" horiz-adv-x="1388" 
d="M70 1454v82h1249v-82h-158v-1884h158v-82h-414v82h166v1884h-756v-1884h164v-82h-409v82h155v1884h-155z" />
    <glyph glyph-name="summation" unicode="&#x2211;" horiz-adv-x="1363" 
d="M66 1536h1134v-440h-82v358h-952l518 -899l-524 -985h975v354h82v-436h-1151v94l516 975l-516 885v94z" />
    <glyph glyph-name="minus" unicode="&#x2212;" 
d="M68 635v78h888v-78h-888z" />
    <glyph glyph-name="uni2215" unicode="&#x2215;" horiz-adv-x="958" 
d="M-70 -324l1033 1846l65 -33l-1032 -1845z" />
    <glyph glyph-name="uni2219" unicode="&#x2219;" horiz-adv-x="409" 
d="M106 696q0 41 29 70t70 29t69.5 -29t28.5 -70t-28.5 -69.5t-69.5 -28.5t-70 28.5t-29 69.5z" />
    <glyph glyph-name="radical" unicode="&#x221a;" horiz-adv-x="1368" 
d="M874 1694h494v-78h-426l-500 -1616h-88l-196 645h-158v78h223l172 -586h6z" />
    <glyph glyph-name="infinity" unicode="&#x221e;" horiz-adv-x="1366" 
d="M684 639q-56 -103 -148.5 -174.5t-199.5 -71.5q-128 0 -211.5 86.5t-83.5 220.5q0 130 84 214.5t213 84.5q102 0 194 -69t150 -174q25 45 57.5 85.5t76.5 77t100 58.5t116 22q130 0 211.5 -84.5t81.5 -218.5q0 -135 -81 -219t-212 -84q-60 0 -116 22.5t-99.5 59.5t-76 78
t-56.5 86zM725 698q49 -99 132 -165t171 -66q96 0 155.5 66.5t59.5 162.5q0 101 -61 165.5t-156 64.5q-34 0 -65 -8.5t-70 -31.5t-81 -70.5t-85 -117.5zM641 696q-20 37 -47.5 73t-65.5 73.5t-88 60.5t-102 23q-95 0 -155 -64t-60 -164q0 -102 60.5 -166.5t156.5 -64.5
q71 0 144 47.5t157 181.5z" />
    <glyph glyph-name="integral" unicode="&#x222b;" 
d="M774 1513l-24 -73q-39 22 -86 22q-52 0 -78 -26q-33 -33 -33 -140v-1568q0 -148 -55 -197q-46 -43 -138 -43q-51 0 -110 23l24 73q38 -22 86 -22q52 0 78 26q33 33 33 140v1568q0 148 55 197q46 43 138 43q51 0 110 -23z" />
    <glyph glyph-name="approxequal" unicode="&#x2248;" 
d="M80 700l-55 33q39 80 96 137q76 72 174 72q35 0 79 -14t71.5 -27t80.5 -41q89 -45 131.5 -60.5t79.5 -15.5q77 0 133 56q42 42 74 104l55 -33q-37 -74 -79 -118q-82 -86 -195 -86q-51 0 -116 24.5t-167 81.5q-30 17 -47.5 25.5t-47.5 17t-58 8.5q-75 0 -131 -53
q-47 -44 -78 -111zM80 399l-55 33q39 80 96 137q76 72 174 72q35 0 79 -14t71.5 -27t80.5 -41q89 -45 131.5 -60.5t79.5 -15.5q77 0 133 56q42 42 74 104l55 -33q-37 -74 -79 -118q-82 -86 -195 -86q-51 0 -116 24.5t-167 81.5q-30 17 -47.5 25.5t-47.5 17t-58 8.5
q-75 0 -131 -53q-47 -44 -78 -111z" />
    <glyph glyph-name="notequal" unicode="&#x2260;" 
d="M68 780v78h497l113 240h74l-113 -240h317v-78h-354l-100 -213h454v-78h-491l-119 -251h-74l119 251h-323v78h360l100 213h-460z" />
    <glyph glyph-name="lessequal" unicode="&#x2264;" 
d="M68 774l888 393v-84l-798 -348l798 -348v-84l-888 393v78zM68 242h888v-78h-888v78z" />
    <glyph glyph-name="greaterequal" unicode="&#x2265;" 
d="M956 696l-888 -393v84l798 348l-798 348v84l888 -393v-78zM68 242h888v-78h-888v78z" />
    <glyph glyph-name="dotmath" unicode="&#x22c5;" horiz-adv-x="409" 
d="M106 696q0 41 29 70t70 29t69.5 -29t28.5 -70t-28.5 -69.5t-69.5 -28.5t-70 28.5t-29 69.5z" />
    <glyph glyph-name="lozenge" unicode="&#x25ca;" horiz-adv-x="1433" 
d="M184 684l533 737l532 -737l-532 -737zM1155 684l-438 602l-438 -602l438 -602z" />
    <glyph glyph-name="openbullet" unicode="&#x25e6;" 
d="M512 1366q122 0 199 -75t77 -193t-77 -193.5t-199 -75.5t-199 75.5t-77 193.5t77 193t199 75zM512 1309q-95 0 -153 -60t-58 -151t58 -151t153 -60t153 60t58 151t-58 151t-153 60z" />
    <glyph glyph-name="uniF400" unicode="&#xf400;" horiz-adv-x="4" 
d="M-354 1270l88 -51l-215 -263l-62 33z" />
    <glyph glyph-name="uniF401" unicode="&#xf401;" horiz-adv-x="4" 
d="M-373 1749l103 -51l-275 -258l-65 37z" />
    <glyph glyph-name="uniF406" unicode="&#xf406;" 
d="M252 1692h82q11 -42 49 -70q48 -37 129 -37t129 37q38 28 49 70h82q-9 -69 -59 -119q-74 -74 -201 -74t-201 74q-50 50 -59 119z" />
    <glyph glyph-name="uniF407" unicode="&#xf407;" 
d="M553 -102l94 -54l-221 -258l-61 37z" />
    <glyph glyph-name="uniF408" unicode="&#xf408;" 
d="M512 1610l-197 -131l-69 55l266 184l266 -184l-69 -55z" />
    <glyph glyph-name="uniF409" unicode="&#xf409;" 
d="M395 -389l94 287l91 -29l-127 -279z" />
    <glyph glyph-name="uniF40A" unicode="&#xf40a;" 
d="M395 1065l94 328l91 -29l-127 -320z" />
    <glyph glyph-name="uniF40B" unicode="&#xf40b;" 
d="M428 1599q0 37 23.5 60.5t60.5 23.5t60.5 -23.5t23.5 -60.5t-23.5 -60t-60.5 -23t-60.5 23t-23.5 60z" />
    <glyph glyph-name="uniF40C" unicode="&#xf40c;" 
d="M348 1612q0 68 48 116t116 48t116 -48t48 -116t-48 -116t-116 -48t-116 48t-48 116zM428 1612q0 -37 23.5 -60.5t60.5 -23.5t60.5 23.5t23.5 60.5t-23.5 60.5t-60.5 23.5t-60.5 -23.5t-23.5 -60.5z" />
    <glyph glyph-name="uniF40D" unicode="&#xf40d;" 
d="M305 1468l-59 45q22 50 47 78q42 45 92 45t131 -34q12 -5 35 -14t33 -12.5t25 -7t28 -3.5q27 0 51 24q23 26 31 53l59 -45q-18 -54 -57 -88t-94 -34q-41 0 -119 34q-4 2 -22.5 9.5t-26.5 10.5t-22.5 8t-25.5 7t-22 2q-35 0 -57 -28q-12 -15 -27 -50z" />
    <glyph glyph-name="uniF40E" unicode="&#xf40e;" 
d="M737 -281l-18 -75q-49 -17 -92 -17q-91 0 -148 48t-57 122q0 68 47 127q35 44 88 76h90q-56 -38 -94 -86q-45 -58 -45 -113q0 -44 31 -72t92 -28q46 0 106 18z" />
    <glyph glyph-name="uniF4C6" unicode="&#xf4c6;" horiz-adv-x="1187" 
d="M1004 1366v-1552q0 -166 -78 -236q-54 -49 -142 -49q-55 0 -96 14v84q34 -12 76 -12q65 0 102 37q47 47 47 186v776q-229 -14 -348 -14q-186 0 -278 45q-89 44 -116.5 114t-27.5 191v416h90v-416q0 -40 2 -63.5t11.5 -61.5t34 -65.5t63.5 -46.5q63 -31 250 -31
q141 0 319 14v670h91z" />
    <glyph glyph-name="uniF4C7" unicode="&#xf4c7;" horiz-adv-x="843" 
d="M614 836h82v-1022q0 -163 -78 -236q-54 -49 -139 -49q-39 0 -73 12v76q33 -10 63 -10q59 0 94 35q51 49 51 188v516q-122 -20 -217 -20q-136 0 -198 45q-27 19 -43.5 45.5t-23 60t-8 53.5t-1.5 54v252h82v-252q0 -115 55 -154q45 -27 127 -27q72 0 227 21v412z" />
    <glyph glyph-name="uniF4CC" unicode="&#xf4cc;" horiz-adv-x="1126" 
d="M29 1366h102l473 -885l400 885h94l-625 -1366h-94l174 381zM698 1749l103 -51l-275 -258l-65 37z" />
    <glyph glyph-name="uniF4CD" unicode="&#xf4cd;" horiz-adv-x="876" 
d="M217 -471l197 457l-398 850h95l350 -744l305 744h94l-549 -1307h-94zM551 1270l88 -51l-215 -263l-62 33z" />
    <glyph glyph-name="dollar.fitted" unicode="&#xf5f5;" horiz-adv-x="878" 
d="M782 1190l-65 -55q-5 11 -12.5 24.5t-26.5 37.5t-41 44t-57.5 38t-75.5 24v-553q145 -66 203 -109q28 -19 48.5 -38t45 -51t38 -76.5t13.5 -98.5q0 -89 -41 -172t-121.5 -144t-185.5 -77v-203h-82v196q-189 0 -313 144q-63 72 -89 149l78 37q23 -67 74 -131
q45 -57 112 -86t138 -31v635l-51 25q-99 46 -148 82.5t-80 87.5q-43 71 -43 155q0 139 90 236.5t232 103.5v183h82v-183q18 -2 34.5 -5t53 -16t66.5 -32t65 -56t59 -85zM504 653v-587q115 24 184.5 112t69.5 197q0 134 -133 215q-3 1 -16 8.5t-40 21.5t-65 33zM422 791v512
q-105 -6 -166 -81.5t-61 -172.5q0 -90 55.5 -150.5t171.5 -107.5z" />
    <glyph glyph-name="Euro.fitted" unicode="&#xf5f6;" horiz-adv-x="1130" 
d="M1077 1288l-41 -76q-133 91 -297 91q-99 0 -182.5 -39t-139 -103t-91 -133.5t-54.5 -144.5h666l-33 -82h-647q-8 -55 -8 -123q0 -30 4 -88h569l-32 -82h-525q9 -49 23 -97t48.5 -115.5t80.5 -116.5t124 -84.5t175 -35.5q101 0 195 38.5t165 107.5v-119
q-155 -109 -358 -109q-119 0 -214.5 39.5t-152.5 96.5t-97.5 134t-57.5 138t-25 123h-139l33 82h94q-4 58 -4 88q0 68 8 123h-131l33 82h112q47 222 202 361.5t370 139.5q183 0 327 -96z" />
    <glyph glyph-name="cent.fitted" unicode="&#xf5f7;" horiz-adv-x="776" 
d="M481 1341v-208q138 0 264 -105v-108q-119 128 -264 135v-717q155 6 275 147v-110q-127 -110 -275 -115v-233h-78v233q-170 23 -275 142.5t-105 289.5q0 176 105 296t275 142v211h78zM403 338v715q-75 -13 -133.5 -50t-92.5 -87.5t-51 -106.5t-17 -115q0 -79 30.5 -152
t99 -130.5t164.5 -73.5z" />
    <glyph glyph-name="sterling.fitted" unicode="&#xf5f8;" horiz-adv-x="976" 
d="M100 559v82h201l-43 72q-64 108 -82 143q-47 92 -47 172q0 67 26 133.5t78 116.5q106 102 263 102q142 0 237 -92q109 -109 109 -287h-90q0 73 -24 135t-62 97q-72 65 -172 65q-122 0 -197 -79q-74 -77 -74 -181q0 -81 56 -182q32 -60 94 -158l35 -57h247v-82h-221
q45 -88 45 -180q0 -115 -94 -236l133 -45q5 -2 25.5 -9t31 -10t28 -7.5t33 -6.5t30.5 -2q66 0 115.5 43t76.5 99l74 -45q-39 -75 -106.5 -131t-149.5 -56q-25 0 -58.5 7t-55.5 14t-69 23.5t-63 21.5q-103 35 -151 35q-86 0 -187 -94l-49 65q107 117 244 117q44 45 73 104.5
t29 112.5q0 42 -16 92.5t-39 87.5h-234z" />
    <glyph glyph-name="yen.fitted" unicode="&#xf5f9;" horiz-adv-x="1048" 
d="M987 801h-297l-125 -211h422v-82h-424v-508h-90v508h-410v82h406l-121 211h-285v82h238l-274 483h104l389 -686l398 686h104l-285 -483h250v-82z" />
    <glyph glyph-name="florin.fitted" unicode="&#xf5fa;" horiz-adv-x="880" 
d="M313 758l15 78h127l92 481q21 101 67 147q52 52 142 52q58 0 118 -29l-16 -74q-49 25 -94 25q-61 0 -94 -31t-43 -90l-90 -481h206l-14 -78h-207l-147 -789q-33 -182 -92 -241q-56 -56 -152 -56q-74 0 -139 29l16 76q62 -27 115 -27q65 0 100 35q38 38 64 172l153 801
h-127z" />
    <glyph glyph-name="uni20B4.fitted" unicode="&#xf5fb;" horiz-adv-x="925" 
d="M186 1135l-65 55q67 84 153 135q104 59 230 59q144 0 221 -77q36 -36 57 -87.5t21 -101.5q0 -61 -27.5 -125t-73.5 -110h185v-82h-260l-240 -211h500v-82h-576q-84 -96 -84 -223q0 -106 64 -166q60 -60 172 -60q116 0 211 86q77 69 110 162l78 -37q-42 -96 -125 -176
q-63 -60 -127.5 -88.5t-154.5 -28.5q-142 0 -224 72q-98 85 -98 240q0 117 76 219h-174v82h233l240 211h-473v82h547q58 47 92.5 108t34.5 121q0 77 -45 129q-53 62 -160 62q-105 0 -191 -54q-71 -42 -127 -114z" />
    <glyph glyph-name="uni20B6.fitted" unicode="&#xf5fc;" horiz-adv-x="864" 
d="M186 731v635h265q199 0 305 -111q94 -97 94 -245q0 -72 -25 -139t-71 -113q-105 -109 -301 -109h-177v-184h342v-82h-342v-383h-90v383h-153v82h153v184h-153v82h153zM276 1284v-553h181q140 0 223 80q76 73 76 197q0 126 -80 200q-50 46 -107.5 61t-126.5 15h-166z" />
    <glyph glyph-name="uni20B8.fitted" unicode="&#xf5fd;" horiz-adv-x="811" 
d="M805 1100h-354v-1100h-91v1100h-354v82h799v-82zM805 1284h-799v82h799v-82z" />
    <glyph glyph-name="currency.fitted" unicode="&#xf5fe;" horiz-adv-x="1183" 
d="M113 184l-50 52l185 182q-115 127 -115 299q0 169 109 293l-185 184l49 49l185 -182q125 115 301 115t301 -115l184 182l49 -49l-184 -184q111 -121 111 -295q0 -158 -113 -293l186 -186l-49 -50l-186 187q-125 -113 -295 -113q-172 0 -299 109zM975 717
q0 158 -112.5 271.5t-270.5 113.5t-269.5 -113t-111.5 -272q0 -158 111.5 -270.5t269.5 -112.5t270.5 112.5t112.5 270.5z" />
    <glyph glyph-name="uniF639" unicode="&#xf639;" horiz-adv-x="1097" 
d="M549 1384q183 0 321 -165q82 -98 128 -235.5t46 -301.5t-46 -301.5t-128 -235.5q-71 -84 -155 -126t-166 -42t-167 42t-155 126q-82 98 -128 235.5t-46 301.5t46 301.5t128 235.5q138 165 322 165zM549 59q142 0 254 140q147 182 147 483t-147 483q-111 138 -254 138
t-254 -138q-148 -183 -148 -483t148 -483q112 -140 254 -140z" />
    <glyph glyph-name="uniF63A" unicode="&#xf63a;" horiz-adv-x="929" 
d="M889 0h-842l524 578q111 125 150 184q80 121 80 233q0 131 -89.5 219.5t-228.5 88.5q-146 0 -235 -101q-80 -88 -80 -223h-90q0 88 29.5 162.5t78.5 124.5q114 118 303 118q176 0 291 -111t115 -278q0 -143 -98 -280q-51 -71 -121 -148l-438 -485h651v-82z" />
    <glyph glyph-name="uniF63B" unicode="&#xf63b;" horiz-adv-x="878" 
d="M43 332h90q3 -82 45 -146q38 -55 106 -91t136 -36q125 0 216 95t91 223q0 84 -36 149t-93 101q-64 41 -174 41v82q110 0 184 63q45 38 73 97.5t28 125.5q0 114 -70 190.5t-193 76.5q-126 0 -196 -80q-67 -73 -70 -183h-86q3 144 101 246q96 98 251 98q163 0 260 -98.5
t97 -243.5q0 -101 -51 -192t-164 -137q109 -35 171 -125.5t62 -208.5q0 -171 -116.5 -286.5t-284.5 -115.5q-96 0 -186.5 47t-141.5 132q-49 78 -49 176z" />
    <glyph glyph-name="uniF63C" unicode="&#xf63c;" horiz-adv-x="1052" 
d="M827 1411v-1069h191v-82h-191v-260h-90v260h-735zM162 342h575v803z" />
    <glyph glyph-name="uniF63D" unicode="&#xf63d;" horiz-adv-x="968" 
d="M928 1366v-82h-459l-115 -369q54 13 92 13q215 0 345.5 -133t130.5 -340q0 -143 -66.5 -253.5t-176 -167.5t-243.5 -57q-121 0 -231 54t-178 172l79 33q57 -85 143 -131t189 -46q169 0 279 111t110 283q0 173 -107.5 283t-277.5 110q-117 0 -213 -60l177 580h522z" />
    <glyph glyph-name="uniF63E" unicode="&#xf63e;" horiz-adv-x="1042" 
d="M580 1384l69 -53l-303 -430q86 37 186 37q204 0 340 -134.5t136 -342.5q0 -207 -138 -345.5t-350 -138.5q-208 0 -345.5 137t-137.5 349q0 152 88 278zM522 59q168 0 279.5 115t111.5 285q0 174 -110.5 285.5t-280.5 111.5t-280.5 -113t-110.5 -284q0 -172 112 -286
t279 -114z" />
    <glyph glyph-name="uniF63F" unicode="&#xf63f;" horiz-adv-x="1069" 
d="M23 29l884 1255h-829v82h989l-977 -1389z" />
    <glyph glyph-name="uniF640" unicode="&#xf640;" horiz-adv-x="901" 
d="M623 709q106 -40 164.5 -135.5t58.5 -211.5t-54 -204.5t-143.5 -134.5t-197.5 -46t-197.5 46t-144 134.5t-54.5 204.5t59 211.5t165 135.5q-65 34 -107.5 82.5t-58.5 99t-20.5 78.5t-4.5 55q0 155 104.5 257.5t258.5 102.5t258 -102.5t104 -257.5q0 -20 -1.5 -39.5
t-12 -60t-29 -74.5t-56.5 -73.5t-91 -67.5zM451 748q111 0 189.5 78.5t78.5 197.5q0 120 -77.5 199.5t-190.5 79.5q-114 0 -191.5 -79.5t-77.5 -199.5q0 -119 79 -197.5t190 -78.5zM451 59q135 0 218 87t83 216q0 135 -84.5 221.5t-216.5 86.5t-216.5 -86.5t-84.5 -221.5
q0 -129 83 -216t218 -87z" />
    <glyph glyph-name="uniF641" unicode="&#xf641;" horiz-adv-x="1040" 
d="M463 -23l-70 54l303 432q-86 -37 -186 -37q-204 0 -339.5 134.5t-135.5 342.5q0 206 137 343.5t350 137.5q208 0 346 -136.5t138 -346.5q0 -152 -88 -278zM520 1303q-168 0 -279.5 -115t-111.5 -283q0 -174 111.5 -285.5t279.5 -111.5q170 0 280.5 113t110.5 284
q0 169 -111.5 283.5t-279.5 114.5z" />
    <glyph glyph-name="uniF6BA" unicode="&#xf6ba;" horiz-adv-x="614" 
d="M102 645v94h410v-94h-410z" />
    <glyph glyph-name="uniF6BB" unicode="&#xf6bb;" horiz-adv-x="1105" 
d="M143 653v78h820v-78h-820z" />
    <glyph glyph-name="uniF6BC" unicode="&#xf6bc;" horiz-adv-x="1515" 
d="M143 653v78h1229v-78h-1229z" />
    <glyph glyph-name="uniF6C3" unicode="&#xf6c3;" 
d="M393 -389l94 287l91 -29l-127 -279z" />
    <glyph glyph-name="uniF6C9" unicode="&#xf6c9;" 
d="M647 1749l103 -51l-275 -258l-65 37z" />
    <glyph glyph-name="uniF6CA" unicode="&#xf6ca;" 
d="M512 1587l197 131l69 -55l-266 -184l-266 184l69 55z" />
    <glyph glyph-name="uniF6CB" unicode="&#xf6cb;" 
d="M244 1597q0 32 23 55t55 23t54.5 -23t22.5 -55t-22.5 -54.5t-54.5 -22.5t-55 22.5t-23 54.5zM625 1597q0 32 22.5 55t54.5 23t55 -23t23 -55t-23 -54.5t-55 -22.5t-54.5 22.5t-22.5 54.5z" />
    <glyph glyph-name="uniF6CE" unicode="&#xf6ce;" 
d="M549 1440l-275 258l103 51l237 -272z" />
    <glyph glyph-name="uniF6CF" unicode="&#xf6cf;" 
d="M492 1749l106 -53l-205 -256l-74 30zM739 1749l107 -53l-205 -256l-74 30z" />
    <glyph glyph-name="uniF6D0" unicode="&#xf6d0;" 
d="M236 1536v90h552v-90h-552z" />
    <glyph glyph-name="uniF6D1" unicode="&#xf6d1;" 
d="M225 1645l72 38q60 -131 215 -131t215 131l72 -38q-29 -66 -84 -107.5t-104 -54.5t-99 -13t-99 13t-104 54.5t-84 107.5z" />
    <glyph glyph-name="uniF6D4" unicode="&#xf6d4;" 
d="M246 1174l69 34q16 -64 68.5 -106.5t128.5 -42.5t128.5 42.5t68.5 106.5l69 -34q-10 -32 -27 -61.5t-47 -61.5t-79.5 -51t-112.5 -19t-112.5 19t-79.5 51t-47 61.5t-27 61.5z" />
    <glyph glyph-name="uniF6DC" unicode="&#xf6dc;" horiz-adv-x="385" 
d="M213 0v1284h-213l41 82h262v-1366h-90z" />
    <glyph glyph-name="uniF6DE" unicode="&#xf6de;" horiz-adv-x="1136" 
d="M106 385v78h922v-78h-922z" />
    <glyph glyph-name="nbspace" horiz-adv-x="477" 
 />
    <glyph glyph-name="hyphenminus" horiz-adv-x="614" 
d="M102 377v94h410v-94h-410z" />
    <glyph glyph-name="dotlessi1" horiz-adv-x="376" 
d="M147 836h82v-836h-82v836z" />
    </font>
</defs>
</svg>
