<?xml version="1.0" standalone="no"?>
<!DOCTYPE svg PUBLIC "-//W3C//DTD SVG 1.1//EN" "http://www.w3.org/Graphics/SVG/1.1/DTD/svg11.dtd" >
<svg xmlns="http://www.w3.org/2000/svg" xmlns:xlink="http://www.w3.org/1999/xlink" version="1.1">
<metadata>
Created by FontForge 20201107 at Mon Oct 14 14:32:01 2024
 By 
Copyright (c) 1995 ParaGraph Intl., (c) 1998 ParaType Inc., ParaType Ltd. All rights reserved.
</metadata>
<defs>
<font id="FuturaPT-Medium" horiz-adv-x="1024" >
  <font-face 
    font-family="Futura PT Medium"
    font-weight="450"
    font-stretch="normal"
    units-per-em="2048"
    panose-1="2 11 6 2 2 2 4 2 3 3"
    ascent="1563"
    descent="-485"
    x-height="862"
    cap-height="1366"
    bbox="-741 -553 2390 1915"
    underline-thickness="102"
    underline-position="-204"
    unicode-range="U+0020-FB02"
  />
<missing-glyph horiz-adv-x="477" 
 />
    <glyph glyph-name="afii10017.var.accented" unicode="&#x410;`" horiz-adv-x="1343" 
d="M1110 0l-143 330h-584l-150 -330h-225l680 1446l647 -1446h-225zM469 526h414l-203 463zM639 1489l-98 82l282 284l176 -122z" />
    <glyph glyph-name="afii10022.var.accented" unicode="&#x415;`" 
d="M918 1366v-197h-545v-346h528v-196h-528v-430h545v-197h-754v1366h754zM479 1489l-98 82l283 284l176 -122z" />
    <glyph glyph-name="afii10026.var.accented" unicode="&#x418;`" horiz-adv-x="1458" 
d="M1085 0v920l-921 -981v1427h209v-924l921 981v-1423h-209zM696 1489l-98 82l283 284l176 -122z" />
    <glyph glyph-name="afii10032.var.accented" unicode="&#x41e;`" horiz-adv-x="1617" 
d="M809 1391q151 0 283.5 -54.5t226 -149t147.5 -226t54 -279.5t-54 -279.5t-147.5 -226t-226 -149t-283.5 -54.5t-283.5 54.5t-226 149t-147.5 226t-54 279.5t54 279.5t147.5 226t226 149t283.5 54.5zM809 166q220 0 361 144.5t141 371.5t-141 371.5t-361 144.5
t-361 -144.5t-141 -371.5t141 -371.5t361 -144.5zM776 1489l-98 82l283 284l176 -122z" />
    <glyph glyph-name="afii10037.var.accented" unicode="&#x423;`" horiz-adv-x="1167" 
d="M12 1366h254l352 -729l320 729h217l-616 -1366h-217l176 387zM551 1489l-98 82l282 284l176 -122z" />
    <glyph glyph-name="afii10045.var.accented" unicode="&#x42b;`" horiz-adv-x="1515" 
d="M164 0v1366h209v-551h155q220 0 342 -108q60 -52 94.5 -130.5t34.5 -170.5q0 -98 -43.5 -187.5t-126.5 -144.5q-110 -74 -299 -74h-366zM373 618v-421h147q20 0 33.5 0.5t44.5 4.5t54 11t51.5 22t47 36.5t31.5 55t13 76.5q0 32 -6.5 60.5t-25.5 57.5t-48 50t-78 34
t-113 13h-151zM1143 1366h209v-1366h-209v1366zM725 1489l-98 82l282 284l176 -122z" />
    <glyph glyph-name="afii10047.var.accented" unicode="&#x42d;`" horiz-adv-x="1273" 
d="M98 1047v245q173 99 396 99q144 0 262 -41t217 -138q203 -201 203 -528q0 -321 -203 -524q-187 -187 -486 -187q-215 0 -389 103v248q88 -89 191.5 -123.5t197.5 -34.5q209 0 332 123q124 124 139 305h-675v197h671q-18 165 -125 276q-125 131 -340 131q-222 0 -391 -151
zM489 1489l-98 82l283 284l176 -122z" />
    <glyph glyph-name="afii10048.var.accented" unicode="&#x42e;`" horiz-adv-x="2048" 
d="M373 823h205q36 215 182 365q199 203 500 203q147 0 275.5 -54.5t219.5 -148.5t143 -225.5t52 -280.5q0 -198 -89 -360.5t-247.5 -255.5t-353.5 -93q-99 0 -186 21t-152.5 58t-112.5 76t-84 85q-63 77 -103.5 183.5t-43.5 230.5h-205v-627h-209v1366h209v-543zM1260 166
q212 0 346.5 145t134.5 371t-134.5 371t-346.5 145t-347 -145t-135 -371t135 -371t347 -145zM991 1489l-98 82l283 284l176 -122z" />
    <glyph glyph-name="afii10049.var.accented" unicode="&#x42f;`" horiz-adv-x="1093" 
d="M41 0l405 569q-54 6 -110.5 30.5t-99.5 62.5q-117 102 -117 290q0 173 104 285q42 45 92 73.5t105 39t89.5 13.5t84.5 3h336v-1366h-209v547h-49l-373 -547h-258zM721 1174h-103q-83 0 -138.5 -13.5t-94.5 -50.5q-66 -62 -66 -158q0 -110 78 -164q73 -49 209 -49h115v435
zM514 1489l-98 82l282 284l176 -122z" />
    <glyph glyph-name="afii10023.var.accented" unicode="&#x401;`" 
d="M918 1366v-197h-545v-346h528v-196h-528v-430h545v-197h-754v1366h754zM449 1511l-68 60l227 284l129 -94zM129 1642q0 40 31 76.5t84 36.5q49 0 81.5 -32.5t32.5 -80.5q0 -50 -32 -82t-82 -32q-54 0 -84.5 36.5t-30.5 77.5zM723 1642q0 48 33 80.5t82 32.5
q53 0 83.5 -36.5t30.5 -76.5q0 -41 -30 -77.5t-84 -36.5q-50 0 -82.5 32.5t-32.5 81.5z" />
    <glyph glyph-name="afii10065.var.accented" unicode="&#x430;`" horiz-adv-x="1085" 
d="M758 762v100h200v-862h-200v90q-101 -117 -258 -117q-128 0 -225 65.5t-145 169t-48 224.5q0 103 33.5 189t91 143.5t134 89t161.5 31.5q161 0 256 -123zM526 705q-107 0 -173 -79.5t-66 -197.5q0 -115 66.5 -194.5t172.5 -79.5q102 0 173 71.5t71 200.5q0 134 -71 206.5
t-173 72.5zM696 1382l185 -94l-320 -295l-110 70z" />
    <glyph glyph-name="afii10070.var.accented" unicode="&#x435;`" horiz-adv-x="987" 
d="M731 291l168 -94q-57 -102 -145 -158q-103 -66 -254 -66q-180 0 -291 111q-61 61 -94 147t-33 183q0 101 35 193.5t102 160.5q117 117 289 117q167 0 276 -113q121 -125 121 -364v-25h-618q3 -48 22.5 -95.5t50.5 -78.5q55 -55 154 -55q80 0 137 43q50 38 80 94zM301 547
h399q-12 71 -61 117q-53 49 -135 49q-86 0 -142 -56q-45 -42 -61 -110zM651 1382l185 -94l-320 -295l-110 70z" />
    <glyph glyph-name="afii10074.var.accented" unicode="&#x438;`" horiz-adv-x="1044" 
d="M127 862h201v-489l590 567v-940h-201v502l-590 -568v928zM676 1382l184 -94l-319 -295l-111 70z" />
    <glyph glyph-name="afii10080.var.accented" unicode="&#x43e;`" horiz-adv-x="1085" 
d="M543 885q197 0 329 -128.5t132 -326.5q0 -197 -132.5 -327t-328.5 -130t-328.5 130t-132.5 327q0 198 132 326.5t329 128.5zM543 154q118 0 187 74.5t69 199.5q0 71 -22 126t-59 87t-81.5 48t-93.5 16t-93.5 -16t-81.5 -48t-59 -87t-22 -126q0 -125 69 -199.5t187 -74.5z
M696 1382l185 -94l-320 -295l-110 70z" />
    <glyph glyph-name="afii10085.var.accented" unicode="&#x443;`" horiz-adv-x="987" 
d="M63 -469l318 604l-369 727h242l246 -504l250 504h225l-686 -1331h-226zM647 1382l184 -94l-319 -295l-111 70z" />
    <glyph glyph-name="afii10093.var.accented" unicode="&#x44b;`" horiz-adv-x="1187" 
d="M127 0v862h201v-305h114q41 0 67 -2t63.5 -9.5t69.5 -26.5t60 -50q68 -75 68 -188q0 -129 -78 -207q-27 -26 -57 -42.5t-67 -22.5t-61 -7.5t-67 -1.5h-313zM328 172h92q74 0 104 18q45 32 45 89q0 58 -43 86q-33 20 -104 20h-94v-213zM860 0v862h201v-862h-201zM748 1382
l184 -94l-320 -295l-110 70z" />
    <glyph glyph-name="afii10095.var.accented" unicode="&#x44d;`" horiz-adv-x="876" 
d="M82 649v191q115 45 244 45q217 0 344 -127q125 -125 125 -326q0 -200 -127 -330q-123 -129 -322 -129q-137 0 -264 50v190q105 -59 235 -59q126 0 195 69q50 50 63 133h-399v168h393q-17 91 -86 138q-60 43 -166 43q-120 0 -235 -56zM457 1382l184 -94l-319 -295l-111 70
z" />
    <glyph glyph-name="afii10096.var.accented" unicode="&#x44e;`" horiz-adv-x="1433" 
d="M328 543h137q20 120 113 215q127 127 321 127q192 0 322.5 -128.5t130.5 -326.5q0 -197 -130 -327t-323 -130q-204 0 -332 138q-94 102 -106 247h-133v-358h-201v862h201v-319zM899 705q-104 0 -176 -69.5t-72 -207.5t72 -206t176 -68t176 68t72 206t-72 207.5t-176 69.5
zM870 1382l185 -94l-320 -295l-110 70z" />
    <glyph glyph-name="afii10097.var.accented" unicode="&#x44f;`" horiz-adv-x="856" 
d="M16 0l271 342q-78 11 -137 66q-72 69 -72 178q0 124 80 198q50 48 110 63t140 15h321v-862h-201v317h-41l-235 -317h-236zM528 481v209h-116q-72 0 -105 -18q-49 -29 -49 -86q0 -55 41 -84q33 -21 111 -21h118zM582 1382l184 -94l-320 -295l-110 70z" />
    <glyph glyph-name="afii10071.var.accented" unicode="&#x451;`" horiz-adv-x="987" 
d="M731 291l168 -94q-57 -102 -145 -158q-103 -66 -254 -66q-180 0 -291 111q-61 61 -94 147t-33 183q0 101 35 193.5t102 160.5q117 117 289 117q167 0 276 -113q121 -125 121 -364v-25h-618q3 -48 22.5 -95.5t50.5 -78.5q55 -55 154 -55q80 0 137 43q50 38 80 94zM301 547
h399q-12 71 -61 117q-53 49 -135 49q-86 0 -142 -56q-45 -42 -61 -110zM543 1382l151 -75l-295 -295l-77 51zM106 1178q0 50 32 82t81 32q50 0 82.5 -32.5t32.5 -81.5q0 -54 -37 -84.5t-78 -30.5t-77 31.5t-36 83.5zM659 1178q0 49 32.5 81.5t82.5 32.5q54 0 84.5 -36.5
t30.5 -77.5q0 -46 -34.5 -80.5t-80.5 -34.5q-41 0 -78 30.5t-37 84.5z" />
    <glyph glyph-name="fi" unicode="fi" horiz-adv-x="962" 
d="M549 678h-217v-678h-201v678h-70v184h70v287q0 52 2 83t14.5 74t36.5 78q96 134 299 134q211 0 299 -134q35 -56 44.5 -108t9.5 -127v-59h-201v36q0 92 -25 134q-40 65 -127 65q-92 0 -127 -65q-24 -38 -24 -134v-264h217v-184zM635 862h201v-862h-201v862z" />
    <glyph glyph-name="fl" unicode="fl" horiz-adv-x="962" 
d="M549 678h-217v-678h-201v678h-70v184h70v287q0 52 2 83t14.5 74t36.5 78q96 134 299 134q211 0 299 -134q34 -52 44 -105.5t10 -129.5v-1149h-201v1126q0 88 -25 134q-38 65 -127 65q-92 0 -127 -65q-24 -38 -24 -134v-264h217v-184z" />
    <glyph glyph-name=".notdef" horiz-adv-x="477" 
 />
    <glyph glyph-name=".null" horiz-adv-x="0" 
 />
    <glyph glyph-name="nonmarkingreturn" horiz-adv-x="682" 
 />
    <glyph glyph-name="space" unicode=" " horiz-adv-x="477" 
 />
    <glyph glyph-name="exclam" unicode="!" horiz-adv-x="516" 
d="M358 338h-200v1028h200v-1028zM135 98q0 51 36 87t87 36t87 -36t36 -87t-36 -87t-87 -36t-87 36t-36 87z" />
    <glyph glyph-name="quotedbl" unicode="&#x22;" horiz-adv-x="749" 
d="M319 1366l-36 -549h-148l-37 549h221zM651 1366l-37 -549h-147l-37 549h221z" />
    <glyph glyph-name="numbersign" unicode="#" horiz-adv-x="1228" 
d="M834 0h-201l63 401h-233l-64 -401h-200l63 401h-221l29 181h221l37 229h-222l29 180h221l60 375h200l-59 -375h234l59 375h201l-60 -375h221l-28 -180h-221l-37 -229h221l-29 -181h-221zM725 582l37 229h-234l-36 -229h233z" />
    <glyph glyph-name="dollar" unicode="$" horiz-adv-x="1163" 
d="M975 1161l-168 -98q-19 48 -62 86q-57 49 -147 49q-97 0 -152 -55q-40 -40 -40 -105q0 -69 53 -114q44 -38 129 -70l102 -41q160 -65 228 -143q94 -105 94 -258q0 -185 -119 -312q-94 -99 -225 -118v-207h-152v200q-156 13 -266 136q-102 113 -115 266l207 45
q0 -100 57 -174q65 -82 179 -82q99 0 161 65q64 64 64 164q0 87 -60 150q-11 11 -23 21t-20.5 16t-23.5 14t-21 11t-25 11.5t-24 10.5l-131 55q-49 22 -104 57t-88 68q-86 90 -86 209q0 163 104 264q87 83 215 102v183h152v-181q99 -8 178 -67q83 -64 129 -158z" />
    <glyph glyph-name="percent" unicode="%" horiz-adv-x="1658" 
d="M397 1378q135 0 232.5 -94.5t97.5 -226.5q0 -131 -97 -226.5t-233 -95.5t-232.5 95.5t-96.5 226.5q0 132 97 226.5t232 94.5zM397 883q79 0 124.5 53.5t45.5 120.5t-45.5 120.5t-124.5 53.5t-124.5 -53.5t-45.5 -120.5t45.5 -120.5t124.5 -53.5zM391 37l780 1352l97 -56
l-781 -1356zM1262 629q135 0 232 -95t97 -227q0 -131 -96.5 -226t-232.5 -95t-233 95t-97 226q0 132 97.5 227t232.5 95zM1262 133q79 0 124.5 53.5t45.5 120.5t-45.5 120.5t-124.5 53.5t-124.5 -53.5t-45.5 -120.5t45.5 -120.5t124.5 -53.5z" />
    <glyph glyph-name="ampersand" unicode="&#x26;" horiz-adv-x="1323" 
d="M1100 641l133 -139l-162 -187l252 -315h-254l-135 168q-50 -53 -115 -100q-68 -48 -137.5 -71.5t-161.5 -23.5q-188 0 -298.5 111t-110.5 281q0 65 15 119t44.5 96.5t61 73t75.5 63.5q53 39 109 76q-135 135 -135 282q0 60 19.5 115.5t57 101t101.5 72.5t145 27
q78 0 142 -25.5t104 -68t61 -94.5t21 -107q0 -99 -60 -178q-54 -70 -170 -158l242 -295zM809 315l-270 328q-96 -53 -150 -113q-74 -79 -74 -174q0 -86 59.5 -146t153.5 -60q75 0 154 53q54 39 127 112zM582 905l75 56q82 59 82 135q0 50 -34 86.5t-101 36.5
q-62 0 -96.5 -33.5t-34.5 -87.5q0 -64 47 -119z" />
    <glyph glyph-name="quotesingle" unicode="'" horiz-adv-x="417" 
d="M319 1366l-36 -549h-148l-37 549h221z" />
    <glyph glyph-name="parenleft" unicode="(" horiz-adv-x="663" 
d="M541 -291l-185 -71q-86 182 -139 413q-53 238 -53 522q0 288 57 543q49 219 135 400l185 -72q-83 -189 -123 -371q-49 -218 -49 -500q0 -275 47 -483q45 -191 125 -381z" />
    <glyph glyph-name="parenright" unicode=")" horiz-adv-x="663" 
d="M307 -362l-184 71q80 190 125 381q47 208 47 483q0 282 -49 500q-40 182 -123 371l184 72q86 -181 135 -400q58 -259 58 -543q0 -280 -54 -522q-53 -231 -139 -413z" />
    <glyph glyph-name="asterisk" unicode="*" horiz-adv-x="1126" 
d="M279 1341l219 -92l-15 244h160l-16 -242l221 90l51 -147l-233 -57l151 -185l-123 -96l-131 199l-131 -199l-123 96l152 181l-234 57z" />
    <glyph glyph-name="plus" unicode="+" 
d="M68 596v184h348v348h192v-348h348v-184h-348v-348h-192v348h-348z" />
    <glyph glyph-name="comma" unicode="," horiz-adv-x="655" 
d="M20 -264l209 520l181 -70l-254 -505z" />
    <glyph glyph-name="hyphen" unicode="-" horiz-adv-x="696" 
d="M102 332v209h492v-209h-492z" />
    <glyph glyph-name="period" unicode="." horiz-adv-x="516" 
d="M135 98q0 51 36 87t87 36t87 -36t36 -87t-36 -87t-87 -36t-87 36t-36 87z" />
    <glyph glyph-name="slash" unicode="/" horiz-adv-x="1400" 
d="M0 -362l1077 1929l164 -74l-1077 -1929z" />
    <glyph glyph-name="zero" unicode="0" horiz-adv-x="1163" 
d="M582 -23q-180 0 -310 148q-174 200 -174 557q0 359 174 559q130 148 310 148q179 0 309 -148q174 -200 174 -559q0 -357 -174 -557q-130 -148 -309 -148zM582 1204q-112 0 -185 -112q-94 -140 -94 -408t94 -410q73 -112 185 -112q111 0 184 112q94 142 94 410t-94 408
q-73 112 -184 112z" />
    <glyph glyph-name="one" unicode="1" horiz-adv-x="1163" 
d="M512 0v1174h-238l115 192h332v-1366h-209z" />
    <glyph glyph-name="two" unicode="2" horiz-adv-x="1163" 
d="M987 193v-193h-917l473 573q108 132 164 213q71 104 71 197q0 92 -59.5 156.5t-167.5 64.5q-109 0 -172.5 -72t-69.5 -176h-200q4 93 36.5 171t77.5 128q119 134 320 134q106 0 191 -34t138.5 -92t82 -131.5t28.5 -154.5q0 -141 -98 -287q-52 -79 -195 -246l-213 -251
h510z" />
    <glyph glyph-name="three" unicode="3" horiz-adv-x="1163" 
d="M340 1018h-201q9 161 117 266q110 105 299 105q187 0 295 -113q98 -101 98 -260q0 -103 -47 -180q-48 -77 -123 -115q85 -33 135 -109q58 -85 58 -211q0 -188 -117 -305q-119 -119 -334 -119q-197 0 -305 115q-46 50 -78 125.5t-39 153.5h201q15 -93 74 -148
q66 -61 166 -61q95 0 159 57q72 68 72 193q0 102 -61 161q-64 62 -177 62h-40v176h28q115 0 174 59q54 54 54 146q0 83 -54 137q-53 51 -145 51q-99 0 -152 -55q-21 -22 -35 -54t-18 -50.5t-4 -26.5z" />
    <glyph glyph-name="four" unicode="4" horiz-adv-x="1163" 
d="M918 1466v-1015h147v-193h-147v-258h-201v258h-676zM406 446h311v441z" />
    <glyph glyph-name="five" unicode="5" horiz-adv-x="1163" 
d="M977 1366v-192h-422l-68 -228q40 4 64 4q191 0 315 -121q133 -127 133 -350t-139 -362q-144 -140 -379 -140q-155 0 -262 62q-98 59 -162 158l158 131q3 -9 14 -26.5t36.5 -46t53.5 -46.5q68 -47 179 -47q128 0 209 76q88 88 88 231t-82 221q-82 76 -224 76
q-79 0 -159 -29q-71 -26 -121 -61l203 690h565z" />
    <glyph glyph-name="six" unicode="6" horiz-adv-x="1163" 
d="M713 1413l151 -113l-325 -411q41 8 86 8q192 0 315 -127q56 -59 88.5 -143t32.5 -176q0 -95 -34.5 -187.5t-100.5 -157.5q-131 -129 -353 -129q-224 0 -352 134q-119 126 -119 309q0 133 66 262q15 29 30 55t34 53.5t30.5 43t36.5 47.5t35 45zM584 719q-53 0 -107 -20.5
t-90 -55.5q-36 -34 -58 -87.5t-22 -115.5q0 -55 21 -110t59 -92q33 -32 88.5 -54t108.5 -22q50 0 102.5 19.5t89.5 56.5t58.5 92.5t21.5 109.5t-21.5 110t-58.5 93q-35 35 -87 55.5t-105 20.5z" />
    <glyph glyph-name="seven" unicode="7" horiz-adv-x="1163" 
d="M102 55l680 1119h-671v192h1015l-860 -1413z" />
    <glyph glyph-name="eight" unicode="8" horiz-adv-x="1163" 
d="M582 621q-98 0 -162 -64q-30 -30 -47 -75.5t-17 -90.5q0 -92 62 -160q61 -69 164 -69q102 0 163 69q62 68 62 160q0 45 -17 90.5t-47 75.5q-64 64 -161 64zM582 1204q-92 0 -150 -55q-57 -57 -57 -152q0 -88 55 -143q27 -28 69 -44.5t83 -16.5t82.5 16t68.5 45
q55 55 55 143q0 95 -57 152q-58 55 -149 55zM807 711q91 -39 143 -111q62 -83 62 -205q0 -178 -109 -291q-118 -127 -321 -127q-204 0 -322 127q-108 112 -108 291q0 124 61 205q52 72 143 111q-73 32 -120 102q-50 79 -50 186q0 173 115 285q110 105 281 105
q170 0 280 -105q115 -112 115 -285q0 -109 -49 -186q-47 -70 -121 -102z" />
    <glyph glyph-name="nine" unicode="9" horiz-adv-x="1163" 
d="M451 -47l-152 113l322 411q-36 -8 -74 -8q-193 0 -320 127q-125 125 -125 311q0 100 36.5 188.5t99.5 153.5q137 140 352 140q221 0 352 -136q119 -123 119 -309q0 -131 -66 -260q-15 -29 -30 -55t-34 -53.5t-30.5 -43t-36.5 -47.5t-35 -45zM580 647q117 0 196 82
q38 39 59 93.5t21 109.5q0 117 -80 194q-81 78 -194 78q-55 0 -107 -22t-88 -56q-80 -80 -80 -200q0 -123 80 -203q35 -34 86.5 -55t106.5 -21z" />
    <glyph glyph-name="colon" unicode=":" horiz-adv-x="516" 
d="M135 762q0 51 36 87t87 36t87 -36t36 -87t-36 -87t-87 -36t-87 36t-36 87zM135 96q0 51 36 87t87 36t87 -36t36 -87t-36 -87t-87 -36t-87 36t-36 87z" />
    <glyph glyph-name="semicolon" unicode=";" horiz-adv-x="655" 
d="M184 762q0 51 36 87t87 36t87 -36t36 -87t-36 -87t-87 -36t-87 36t-36 87zM20 -264l209 520l181 -70l-254 -505z" />
    <glyph glyph-name="less" unicode="&#x3c;" 
d="M281 680l675 -320v-196l-888 432v168l888 432v-197z" />
    <glyph glyph-name="equal" unicode="=" 
d="M68 778v172h888v-172h-888zM68 446v172h888v-172h-888z" />
    <glyph glyph-name="greater" unicode="&#x3e;" 
d="M743 680l-675 319v197l888 -432v-168l-888 -432v196z" />
    <glyph glyph-name="question" unicode="?" horiz-adv-x="888" 
d="M324 993h-209q-4 47 -4 70q0 154 92 242q90 86 239 86q153 0 248 -91q88 -85 88 -229q0 -166 -121 -252q-45 -31 -143 -71l-61 -25q-60 -23 -82 -45q-31 -31 -31 -74q0 -52 35 -80q24 -20 61 -20q51 0 78 31q33 36 33 108h201q0 -142 -91 -237q-87 -87 -223 -87
q-127 0 -215 84q-84 84 -84 218q0 103 66 176q47 51 178 104q6 2 31 11t34.5 13.5t28 12.5t31.5 16.5t24 18.5q45 42 45 102q0 62 -34 96q-35 35 -95 35q-62 0 -94 -37q-35 -35 -35 -108q0 -23 9 -68zM324 96q0 51 35.5 87t86.5 36t87 -36t36 -87t-36 -87t-87 -36t-86.5 36
t-35.5 87z" />
    <glyph glyph-name="at" unicode="@" horiz-adv-x="1499" 
d="M971 899l20 107h139l-79 -412q-13 -67 -13 -92q0 -43 20.5 -62.5t45.5 -19.5q32 0 66.5 25.5t56.5 56.5q34 50 52.5 131.5t18.5 144.5q0 70 -19 138t-60 131t-99 111t-144 77t-188 29q-163 0 -297.5 -77.5t-212 -213.5t-77.5 -301q0 -180 94.5 -325.5t257.5 -207.5
q102 -41 233 -41q226 0 416 84l35 -127q-189 -80 -440 -80q-305 0 -496 166q-42 36 -77.5 80.5t-73 109.5t-59 154t-21.5 189q0 203 92 366t255 254.5t365 91.5q134 0 252 -42t206 -118.5t139 -191.5t51 -254q0 -93 -25 -188t-74 -160q-42 -56 -105 -92.5t-130 -36.5
q-64 0 -104.5 35.5t-51.5 91.5q-46 -71 -115.5 -105t-138.5 -34q-36 0 -73.5 9.5t-77 33.5t-69.5 59.5t-49.5 94t-19.5 130.5q0 98 32.5 178.5t85 130t115 76.5t126.5 27q73 0 129.5 -33.5t85.5 -97.5zM707 434q87 0 154 78t67 199q0 88 -45 132t-111 44q-90 0 -153.5 -71.5
t-63.5 -194.5q0 -90 44 -138.5t108 -48.5z" />
    <glyph glyph-name="A" unicode="A" horiz-adv-x="1343" 
d="M1110 0l-143 330h-584l-150 -330h-225l680 1446l647 -1446h-225zM469 526h414l-203 463z" />
    <glyph glyph-name="B" unicode="B" horiz-adv-x="1077" 
d="M164 1366h207q139 0 225.5 -22.5t151.5 -83.5q108 -102 108 -271q0 -96 -41 -162q-38 -65 -102 -94q105 -25 176 -98q90 -95 90 -256q0 -151 -90 -246q-126 -133 -383 -133h-342v1366zM373 1169v-391h63q115 0 170 53q53 51 53 156q0 84 -49 131q-53 51 -166 51h-71z
M373 606v-409h127q142 0 207 53q31 25 49 65.5t18 85.5q0 89 -55 144q-63 61 -215 61h-131z" />
    <glyph glyph-name="C" unicode="C" horiz-adv-x="1269" 
d="M1176 1292v-245q-168 151 -371 151q-221 0 -359.5 -146.5t-138.5 -373.5q0 -218 141.5 -365t358.5 -147q202 0 369 158v-248q-172 -103 -375 -103q-285 0 -484 189q-219 205 -219 516q0 326 219 534q190 179 494 179q210 0 365 -99z" />
    <glyph glyph-name="D" unicode="D" horiz-adv-x="1318" 
d="M164 1366h287q162 0 282 -27.5t225 -105.5q125 -94 194 -238t69 -313q0 -171 -70.5 -313.5t-204.5 -237.5q-111 -79 -225.5 -105t-274.5 -26h-282v1366zM373 1169v-972h90q232 0 362 96q80 61 133.5 160.5t53.5 228.5q0 128 -52.5 231.5t-132.5 161.5q-130 94 -364 94
h-90z" />
    <glyph glyph-name="E" unicode="E" 
d="M918 1366v-197h-545v-346h528v-196h-528v-430h545v-197h-754v1366h754z" />
    <glyph glyph-name="F" unicode="F" horiz-adv-x="921" 
d="M848 1366v-197h-475v-346h458v-196h-458v-627h-209v1366h684z" />
    <glyph glyph-name="G" unicode="G" horiz-adv-x="1531" 
d="M870 518v193h564v-11q0 -356 -203 -553q-179 -174 -465 -174q-149 0 -260 45t-205 142q-99 102 -151 234.5t-52 281.5q0 153 55 287t144 223q91 93 226 149t288 56q201 0 356 -86q141 -79 222 -205l-166 -117q-75 104 -168 156q-100 59 -242 59q-219 0 -360 -141
q-68 -68 -107 -170.5t-39 -212.5q0 -103 37.5 -201t104.5 -170q129 -137 342 -137q181 0 305 121q100 98 114 231h-340z" />
    <glyph glyph-name="H" unicode="H" horiz-adv-x="1331" 
d="M373 1366v-541h585v541h209v-1366h-209v629h-585v-629h-209v1366h209z" />
    <glyph glyph-name="I" unicode="I" horiz-adv-x="536" 
d="M164 1366h209v-1366h-209v1366z" />
    <glyph glyph-name="J" unicode="J" horiz-adv-x="741" 
d="M369 1366h209v-885q0 -100 -10 -173.5t-42 -137.5q-18 -36 -43 -67.5t-63 -62.5t-93.5 -49t-121.5 -18q-136 0 -242 70l103 176q58 -49 143 -49q100 0 137 92q23 59 23 219v885z" />
    <glyph glyph-name="K" unicode="K" horiz-adv-x="1200" 
d="M373 1366v-545l528 545h275l-617 -618l621 -748h-279l-487 606l-41 -41v-565h-209v1366h209z" />
    <glyph glyph-name="L" unicode="L" horiz-adv-x="806" 
d="M164 1366h209v-1169h401v-197h-610v1366z" />
    <glyph glyph-name="M" unicode="M" horiz-adv-x="1744" 
d="M336 0h-213l287 1468l475 -1060l479 1060l258 -1468h-213l-139 823l-398 -886l-393 888z" />
    <glyph glyph-name="N" unicode="N" horiz-adv-x="1527" 
d="M373 0h-209v1458l991 -1038v946h209v-1450l-991 1038v-954z" />
    <glyph glyph-name="O" unicode="O" horiz-adv-x="1617" 
d="M809 1391q151 0 283.5 -54.5t226 -149t147.5 -226t54 -279.5t-54 -279.5t-147.5 -226t-226 -149t-283.5 -54.5t-283.5 54.5t-226 149t-147.5 226t-54 279.5t54 279.5t147.5 226t226 149t283.5 54.5zM809 166q220 0 361 144.5t141 371.5t-141 371.5t-361 144.5
t-361 -144.5t-141 -371.5t141 -371.5t361 -144.5z" />
    <glyph glyph-name="P" unicode="P" horiz-adv-x="983" 
d="M164 1366h301q189 0 299 -74q83 -55 126.5 -144t43.5 -187q0 -186 -133 -299q-127 -107 -334 -107h-94v-555h-209v1366zM373 1174v-426h94q131 0 198.5 58t67.5 157q0 27 -4.5 51.5t-21.5 55t-44.5 52.5t-78.5 37t-119 15h-92z" />
    <glyph glyph-name="Q" unicode="Q" horiz-adv-x="1617" 
d="M1294 -27l-102 103q-161 -103 -383 -103q-151 0 -283.5 54t-226 148t-147.5 225.5t-54 281.5q0 148 54 279.5t147.5 226t226 149t283.5 54.5q150 0 282.5 -54.5t226.5 -149t148 -226t54 -279.5q0 -285 -189 -489l221 -220h-258zM981 541l209 -207q121 139 121 348
q0 227 -141 371.5t-361 144.5t-361 -144.5t-141 -371.5t141 -371.5t361 -144.5q134 0 235 53l-323 322h260z" />
    <glyph glyph-name="R" unicode="R" horiz-adv-x="1093" 
d="M164 1366h244q127 0 211 -18t149 -62q52 -35 87.5 -82t50 -95.5t19.5 -80.5t5 -63q0 -146 -82.5 -248t-220.5 -133l426 -584h-252l-391 559h-37v-559h-209v1366zM373 1174v-435h65q21 0 42 2t58 8t67.5 21t60 38t46.5 63t17 92q0 211 -285 211h-71z" />
    <glyph glyph-name="S" unicode="S" horiz-adv-x="1056" 
d="M922 1161l-168 -98q-19 48 -62 86q-60 49 -147 49q-91 0 -142 -47t-51 -117q0 -107 148 -166l137 -55q177 -72 249 -172t72 -229q0 -194 -123.5 -316.5t-316.5 -122.5q-197 0 -321 138q-102 113 -115 266l207 45q0 -100 57 -174q65 -82 178 -82q97 0 161.5 64t64.5 165
q0 49 -17 89t-49 67.5t-61.5 44t-69.5 33.5l-131 55q-279 116 -279 346q0 70 27 134.5t76.5 115t126.5 81t170 30.5q166 0 274 -93q65 -58 105 -137z" />
    <glyph glyph-name="T" unicode="T" horiz-adv-x="876" 
d="M856 1169h-313v-1169h-209v1169h-314v197h836v-197z" />
    <glyph glyph-name="U" unicode="U" horiz-adv-x="1339" 
d="M164 1366h209v-823q0 -160 43 -236q34 -58 101.5 -99.5t152.5 -41.5t152.5 41.5t101.5 99.5q43 76 43 236v823h209v-879q0 -214 -127 -354q-148 -160 -379 -160t-379 160q-127 140 -127 354v879z" />
    <glyph glyph-name="V" unicode="V" horiz-adv-x="1228" 
d="M8 1366h225l381 -952l381 952h226l-607 -1454z" />
    <glyph glyph-name="W" unicode="W" horiz-adv-x="1925" 
d="M8 1366h225l361 -913l369 979l356 -979l373 913h225l-610 -1454l-357 969l-360 -969z" />
    <glyph glyph-name="X" unicode="X" horiz-adv-x="1118" 
d="M20 0l431 713l-377 653h233l266 -463l273 463h233l-393 -653l412 -713h-234l-299 522l-311 -522h-234z" />
    <glyph glyph-name="Y" unicode="Y" horiz-adv-x="1105" 
d="M449 0v590l-449 776h238l315 -547l315 547h238l-449 -776v-590h-208z" />
    <glyph glyph-name="Z" unicode="Z" horiz-adv-x="1134" 
d="M1073 1366l-672 -1169h656v-197h-996l672 1169h-561v197h901z" />
    <glyph glyph-name="bracketleft" unicode="[" horiz-adv-x="647" 
d="M553 1309h-172v-1487h172v-184h-373v1855h373v-184z" />
    <glyph glyph-name="backslash" unicode="\" horiz-adv-x="1400" 
d="M1401 -362l-164 -74l-1077 1929l164 74z" />
    <glyph glyph-name="bracketright" unicode="]" horiz-adv-x="647" 
d="M94 -178h172v1487h-172v184h373v-1855h-373v184z" />
    <glyph glyph-name="asciicircum" unicode="^" 
d="M512 1208l-266 -491h-213l350 649h258l350 -649h-213z" />
    <glyph glyph-name="underscore" unicode="_" horiz-adv-x="819" 
d="M0 -295v176h819v-176h-819z" />
    <glyph glyph-name="grave" unicode="`" 
d="M494 993l-320 295l184 94l246 -319z" />
    <glyph glyph-name="a" unicode="a" horiz-adv-x="1085" 
d="M758 762v100h200v-862h-200v90q-101 -117 -258 -117q-128 0 -225 65.5t-145 169t-48 224.5q0 103 33.5 189t91 143.5t134 89t161.5 31.5q161 0 256 -123zM526 705q-107 0 -173 -79.5t-66 -197.5q0 -115 66.5 -194.5t172.5 -79.5q102 0 173 71.5t71 200.5q0 134 -71 206.5
t-173 72.5z" />
    <glyph glyph-name="b" unicode="b" horiz-adv-x="1085" 
d="M328 1493v-731q95 123 256 123q85 0 161.5 -31.5t134 -89t91 -143.5t33.5 -189q0 -121 -48 -224.5t-145 -169t-225 -65.5q-157 0 -258 117v-90h-201v1493h201zM559 705q-102 0 -173 -72.5t-71 -206.5q0 -129 71 -200.5t173 -71.5q106 0 173 79.5t67 194.5
q0 118 -66.5 197.5t-173.5 79.5z" />
    <glyph glyph-name="c" unicode="c" horiz-adv-x="860" 
d="M795 823v-225q-109 107 -244 107q-115 0 -191 -76q-73 -73 -73 -199q0 -129 78 -207q72 -69 182 -69q66 0 132 27.5t116 82.5v-223q-107 -68 -263 -68q-206 0 -327 127q-123 127 -123 324q0 203 131 334q127 127 346 127q124 0 236 -62z" />
    <glyph glyph-name="d" unicode="d" horiz-adv-x="1085" 
d="M758 762v731h200v-1493h-200v90q-101 -117 -258 -117q-128 0 -225 65.5t-145 169t-48 224.5q0 103 33.5 189t91 143.5t134 89t161.5 31.5q161 0 256 -123zM526 705q-107 0 -173 -79.5t-66 -197.5q0 -115 66.5 -194.5t172.5 -79.5q102 0 173 71.5t71 200.5
q0 134 -71 206.5t-173 72.5z" />
    <glyph glyph-name="e" unicode="e" horiz-adv-x="987" 
d="M731 291l168 -94q-57 -102 -145 -158q-103 -66 -254 -66q-180 0 -291 111q-61 61 -94 147t-33 183q0 101 35 193.5t102 160.5q117 117 289 117q167 0 276 -113q121 -125 121 -364v-25h-618q3 -48 22.5 -95.5t50.5 -78.5q55 -55 154 -55q80 0 137 43q50 38 80 94zM301 547
h399q-12 71 -61 117q-53 49 -135 49q-86 0 -142 -56q-45 -42 -61 -110z" />
    <glyph glyph-name="f" unicode="f" horiz-adv-x="552" 
d="M565 678h-217v-678h-201v678h-86v184h86v299q0 180 84 271q80 84 205 84q69 0 129 -25v-199q-51 31 -96 31q-57 0 -88 -33q-33 -33 -33 -102v-326h217v-184z" />
    <glyph glyph-name="g" unicode="g" horiz-adv-x="1085" 
d="M758 768v94h200v-792q0 -169 -29 -274t-112 -175q-112 -92 -287 -92q-176 0 -282 106q-48 48 -82.5 120t-44.5 149h194q14 -82 64 -135q56 -60 156 -60q99 0 157 58q23 22 38 49.5t20 60.5t6.5 53.5t1.5 53.5v112q-97 -123 -262 -123q-173 0 -285 117q-129 136 -129 342
q0 207 127 334q116 119 293 119q158 0 256 -117zM526 705q-90 0 -151 -58q-40 -37 -64 -94.5t-24 -124.5q0 -65 23 -123.5t63 -93.5q64 -57 153 -57q102 0 168 69q76 81 76 203q0 138 -82 217q-62 62 -162 62z" />
    <glyph glyph-name="h" unicode="h" horiz-adv-x="995" 
d="M127 0v1493h201v-705q95 97 231 97q170 0 254 -117q55 -81 55 -240v-528h-200v510q0 34 -1.5 53.5t-10.5 47.5t-27 48q-42 46 -113 46q-48 0 -86.5 -20.5t-60.5 -51.5q-41 -58 -41 -217v-416h-201z" />
    <glyph glyph-name="i" unicode="i" horiz-adv-x="454" 
d="M127 862h201v-862h-201v862zM98 1219q0 55 37 92t92 37t92 -37t37 -92t-37 -92t-92 -37t-92 37t-37 92z" />
    <glyph glyph-name="j" unicode="j" horiz-adv-x="454" 
d="M127 862h201v-1331h-201v1331zM98 1219q0 55 37 92t92 37t92 -37t37 -92t-37 -92t-92 -37t-92 37t-37 92z" />
    <glyph glyph-name="k" unicode="k" horiz-adv-x="905" 
d="M127 1493h201v-920l280 289h266l-370 -358l397 -504h-254l-282 369l-37 -37v-332h-201v1493z" />
    <glyph glyph-name="l" unicode="l" horiz-adv-x="454" 
d="M127 1493h201v-1493h-201v1493z" />
    <glyph glyph-name="m" unicode="m" horiz-adv-x="1437" 
d="M127 0v862h201v-80q85 103 213 103q69 0 128 -32.5t95 -94.5q90 127 256 127q79 0 144.5 -35.5t101.5 -99.5q45 -82 45 -218v-532h-201v475q0 113 -18 154q-28 76 -115 76q-72 0 -119 -64q-39 -55 -39 -197v-444h-201v475q0 113 -18 154q-28 76 -115 76q-71 0 -118 -64
q-39 -55 -39 -197v-444h-201z" />
    <glyph glyph-name="n" unicode="n" horiz-adv-x="993" 
d="M125 0v862h201v-80q92 103 233 103q169 0 254 -117q53 -75 53 -240v-528h-200v479q0 53 -6 92.5t-18.5 63.5t-25.5 39t-34 21.5t-35.5 8t-38.5 1.5q-33 0 -54 -3t-48 -19t-42.5 -45.5t-26.5 -86t-11 -137.5v-414h-201z" />
    <glyph glyph-name="o" unicode="o" horiz-adv-x="1085" 
d="M543 885q197 0 329 -128.5t132 -326.5q0 -197 -132.5 -327t-328.5 -130t-328.5 130t-132.5 327q0 198 132 326.5t329 128.5zM543 154q118 0 187 74.5t69 199.5q0 71 -22 126t-59 87t-81.5 48t-93.5 16t-93.5 -16t-81.5 -48t-59 -87t-22 -126q0 -125 69 -199.5t187 -74.5z
" />
    <glyph glyph-name="p" unicode="p" horiz-adv-x="1085" 
d="M328 100v-569h-201v1331h201v-94q98 117 256 117q176 0 298 -124.5t122 -324.5q0 -105 -36.5 -194.5t-96 -147t-133.5 -89.5t-152 -32q-32 0 -68.5 7.5t-92.5 38t-97 81.5zM559 705q-102 0 -173 -72.5t-71 -206.5q0 -129 71 -200.5t173 -71.5q106 0 173 79.5t67 194.5
q0 118 -66.5 197.5t-173.5 79.5z" />
    <glyph glyph-name="q" unicode="q" horiz-adv-x="1085" 
d="M758 768v94h200v-1331h-200v565q-99 -123 -258 -123q-128 0 -225 65.5t-145 168.5t-48 225q0 103 33.5 189t91 143.5t134 89t161.5 31.5q158 0 256 -117zM526 705q-107 0 -173 -79.5t-66 -197.5q0 -115 66.5 -194.5t172.5 -79.5q102 0 173 71.5t71 200.5q0 134 -71 206.5
t-173 72.5z" />
    <glyph glyph-name="r" unicode="r" horiz-adv-x="679" 
d="M127 0v862h201v-78q41 48 84 72q49 29 123 29q89 0 157 -41l-82 -182q-47 30 -102 30q-80 0 -125 -47q-19 -21 -31.5 -46.5t-17 -55.5t-5.5 -48.5t-1 -48.5v-446h-201z" />
    <glyph glyph-name="s" unicode="s" horiz-adv-x="737" 
d="M653 733l-149 -98q-45 74 -123 74q-39 0 -62 -23q-18 -18 -18 -45q0 -30 29 -49q5 -3 12 -6.5t22 -11.5t33 -17l103 -51q88 -45 121 -80q63 -63 63 -160q0 -114 -76 -196q-89 -97 -241 -97q-114 0 -187 56q-78 59 -110 157l163 78q20 -57 48 -82q32 -32 88 -32
q54 0 82 28t28 68q0 36 -26 65q-30 30 -86 54l-74 34q-84 39 -119 74q-61 58 -61 145q0 111 71 185q78 82 211 82q93 0 160 -45q58 -36 98 -107z" />
    <glyph glyph-name="t" unicode="t" horiz-adv-x="495" 
d="M487 678h-153v-678h-201v678h-84v184h84v316h201v-316h153v-184z" />
    <glyph glyph-name="u" unicode="u" horiz-adv-x="991" 
d="M127 862h201v-493q0 -108 37 -156q46 -59 131 -59t131 59q37 48 37 156v493h200v-500q0 -95 -18.5 -161t-73.5 -121q-107 -107 -280 -107q-169 0 -273 107q-55 55 -73.5 121t-18.5 161v500z" />
    <glyph glyph-name="v" unicode="v" horiz-adv-x="917" 
d="M12 862h226l221 -491l221 491h225l-446 -923z" />
    <glyph glyph-name="w" unicode="w" horiz-adv-x="1404" 
d="M12 862h226l223 -493l241 567l242 -567l223 493h226l-449 -923l-242 550l-241 -550z" />
    <glyph glyph-name="x" unicode="x" horiz-adv-x="1015" 
d="M12 0l381 467l-307 395h238l190 -252l193 252h245l-317 -395l369 -467h-242l-248 322l-256 -322h-246z" />
    <glyph glyph-name="y" unicode="y" horiz-adv-x="987" 
d="M63 -469l318 604l-369 727h242l246 -504l250 504h225l-686 -1331h-226z" />
    <glyph glyph-name="z" unicode="z" horiz-adv-x="983" 
d="M967 862l-555 -678h512v-184h-908l559 678h-440v184h832z" />
    <glyph glyph-name="braceleft" unicode="{" 
d="M590 1157v-344q0 -97 -25 -151q-15 -30 -43 -56.5t-59 -40.5q70 -31 102 -96q25 -54 25 -152v-344q0 -96 35 -131q34 -32 145 -32h16v-172h-96q-147 0 -211 49q-90 67 -90 235v391q0 150 -115 170v164q115 20 115 170v391q0 168 90 236q64 49 211 49h96v-172h-16
q-110 0 -145 -33q-35 -35 -35 -131z" />
    <glyph glyph-name="bar" unicode="|" 
d="M414 -512v2048h196v-2048h-196z" />
    <glyph glyph-name="braceright" unicode="}" 
d="M471 813v344q0 96 -35 131q-35 33 -145 33h-17v172h97q147 0 211 -49q90 -68 90 -236v-391q0 -151 114 -170v-164q-114 -19 -114 -170v-391q0 -168 -90 -235q-64 -49 -211 -49h-97v172h17q111 0 145 32q35 35 35 131v344q0 98 25 152q32 65 102 96q-31 14 -59 40.5
t-43 56.5q-25 54 -25 151z" />
    <glyph glyph-name="asciitilde" unicode="~" 
d="M891 739l117 -67q-56 -128 -136 -191q-73 -57 -170 -57q-50 0 -95 13.5t-134 51.5q-127 54 -178 54q-64 0 -105 -45q-35 -35 -59 -92l-115 73q40 100 103 170q76 86 188 86q78 0 225 -63q3 -2 28 -12.5t32.5 -14t29 -11.5t34.5 -11t31.5 -6t35.5 -3q57 0 100 37t68 88z
" />
    <glyph glyph-name="uni00A0" unicode="&#xa0;" horiz-adv-x="477" 
 />
    <glyph glyph-name="exclamdown" unicode="&#xa1;" horiz-adv-x="516" 
d="M158 557h200v-1028h-200v1028zM381 797q0 -51 -36 -87t-87 -36t-87 36t-36 87t36 87t87 36t87 -36t36 -87z" />
    <glyph glyph-name="cent" unicode="&#xa2;" horiz-adv-x="1163" 
d="M897 1079v-223q-98 105 -250 105q-108 0 -178 -70q-39 -37 -59.5 -92t-20.5 -113q0 -130 78 -205q74 -71 188 -71q67 0 130.5 28t111.5 82v-223q-90 -60 -192 -66v-204h-152v211q-147 23 -246 122q-123 123 -123 324q0 209 140 340q100 94 229 111v206h152v-202
q100 -8 192 -60z" />
    <glyph glyph-name="sterling" unicode="&#xa3;" horiz-adv-x="1163" 
d="M1057 909h-201v9q0 62 -18 120.5t-54 94.5q-63 63 -163 63q-111 0 -177 -63q-67 -67 -67 -166q0 -93 104 -291h267v-148h-207q24 -72 24 -133q0 -70 -28 -133l108 -39q8 -3 34 -12t42 -14t39 -10t41 -5q55 0 90 40t51 89l168 -98q-48 -98 -104 -154q-77 -77 -199 -77
q-23 0 -47 3t-41 6t-42.5 10t-35 10t-35.5 12t-28 10q-153 57 -207 57q-42 0 -80.5 -28.5t-59.5 -92.5l-178 90q24 52 62.5 100.5t81.5 78.5q61 41 129 45q30 61 30 127q0 71 -30 118h-234v148h160q-84 177 -84 289q0 178 117 295q133 129 338 129q194 0 309 -115
q125 -125 125 -354v-11z" />
    <glyph glyph-name="currency" unicode="&#xa4;" horiz-adv-x="1368" 
d="M188 1352l203 -203q121 98 293 98t293 -98l203 203l110 -111l-203 -203q93 -120 93 -286q0 -167 -93 -287l203 -203l-110 -110l-203 202q-121 -98 -293 -98t-293 98l-203 -202l-110 110l203 203q-93 120 -93 287q0 166 93 286l-203 203zM684 432q133 0 222 90.5t89 229.5
t-89 229t-222 90t-222 -90t-89 -229t89 -229.5t222 -90.5z" />
    <glyph glyph-name="yen" unicode="&#xa5;" horiz-adv-x="1163" 
d="M1071 772h-293l-84 -151h377v-144h-393v-477h-193v477h-393v144h377l-84 151h-293v143h213l-248 451h226l299 -547l299 547h225l-248 -451h213v-143z" />
    <glyph glyph-name="brokenbar" unicode="&#xa6;" 
d="M414 799v737h196v-737h-196zM414 -512v737h196v-737h-196z" />
    <glyph glyph-name="section" unicode="&#xa7;" horiz-adv-x="1163" 
d="M991 1075h-192q0 111 -35 164q-23 35 -63 56.5t-89 21.5q-91 0 -145 -57q-21 -23 -35 -59.5t-14 -67.5q0 -64 41 -105q35 -35 153 -76q112 -37 176 -66.5t109 -74.5q94 -90 94 -236q0 -117 -49 -192q-48 -76 -143 -125q47 -25 79.5 -60t46.5 -73t19.5 -67.5t5.5 -59.5
q0 -152 -98 -250q-110 -110 -287 -110q-176 0 -284 108q-63 63 -86 143.5t-23 147.5h193q0 -48 14 -93.5t39 -72.5q50 -57 147 -57q84 0 135 45q54 43 54 121q0 80 -64 135q-75 65 -153 75q-43 6 -136.5 54t-126.5 82q-90 92 -90 241q0 114 56 195q51 76 141 117
q-67 33 -113 98q-47 67 -47 156q0 148 96 247q108 113 293 113q176 0 281 -107q44 -45 68 -104.5t28 -99.5t4 -97v-10zM588 772q-87 0 -142 -55q-57 -57 -57 -146q0 -88 55 -143q57 -57 144 -57q84 0 143 59q55 55 55 141t-57 146q-55 55 -141 55z" />
    <glyph glyph-name="dieresis" unicode="&#xa8;" 
d="M201 1165q0 54 36.5 90.5t90.5 36.5t90.5 -36.5t36.5 -90.5t-36.5 -90.5t-90.5 -36.5t-90.5 36.5t-36.5 90.5zM569 1165q0 54 36.5 90.5t90.5 36.5t90.5 -36.5t36.5 -90.5t-36.5 -90.5t-90.5 -36.5t-90.5 36.5t-36.5 90.5z" />
    <glyph glyph-name="copyright" unicode="&#xa9;" horiz-adv-x="1552" 
d="M68 682q0 202 91 364.5t253 254.5t364 92q151 0 283 -54t225.5 -148t147 -226t53.5 -283t-53.5 -283t-147 -226t-225.5 -148t-283 -54q-202 0 -364 92t-253 254.5t-91 364.5zM1370 682q0 169 -75.5 307.5t-212 219.5t-306.5 81t-306.5 -81t-212 -219.5t-75.5 -307.5
t76 -308t212.5 -219.5t305.5 -80.5t305.5 80.5t212.5 219.5t76 308zM1049 1044v-178q-52 51 -116.5 77t-125.5 26q-51 0 -100 -18t-91 -52t-68 -91t-26 -128q0 -125 80 -204t207 -79t240 105v-180q-115 -64 -242 -64q-189 0 -314.5 120.5t-125.5 301.5q0 187 127.5 307.5
t320.5 120.5q124 0 234 -64z" />
    <glyph glyph-name="ordfeminine" unicode="&#xaa;" horiz-adv-x="761" 
d="M518 1294v58h135v-545h-135v51q-61 -65 -162 -65q-121 0 -192 71q-80 80 -80 211t82 217q71 74 184 74q111 0 168 -72zM373 1249q-63 0 -103 -37q-51 -46 -51 -135q0 -80 45 -125t109 -45q66 0 110 47q41 43 41 123q0 89 -49 135q-42 37 -102 37zM106 702h547v-106h-547
v106z" />
    <glyph glyph-name="guillemotleft" unicode="&#xab;" horiz-adv-x="1038" 
d="M287 449l260 -338l-133 -97l-332 435l332 434l133 -97zM668 449l260 -338l-133 -97l-332 435l332 434l133 -97z" />
    <glyph glyph-name="logicalnot" unicode="&#xac;" 
d="M956 0h-200v367h-688v180h888v-547z" />
    <glyph glyph-name="uni00AD" unicode="&#xad;" horiz-adv-x="696" 
d="M102 332v209h492v-209h-492z" />
    <glyph glyph-name="registered" unicode="&#xae;" horiz-adv-x="1552" 
d="M68 682q0 202 91 364.5t253 254.5t364 92q151 0 283 -54t225.5 -148t147 -226t53.5 -283t-53.5 -283t-147 -226t-225.5 -148t-283 -54q-202 0 -364 92t-253 254.5t-91 364.5zM1370 682q0 169 -75.5 307.5t-212 219.5t-306.5 81t-306.5 -81t-212 -219.5t-75.5 -307.5
t76 -308t212.5 -219.5t305.5 -80.5t305.5 80.5t212.5 219.5t76 308zM1122 313h-178l-237 303v-303h-146v766h203q69 0 121.5 -17t80.5 -41.5t45.5 -58t22 -59.5t4.5 -53q0 -83 -46 -139.5t-124 -77.5zM707 950v-213h28q78 0 119 29t41 80q0 104 -156 104h-32z" />
    <glyph glyph-name="macron" unicode="&#xaf;" 
d="M174 1040v160h676v-160h-676z" />
    <glyph glyph-name="degree" unicode="&#xb0;" 
d="M213 1069q0 125 86 211t213 86t213 -86t86 -211t-86 -211t-213 -86t-213 86t-86 211zM340 1069q0 -76 50 -127t122 -51t122 51t50 127t-50 127t-122 51t-122 -51t-50 -127z" />
    <glyph glyph-name="plusminus" unicode="&#xb1;" 
d="M68 717v184h348v334h192v-334h348v-184h-348v-334h-192v334h-348zM68 123v184h888v-184h-888z" />
    <glyph glyph-name="twosuperior" unicode="&#xb2;" horiz-adv-x="757" 
d="M643 682v-135h-594l299 332q69 78 103 127q43 60 43 116t-36 89.5t-93 33.5q-67 0 -105 -44.5t-45 -104.5h-143q7 119 75 196q79 88 211 88t207.5 -74t75.5 -180q0 -75 -61 -174q-9 -14 -17.5 -26.5t-18 -25t-15 -20t-16.5 -20.5t-14 -16t-16.5 -18t-15.5 -17l-113 -127
h289z" />
    <glyph glyph-name="threesuperior" unicode="&#xb3;" horiz-adv-x="757" 
d="M236 1133h-144q7 85 47 143q69 104 226 104q129 0 194.5 -66.5t65.5 -162.5q0 -126 -107 -172q11 -4 22 -9.5t30 -20.5t33.5 -34t25 -51t10.5 -71q0 -109 -74.5 -185t-214.5 -76q-194 0 -262 160q-19 50 -22 99h143q4 -43 23.5 -70.5t47 -37.5t42 -12.5t28.5 -2.5
q69 0 105.5 36.5t36.5 90.5q0 17 -4.5 33.5t-17.5 37.5t-44 34t-76 13h-49v136h49q129 0 129 96q0 49 -32 74.5t-87 25.5q-57 0 -89 -30.5t-35 -81.5z" />
    <glyph glyph-name="acute" unicode="&#xb4;" 
d="M666 1382l184 -94l-320 -295l-110 70z" />
    <glyph glyph-name="mu" unicode="&#xb5;" horiz-adv-x="1073" 
d="M328 -469h-201v1331h201v-420q0 -120 34 -186q29 -54 76.5 -77t96.5 -23q17 0 35 3.5t43 13t49.5 31.5t42.5 54q40 68 40 197v407h201v-862h-201v150q-25 -80 -83.5 -127.5t-133.5 -47.5q-67 0 -119 39t-81 103v-586z" />
    <glyph glyph-name="mu" unicode="&#x3bc;" horiz-adv-x="1073" 
d="M328 -469h-201v1331h201v-420q0 -120 34 -186q29 -54 76.5 -77t96.5 -23q17 0 35 3.5t43 13t49.5 31.5t42.5 54q40 68 40 197v407h201v-862h-201v150q-25 -80 -83.5 -127.5t-133.5 -47.5q-67 0 -119 39t-81 103v-586z" />
    <glyph glyph-name="paragraph" unicode="&#xb6;" horiz-adv-x="1261" 
d="M616 -195h-170v844h-26q-86 0 -159.5 30t-121.5 79q-90 90 -90 243q0 83 30.5 154t84.5 117q111 94 344 94h608v-156h-135v-1405h-168v1405h-197v-1405z" />
    <glyph glyph-name="periodcentered" unicode="&#xb7;" horiz-adv-x="409" 
d="M45 696q0 68 46.5 114t113.5 46t113.5 -46t46.5 -114q0 -67 -46 -113t-114 -46t-114 46t-46 113z" />
    <glyph glyph-name="cedilla" unicode="&#xb8;" 
d="M528 -109l168 -65l-209 -275l-131 66z" />
    <glyph glyph-name="onesuperior" unicode="&#xb9;" horiz-adv-x="757" 
d="M332 547v684h-160l86 135h225v-819h-151z" />
    <glyph glyph-name="ordmasculine" unicode="&#xba;" horiz-adv-x="770" 
d="M385 791q-136 0 -219 83q-80 80 -80 209q0 125 84 205q82 78 215 78q129 0 215 -78q84 -78 84 -209q0 -125 -80 -205q-87 -83 -219 -83zM385 1251q-68 0 -111 -43q-51 -51 -51 -129q0 -75 47 -125q44 -47 115 -47q68 0 113 45q49 52 49 125q0 80 -51 131q-46 43 -111 43z
M106 702h558v-106h-558v106z" />
    <glyph glyph-name="guillemotright" unicode="&#xbb;" horiz-adv-x="1038" 
d="M752 449l-260 337l133 97l331 -434l-331 -435l-133 97zM371 449l-260 337l133 97l331 -434l-331 -435l-133 97z" />
    <glyph glyph-name="onequarter" unicode="&#xbc;" horiz-adv-x="1638" 
d="M332 547v684h-160l86 135h221v-819h-147zM461 35l782 1354l98 -58l-782 -1354zM1485 881v-590h88v-135h-88v-156h-148v156h-428zM1178 283h159v211z" />
    <glyph glyph-name="onehalf" unicode="&#xbd;" horiz-adv-x="1638" 
d="M332 547v684h-160l86 135h221v-819h-147zM338 35l782 1354l99 -58l-783 -1354zM1524 135v-135h-594l299 332q64 73 102 127q43 60 43 116t-36 89.5t-93 33.5q-66 0 -104 -44.5t-45 -104.5h-144q7 118 76 196q80 89 211 89q132 0 207.5 -74t75.5 -180q0 -73 -62 -174
q-42 -66 -112 -144l-113 -127h289z" />
    <glyph glyph-name="threequarters" unicode="&#xbe;" horiz-adv-x="1638" 
d="M66 791h143q3 -57 39 -89q37 -34 102 -34q67 0 107 37q35 31 35 90q0 55 -31 82q-36 36 -111 36h-49v136h37q26 0 38.5 0.5t34.5 7.5t38 20q30 23 30 68q0 40 -24 67q-31 33 -95 33q-57 0 -88 -31q-29 -26 -36 -81h-144q3 107 72 176q71 71 201 71q129 0 198 -69
q64 -64 64 -160q0 -61 -27 -104q-28 -48 -82 -68q55 -20 82 -57q39 -48 39 -129q0 -105 -66 -177q-79 -84 -223 -84q-138 0 -213 82q-65 71 -71 177zM461 35l782 1354l98 -58l-782 -1354zM1178 283h159v211zM1485 881v-590h88v-135h-88v-156h-148v156h-428z" />
    <glyph glyph-name="questiondown" unicode="&#xbf;" horiz-adv-x="888" 
d="M565 -98h209q4 -47 4 -70q0 -154 -92 -242q-90 -86 -240 -86q-153 0 -247 90q-88 85 -88 230q0 166 120 252q44 30 144 71l61 25q60 23 82 45q31 31 31 74q0 52 -35 80q-24 20 -61 20q-51 0 -78 -31q-33 -36 -33 -108h-201q0 143 90 237q86 86 224 86q128 0 215 -83
q84 -84 84 -218q0 -103 -66 -176q-47 -51 -178 -104q-7 -3 -31 -11.5t-34.5 -13t-28.5 -12.5t-31.5 -16.5t-24.5 -18.5q-45 -42 -45 -102q0 -61 35 -96t94 -35q63 0 95 37q34 34 34 108q0 28 -8 68zM565 797q0 -51 -36 -87t-87 -36t-87 36t-36 87t36 87t87 36t87 -36t36 -87
z" />
    <glyph glyph-name="Agrave" unicode="&#xc0;" horiz-adv-x="1343" 
d="M1110 0l-143 330h-584l-150 -330h-225l680 1446l647 -1446h-225zM469 526h414l-203 463zM705 1489l-361 244l176 122l283 -284z" />
    <glyph glyph-name="Aacute" unicode="&#xc1;" horiz-adv-x="1343" 
d="M1110 0l-143 330h-584l-150 -330h-225l680 1446l647 -1446h-225zM469 526h414l-203 463zM639 1489l-98 82l282 284l176 -122z" />
    <glyph glyph-name="Acircumflex" unicode="&#xc2;" horiz-adv-x="1343" 
d="M1110 0l-143 330h-584l-150 -330h-225l680 1446l647 -1446h-225zM469 526h414l-203 463zM676 1663l-203 -168l-135 115l338 274l338 -274l-135 -115z" />
    <glyph glyph-name="Atilde" unicode="&#xc3;" horiz-adv-x="1343" 
d="M1110 0l-143 330h-584l-150 -330h-225l680 1446l647 -1446h-225zM469 526h414l-203 463zM926 1767l118 -94q-84 -172 -237 -172q-54 0 -113 27q-20 9 -35 17t-21 11t-13.5 6t-16.5 7q-52 18 -76 18q-72 0 -104 -86l-121 84q37 67 86 111q64 55 144 55q44 0 100 -18
q67 -29 94 -43q60 -29 84 -29q36 0 66.5 27t44.5 79z" />
    <glyph glyph-name="Adieresis" unicode="&#xc4;" horiz-adv-x="1343" 
d="M1110 0l-143 330h-584l-150 -330h-225l680 1446l647 -1446h-225zM469 526h414l-203 463zM348 1628q0 54 36.5 90.5t90.5 36.5t90.5 -36.5t36.5 -90.5t-36.5 -90.5t-90.5 -36.5t-90.5 36.5t-36.5 90.5zM750 1628q0 54 36.5 90.5t90.5 36.5t90.5 -36.5t36.5 -90.5
t-36.5 -90.5t-90.5 -36.5t-90.5 36.5t-36.5 90.5z" />
    <glyph glyph-name="Aring" unicode="&#xc5;" horiz-adv-x="1343" 
d="M1110 0l-143 330h-584l-150 -330h-225l680 1446l647 -1446h-225zM469 526h414l-203 463zM485 1686q0 83 59 140.5t140 57.5q83 0 141 -57.5t58 -140.5q0 -81 -57.5 -140t-141.5 -59q-82 0 -140.5 58.5t-58.5 140.5zM596 1686q0 -37 25.5 -63t62.5 -26t62.5 26t25.5 63
t-25.5 62.5t-62.5 25.5t-62.5 -25.5t-25.5 -62.5z" />
    <glyph glyph-name="AE" unicode="&#xc6;" horiz-adv-x="1896" 
d="M1118 0l-143 326h-580l-149 -326h-226l656 1366h604l86 -197h-543l144 -325h528l86 -197h-528l194 -450h543l86 -197h-758zM487 522h406l-195 445z" />
    <glyph glyph-name="Ccedilla" unicode="&#xc7;" horiz-adv-x="1269" 
d="M1176 1292v-245q-168 151 -371 151q-221 0 -359.5 -146.5t-138.5 -373.5q0 -218 141.5 -365t358.5 -147q202 0 369 158v-248q-172 -103 -375 -103q-285 0 -484 189q-219 205 -219 516q0 326 219 534q190 179 494 179q210 0 365 -99zM717 -109l176 -77l-229 -273l-132 66z
" />
    <glyph glyph-name="Egrave" unicode="&#xc8;" 
d="M918 1366v-197h-545v-346h528v-196h-528v-430h545v-197h-754v1366h754zM586 1489l-361 244l176 122l283 -284z" />
    <glyph glyph-name="Eacute" unicode="&#xc9;" 
d="M918 1366v-197h-545v-346h528v-196h-528v-430h545v-197h-754v1366h754zM479 1489l-98 82l283 284l176 -122z" />
    <glyph glyph-name="Ecircumflex" unicode="&#xca;" 
d="M918 1366v-197h-545v-346h528v-196h-528v-430h545v-197h-754v1366h754zM553 1663l-203 -168l-135 115l338 274l338 -274l-135 -115z" />
    <glyph glyph-name="Edieresis" unicode="&#xcb;" 
d="M918 1366v-197h-545v-346h528v-196h-528v-430h545v-197h-754v1366h754zM225 1628q0 54 36.5 90.5t90.5 36.5t90.5 -36.5t36.5 -90.5t-36.5 -90.5t-90.5 -36.5t-90.5 36.5t-36.5 90.5zM627 1628q0 54 36.5 90.5t90.5 36.5t90.5 -36.5t36.5 -90.5t-36.5 -90.5t-90.5 -36.5
t-90.5 36.5t-36.5 90.5z" />
    <glyph glyph-name="Igrave" unicode="&#xcc;" horiz-adv-x="536" 
d="M164 1366h209v-1366h-209v1366zM264 1460l-284 330l200 72l201 -346z" />
    <glyph glyph-name="Iacute" unicode="&#xcd;" horiz-adv-x="536" 
d="M164 1366h209v-1366h-209v1366zM356 1862l201 -72l-285 -330l-116 56z" />
    <glyph glyph-name="Icircumflex" unicode="&#xce;" horiz-adv-x="536" 
d="M164 1366h209v-1366h-209v1366zM268 1663l-162 -158l-120 101l282 268l283 -268l-121 -101z" />
    <glyph glyph-name="Idieresis" unicode="&#xcf;" horiz-adv-x="536" 
d="M164 1366h209v-1366h-209v1366zM29 1628q0 46 30.5 80.5t71.5 34.5q40 0 72.5 -35t32.5 -80t-32.5 -80t-72.5 -35q-41 0 -71.5 34.5t-30.5 80.5zM303 1628q0 46 31 80.5t72 34.5t71.5 -34.5t30.5 -80.5t-30.5 -80.5t-71.5 -34.5t-72 34.5t-31 80.5z" />
    <glyph glyph-name="Eth" unicode="&#xd0;" horiz-adv-x="1318" 
d="M164 1366h287q162 0 282 -27.5t225 -105.5q125 -94 194 -238t69 -313q0 -158 -64.5 -301t-210.5 -250q-116 -85 -221 -108t-279 -23h-282v664h-164v176h164v526zM373 1169v-329h286v-176h-286v-467h90q232 0 362 96q80 61 133.5 160.5t53.5 228.5q0 128 -52.5 231.5
t-132.5 161.5q-130 94 -364 94h-90z" />
    <glyph glyph-name="Ntilde" unicode="&#xd1;" horiz-adv-x="1527" 
d="M373 0h-209v1458l991 -1038v946h209v-1450l-991 1038v-954zM1028 1767l119 -94q-84 -172 -238 -172q-53 0 -112 27q-20 9 -35 17t-21 11t-13.5 6t-16.5 7q-52 18 -76 18q-73 0 -105 -86l-120 84q37 67 86 111q64 55 143 55q44 0 100 -18q72 -31 95 -43q60 -29 84 -29
q36 0 66 27t44 79z" />
    <glyph glyph-name="Ograve" unicode="&#xd2;" horiz-adv-x="1617" 
d="M809 1391q151 0 283.5 -54.5t226 -149t147.5 -226t54 -279.5t-54 -279.5t-147.5 -226t-226 -149t-283.5 -54.5t-283.5 54.5t-226 149t-147.5 226t-54 279.5t54 279.5t147.5 226t226 149t283.5 54.5zM809 166q220 0 361 144.5t141 371.5t-141 371.5t-361 144.5
t-361 -144.5t-141 -371.5t141 -371.5t361 -144.5zM893 1489l-361 244l177 122l282 -284z" />
    <glyph glyph-name="Oacute" unicode="&#xd3;" horiz-adv-x="1617" 
d="M809 1391q151 0 283.5 -54.5t226 -149t147.5 -226t54 -279.5t-54 -279.5t-147.5 -226t-226 -149t-283.5 -54.5t-283.5 54.5t-226 149t-147.5 226t-54 279.5t54 279.5t147.5 226t226 149t283.5 54.5zM809 166q220 0 361 144.5t141 371.5t-141 371.5t-361 144.5
t-361 -144.5t-141 -371.5t141 -371.5t361 -144.5zM725 1489l-98 82l282 284l176 -122z" />
    <glyph glyph-name="Ocircumflex" unicode="&#xd4;" horiz-adv-x="1617" 
d="M809 1391q151 0 283.5 -54.5t226 -149t147.5 -226t54 -279.5t-54 -279.5t-147.5 -226t-226 -149t-283.5 -54.5t-283.5 54.5t-226 149t-147.5 226t-54 279.5t54 279.5t147.5 226t226 149t283.5 54.5zM809 166q220 0 361 144.5t141 371.5t-141 371.5t-361 144.5
t-361 -144.5t-141 -371.5t141 -371.5t361 -144.5zM809 1663l-203 -168l-135 115l338 274l338 -274l-135 -115z" />
    <glyph glyph-name="Otilde" unicode="&#xd5;" horiz-adv-x="1617" 
d="M809 1391q151 0 283.5 -54.5t226 -149t147.5 -226t54 -279.5t-54 -279.5t-147.5 -226t-226 -149t-283.5 -54.5t-283.5 54.5t-226 149t-147.5 226t-54 279.5t54 279.5t147.5 226t226 149t283.5 54.5zM809 166q220 0 361 144.5t141 371.5t-141 371.5t-361 144.5
t-361 -144.5t-141 -371.5t141 -371.5t361 -144.5zM1059 1767l119 -94q-84 -172 -238 -172q-54 0 -113 27q-20 9 -35 17t-21 11t-13.5 6t-16.5 7q-52 18 -75 18q-73 0 -105 -86l-121 84q37 67 86 111q64 55 144 55q44 0 100 -18q67 -29 94 -43q60 -29 84 -29q36 0 66.5 27
t44.5 79z" />
    <glyph glyph-name="Odieresis" unicode="&#xd6;" horiz-adv-x="1617" 
d="M809 1391q151 0 283.5 -54.5t226 -149t147.5 -226t54 -279.5t-54 -279.5t-147.5 -226t-226 -149t-283.5 -54.5t-283.5 54.5t-226 149t-147.5 226t-54 279.5t54 279.5t147.5 226t226 149t283.5 54.5zM809 166q220 0 361 144.5t141 371.5t-141 371.5t-361 144.5
t-361 -144.5t-141 -371.5t141 -371.5t361 -144.5zM481 1628q0 54 36.5 90.5t90.5 36.5t90.5 -36.5t36.5 -90.5t-36.5 -90.5t-90.5 -36.5t-90.5 36.5t-36.5 90.5zM883 1628q0 54 36.5 90.5t90.5 36.5t90.5 -36.5t36.5 -90.5t-36.5 -90.5t-90.5 -36.5t-90.5 36.5t-36.5 90.5z
" />
    <glyph glyph-name="multiply" unicode="&#xd7;" 
d="M90 395l291 293l-291 293l129 129l293 -291l293 291l129 -129l-291 -293l291 -293l-129 -129l-293 291l-293 -291z" />
    <glyph glyph-name="Oslash" unicode="&#xd8;" horiz-adv-x="1617" 
d="M47 55l193 191q-142 194 -142 436q0 148 54 279.5t148 226t226.5 149t282.5 54.5q255 0 438 -142l191 193l116 -117l-190 -192q156 -187 156 -451q0 -148 -54 -279.5t-147.5 -226t-226 -149t-283.5 -54.5q-268 0 -455 154l-190 -188zM1217 999l-715 -733
q128 -100 307 -100q220 0 361 144.5t141 371.5q0 186 -94 317zM389 385l709 727q-121 86 -289 86q-220 0 -361 -144.5t-141 -371.5q0 -181 82 -297z" />
    <glyph glyph-name="Ugrave" unicode="&#xd9;" horiz-adv-x="1339" 
d="M164 1366h209v-823q0 -160 43 -236q34 -58 101.5 -99.5t152.5 -41.5t152.5 41.5t101.5 99.5q43 76 43 236v823h209v-879q0 -214 -127 -354q-148 -160 -379 -160t-379 160q-127 140 -127 354v879zM702 1489l-360 244l176 122l283 -284z" />
    <glyph glyph-name="Uacute" unicode="&#xda;" horiz-adv-x="1339" 
d="M164 1366h209v-823q0 -160 43 -236q34 -58 101.5 -99.5t152.5 -41.5t152.5 41.5t101.5 99.5q43 76 43 236v823h209v-879q0 -214 -127 -354q-148 -160 -379 -160t-379 160q-127 140 -127 354v879zM637 1489l-98 82l282 284l176 -122z" />
    <glyph glyph-name="Ucircumflex" unicode="&#xdb;" horiz-adv-x="1339" 
d="M164 1366h209v-823q0 -160 43 -236q34 -58 101.5 -99.5t152.5 -41.5t152.5 41.5t101.5 99.5q43 76 43 236v823h209v-879q0 -214 -127 -354q-148 -160 -379 -160t-379 160q-127 140 -127 354v879zM670 1663l-203 -168l-135 115l338 274l338 -274l-136 -115z" />
    <glyph glyph-name="Udieresis" unicode="&#xdc;" horiz-adv-x="1339" 
d="M164 1366h209v-823q0 -160 43 -236q34 -58 101.5 -99.5t152.5 -41.5t152.5 41.5t101.5 99.5q43 76 43 236v823h209v-879q0 -214 -127 -354q-148 -160 -379 -160t-379 160q-127 140 -127 354v879zM342 1628q0 54 36.5 90.5t90.5 36.5t90.5 -36.5t36.5 -90.5t-36.5 -90.5
t-90.5 -36.5t-90.5 36.5t-36.5 90.5zM743 1628q0 54 36.5 90.5t90.5 36.5t90.5 -36.5t36.5 -90.5t-36.5 -90.5t-90.5 -36.5t-90.5 36.5t-36.5 90.5z" />
    <glyph glyph-name="Yacute" unicode="&#xdd;" horiz-adv-x="1105" 
d="M449 0v590l-449 776h238l315 -547l315 547h238l-449 -776v-590h-208zM520 1489l-98 82l283 284l176 -122z" />
    <glyph glyph-name="Thorn" unicode="&#xde;" horiz-adv-x="983" 
d="M164 1366h209v-205h92q189 0 299 -74q83 -55 126.5 -144t43.5 -187q0 -186 -133 -299q-127 -107 -334 -107h-94v-350h-209v1366zM373 969v-426h94q131 0 198.5 58t67.5 157q0 27 -4.5 51.5t-21.5 55t-44.5 52.5t-78.5 37t-119 15h-92z" />
    <glyph glyph-name="germandbls" unicode="&#xdf;" horiz-adv-x="1163" 
d="M360 0h-200v684h-148v178h148v217q0 182 84 295q107 144 321 144q188 0 301 -113q105 -105 105 -270q0 -106 -47 -177q-36 -54 -99 -96q123 -56 185 -155q67 -101 67 -244q0 -122 -45 -212.5t-110 -146.5q-70 -62 -171 -97.5t-216 -35.5v193q78 0 149 27t117 77
q71 74 71 195q0 144 -108 221q-44 31 -107.5 48.5t-121.5 17.5v182h26q99 0 158 61q55 55 55 154q0 84 -59 139q-57 51 -146 51q-44 0 -85.5 -16.5t-67.5 -46.5q-28 -33 -42 -84t-14 -100v-1090z" />
    <glyph glyph-name="agrave" unicode="&#xe0;" horiz-adv-x="1085" 
d="M758 762v100h200v-862h-200v90q-101 -117 -258 -117q-128 0 -225 65.5t-145 169t-48 224.5q0 103 33.5 189t91 143.5t134 89t161.5 31.5q161 0 256 -123zM526 705q-107 0 -173 -79.5t-66 -197.5q0 -115 66.5 -194.5t172.5 -79.5q102 0 173 71.5t71 200.5q0 134 -71 206.5
t-173 72.5zM545 993l-320 295l185 94l245 -319z" />
    <glyph glyph-name="aacute" unicode="&#xe1;" horiz-adv-x="1085" 
d="M758 762v100h200v-862h-200v90q-101 -117 -258 -117q-128 0 -225 65.5t-145 169t-48 224.5q0 103 33.5 189t91 143.5t134 89t161.5 31.5q161 0 256 -123zM526 705q-107 0 -173 -79.5t-66 -197.5q0 -115 66.5 -194.5t172.5 -79.5q102 0 173 71.5t71 200.5q0 134 -71 206.5
t-173 72.5zM625 1382l184 -94l-320 -295l-110 70z" />
    <glyph glyph-name="acircumflex" unicode="&#xe2;" horiz-adv-x="1085" 
d="M758 762v100h200v-862h-200v90q-101 -117 -258 -117q-128 0 -225 65.5t-145 169t-48 224.5q0 103 33.5 189t91 143.5t134 89t161.5 31.5q161 0 256 -123zM526 705q-107 0 -173 -79.5t-66 -197.5q0 -115 66.5 -194.5t172.5 -79.5q102 0 173 71.5t71 200.5q0 134 -71 206.5
t-173 72.5zM512 1169l-180 -176l-135 107l315 282l315 -282l-135 -107z" />
    <glyph glyph-name="atilde" unicode="&#xe3;" horiz-adv-x="1085" 
d="M758 762v100h200v-862h-200v90q-101 -117 -258 -117q-128 0 -225 65.5t-145 169t-48 224.5q0 103 33.5 189t91 143.5t134 89t161.5 31.5q161 0 256 -123zM526 705q-107 0 -173 -79.5t-66 -197.5q0 -115 66.5 -194.5t172.5 -79.5q102 0 173 71.5t71 200.5q0 134 -71 206.5
t-173 72.5zM762 1274l119 -94q-81 -176 -238 -176q-24 0 -45.5 5.5t-31 9.5t-36.5 17q-82 43 -86 45q-48 21 -75 21q-75 0 -105 -94l-121 84q36 65 86 110q66 55 144 55q45 0 100 -20q35 -13 94 -47q52 -31 84 -31q48 0 75 37t36 78z" />
    <glyph glyph-name="adieresis" unicode="&#xe4;" horiz-adv-x="1085" 
d="M758 762v100h200v-862h-200v90q-101 -117 -258 -117q-128 0 -225 65.5t-145 169t-48 224.5q0 103 33.5 189t91 143.5t134 89t161.5 31.5q161 0 256 -123zM526 705q-107 0 -173 -79.5t-66 -197.5q0 -115 66.5 -194.5t172.5 -79.5q102 0 173 71.5t71 200.5q0 134 -71 206.5
t-173 72.5zM201 1165q0 54 36.5 90.5t90.5 36.5t90.5 -36.5t36.5 -90.5t-36.5 -90.5t-90.5 -36.5t-90.5 36.5t-36.5 90.5zM569 1165q0 54 36.5 90.5t90.5 36.5t90.5 -36.5t36.5 -90.5t-36.5 -90.5t-90.5 -36.5t-90.5 36.5t-36.5 90.5z" />
    <glyph glyph-name="aring" unicode="&#xe5;" horiz-adv-x="1085" 
d="M758 762v100h200v-862h-200v90q-101 -117 -258 -117q-128 0 -225 65.5t-145 169t-48 224.5q0 103 33.5 189t91 143.5t134 89t161.5 31.5q161 0 256 -123zM526 705q-107 0 -173 -79.5t-66 -197.5q0 -115 66.5 -194.5t172.5 -79.5q102 0 173 71.5t71 200.5q0 134 -71 206.5
t-173 72.5zM319 1186q0 78 57.5 135t135.5 57t135.5 -57t57.5 -135t-57.5 -135.5t-135.5 -57.5t-135.5 57.5t-57.5 135.5zM424 1186q0 -37 25.5 -62.5t62.5 -25.5t62.5 25.5t25.5 62.5t-25.5 62.5t-62.5 25.5t-62.5 -25.5t-25.5 -62.5z" />
    <glyph glyph-name="ae" unicode="&#xe6;" horiz-adv-x="1548" 
d="M203 672v186q115 27 243 27q110 0 179 -27q76 -29 129 -96q48 58 118 88q76 35 179 35q187 0 295 -113q120 -126 120 -364v-25h-618q3 -47 23 -95t51 -79q55 -55 153 -55q80 0 137 43q50 38 80 94l168 -94q-57 -102 -145 -158q-104 -66 -258 -66q-105 0 -180 37
q-77 36 -123 103q-60 -70 -140 -107q-77 -33 -182 -33q-169 0 -264 93q-86 83 -86 196q0 123 82 201q48 45 118 68.5t144 23.5q120 0 221 -57q0 104 -57 155q-59 52 -176 52q-100 0 -211 -33zM451 383q-94 0 -142 -43q-35 -32 -35 -76q0 -45 41 -80q50 -39 136 -39
q75 0 129 33q55 35 55 90q0 53 -64 88q-53 27 -120 27zM862 547h400q-12 70 -62 117q-54 49 -135 49q-82 0 -141 -56q-46 -46 -62 -110z" />
    <glyph glyph-name="ccedilla" unicode="&#xe7;" horiz-adv-x="860" 
d="M795 823v-225q-109 107 -244 107q-115 0 -191 -76q-73 -73 -73 -199q0 -129 78 -207q72 -69 182 -69q66 0 132 27.5t116 82.5v-223q-107 -68 -263 -68q-206 0 -327 127q-123 127 -123 324q0 203 131 334q127 127 346 127q124 0 236 -62zM446 -109l168 -65l-208 -275
l-132 66z" />
    <glyph glyph-name="egrave" unicode="&#xe8;" horiz-adv-x="987" 
d="M731 291l168 -94q-57 -102 -145 -158q-103 -66 -254 -66q-180 0 -291 111q-61 61 -94 147t-33 183q0 101 35 193.5t102 160.5q117 117 289 117q167 0 276 -113q121 -125 121 -364v-25h-618q3 -48 22.5 -95.5t50.5 -78.5q55 -55 154 -55q80 0 137 43q50 38 80 94zM301 547
h399q-12 71 -61 117q-53 49 -135 49q-86 0 -142 -56q-45 -42 -61 -110zM555 993l-319 295l184 94l246 -319z" />
    <glyph glyph-name="eacute" unicode="&#xe9;" horiz-adv-x="987" 
d="M731 291l168 -94q-57 -102 -145 -158q-103 -66 -254 -66q-180 0 -291 111q-61 61 -94 147t-33 183q0 101 35 193.5t102 160.5q117 117 289 117q167 0 276 -113q121 -125 121 -364v-25h-618q3 -48 22.5 -95.5t50.5 -78.5q55 -55 154 -55q80 0 137 43q50 38 80 94zM301 547
h399q-12 71 -61 117q-53 49 -135 49q-86 0 -142 -56q-45 -42 -61 -110zM584 1382l184 -94l-319 -295l-111 70z" />
    <glyph glyph-name="ecircumflex" unicode="&#xea;" horiz-adv-x="987" 
d="M731 291l168 -94q-57 -102 -145 -158q-103 -66 -254 -66q-180 0 -291 111q-61 61 -94 147t-33 183q0 101 35 193.5t102 160.5q117 117 289 117q167 0 276 -113q121 -125 121 -364v-25h-618q3 -48 22.5 -95.5t50.5 -78.5q55 -55 154 -55q80 0 137 43q50 38 80 94zM301 547
h399q-12 71 -61 117q-53 49 -135 49q-86 0 -142 -56q-45 -42 -61 -110zM483 1169l-180 -176l-135 107l315 282l316 -282l-135 -107z" />
    <glyph glyph-name="edieresis" unicode="&#xeb;" horiz-adv-x="987" 
d="M731 291l168 -94q-57 -102 -145 -158q-103 -66 -254 -66q-180 0 -291 111q-61 61 -94 147t-33 183q0 101 35 193.5t102 160.5q117 117 289 117q167 0 276 -113q121 -125 121 -364v-25h-618q3 -48 22.5 -95.5t50.5 -78.5q55 -55 154 -55q80 0 137 43q50 38 80 94zM301 547
h399q-12 71 -61 117q-53 49 -135 49q-86 0 -142 -56q-45 -42 -61 -110zM188 1165q0 54 36.5 90.5t90.5 36.5t90.5 -36.5t36.5 -90.5t-36.5 -90.5t-90.5 -36.5t-90.5 36.5t-36.5 90.5zM557 1165q0 54 36.5 90.5t90.5 36.5t90.5 -36.5t36.5 -90.5t-36.5 -90.5t-90.5 -36.5
t-90.5 36.5t-36.5 90.5z" />
    <glyph glyph-name="igrave" unicode="&#xec;" horiz-adv-x="454" 
d="M127 862h201v-862h-201v862zM225 973l-235 364l207 47l151 -374z" />
    <glyph glyph-name="iacute" unicode="&#xed;" horiz-adv-x="454" 
d="M127 862h201v-862h-201v862zM258 1384l207 -47l-236 -364l-123 37z" />
    <glyph glyph-name="icircumflex" unicode="&#xee;" horiz-adv-x="454" 
d="M127 862h201v-862h-201v862zM227 1163l-143 -149l-111 94l254 256l254 -256l-110 -94z" />
    <glyph glyph-name="idieresis" unicode="&#xef;" horiz-adv-x="454" 
d="M127 862h201v-862h-201v862zM-84 1165q0 54 36.5 90.5t90.5 36.5t90.5 -36.5t36.5 -90.5t-36.5 -90.5t-90.5 -36.5t-90.5 36.5t-36.5 90.5zM285 1165q0 54 36.5 90.5t90.5 36.5t90.5 -36.5t36.5 -90.5t-36.5 -90.5t-90.5 -36.5t-90.5 36.5t-36.5 90.5z" />
    <glyph glyph-name="eth" unicode="&#xf0;" horiz-adv-x="1085" 
d="M174 1231l59 147q233 -27 416 -141l269 88l40 -125l-200 -61q93 -73 153 -193q93 -182 93 -436q0 -212 -76 -338q-19 -32 -45 -61t-71 -63t-113.5 -54.5t-151.5 -20.5q-199 0 -326 121q-139 135 -139 344q0 197 131 328q119 119 307 119q141 0 252 -97q-45 170 -207 285
l-364 -121l-41 123l258 84q-112 59 -244 72zM543 154q113 0 182 69q34 34 54 88.5t20 116.5q0 133 -72 205q-69 72 -184 72q-107 0 -176 -66q-80 -77 -80 -211q0 -129 73 -205q65 -69 183 -69z" />
    <glyph glyph-name="ntilde" unicode="&#xf1;" horiz-adv-x="993" 
d="M125 0v862h201v-80q92 103 233 103q169 0 254 -117q53 -75 53 -240v-528h-200v479q0 53 -6 92.5t-18.5 63.5t-25.5 39t-34 21.5t-35.5 8t-38.5 1.5q-33 0 -54 -3t-48 -19t-42.5 -45.5t-26.5 -86t-11 -137.5v-414h-201zM748 1274l118 -94q-81 -176 -237 -176
q-24 0 -45.5 5.5t-31 9.5t-36.5 17q-82 43 -86 45q-48 21 -76 21q-74 0 -104 -94l-121 84q36 65 86 110q66 55 143 55q46 0 101 -20q35 -13 94 -47q52 -31 84 -31q48 0 75 37t36 78z" />
    <glyph glyph-name="ograve" unicode="&#xf2;" horiz-adv-x="1085" 
d="M543 885q197 0 329 -128.5t132 -326.5q0 -197 -132.5 -327t-328.5 -130t-328.5 130t-132.5 327q0 198 132 326.5t329 128.5zM543 154q118 0 187 74.5t69 199.5q0 71 -22 126t-59 87t-81.5 48t-93.5 16t-93.5 -16t-81.5 -48t-59 -87t-22 -126q0 -125 69 -199.5t187 -74.5z
M555 993l-319 295l184 94l246 -319z" />
    <glyph glyph-name="oacute" unicode="&#xf3;" horiz-adv-x="1085" 
d="M543 885q197 0 329 -128.5t132 -326.5q0 -197 -132.5 -327t-328.5 -130t-328.5 130t-132.5 327q0 198 132 326.5t329 128.5zM543 154q118 0 187 74.5t69 199.5q0 71 -22 126t-59 87t-81.5 48t-93.5 16t-93.5 -16t-81.5 -48t-59 -87t-22 -126q0 -125 69 -199.5t187 -74.5z
M655 1382l185 -94l-320 -295l-110 70z" />
    <glyph glyph-name="ocircumflex" unicode="&#xf4;" horiz-adv-x="1085" 
d="M543 885q197 0 329 -128.5t132 -326.5q0 -197 -132.5 -327t-328.5 -130t-328.5 130t-132.5 327q0 198 132 326.5t329 128.5zM543 154q118 0 187 74.5t69 199.5q0 71 -22 126t-59 87t-81.5 48t-93.5 16t-93.5 -16t-81.5 -48t-59 -87t-22 -126q0 -125 69 -199.5t187 -74.5z
M543 1169l-181 -176l-135 107l316 282l315 -282l-135 -107z" />
    <glyph glyph-name="otilde" unicode="&#xf5;" horiz-adv-x="1085" 
d="M543 885q197 0 329 -128.5t132 -326.5q0 -197 -132.5 -327t-328.5 -130t-328.5 130t-132.5 327q0 198 132 326.5t329 128.5zM543 154q118 0 187 74.5t69 199.5q0 71 -22 126t-59 87t-81.5 48t-93.5 16t-93.5 -16t-81.5 -48t-59 -87t-22 -126q0 -125 69 -199.5t187 -74.5z
M793 1274l118 -94q-81 -176 -237 -176q-24 0 -45.5 5.5t-31 9.5t-36.5 17q-82 43 -86 45q-48 21 -76 21q-74 0 -104 -94l-121 84q36 65 86 110q66 55 143 55q46 0 101 -20q35 -13 94 -47q52 -31 84 -31q48 0 75 37t36 78z" />
    <glyph glyph-name="odieresis" unicode="&#xf6;" horiz-adv-x="1085" 
d="M543 885q197 0 329 -128.5t132 -326.5q0 -197 -132.5 -327t-328.5 -130t-328.5 130t-132.5 327q0 198 132 326.5t329 128.5zM543 154q118 0 187 74.5t69 199.5q0 71 -22 126t-59 87t-81.5 48t-93.5 16t-93.5 -16t-81.5 -48t-59 -87t-22 -126q0 -125 69 -199.5t187 -74.5z
M231 1165q0 54 36.5 90.5t90.5 36.5t90.5 -36.5t36.5 -90.5t-36.5 -90.5t-90.5 -36.5t-90.5 36.5t-36.5 90.5zM600 1165q0 54 36.5 90.5t90.5 36.5t90.5 -36.5t36.5 -90.5t-36.5 -90.5t-90.5 -36.5t-90.5 36.5t-36.5 90.5z" />
    <glyph glyph-name="divide" unicode="&#xf7;" 
d="M389 1051q0 51 36 87t87 36t87 -36t36 -87t-36 -87t-87 -36t-87 36t-36 87zM389 326q0 51 36 87t87 36t87 -36t36 -87t-36 -87t-87 -36t-87 36t-36 87zM68 596v184h888v-184h-888z" />
    <glyph glyph-name="oslash" unicode="&#xf8;" horiz-adv-x="1085" 
d="M20 14l146 150q-84 110 -84 266q0 198 131.5 326.5t329.5 128.5q167 0 270 -84l145 143l91 -94l-140 -135q95 -123 95 -285q0 -197 -132.5 -327t-328.5 -130q-170 0 -283 95l-137 -148zM766 575l-371 -380q59 -41 148 -41q50 0 94 15.5t81 47t59 86t22 125.5
q0 82 -33 147zM311 297l363 377q-64 31 -131 31q-49 0 -93.5 -16t-81.5 -48t-59 -87t-22 -126q0 -64 24 -131z" />
    <glyph glyph-name="ugrave" unicode="&#xf9;" horiz-adv-x="991" 
d="M127 862h201v-493q0 -108 37 -156q46 -59 131 -59t131 59q37 48 37 156v493h200v-500q0 -95 -18.5 -161t-73.5 -121q-107 -107 -280 -107q-169 0 -273 107q-55 55 -73.5 121t-18.5 161v500zM494 993l-320 295l184 94l246 -319z" />
    <glyph glyph-name="uacute" unicode="&#xfa;" horiz-adv-x="991" 
d="M127 862h201v-493q0 -108 37 -156q46 -59 131 -59t131 59q37 48 37 156v493h200v-500q0 -95 -18.5 -161t-73.5 -121q-107 -107 -280 -107q-169 0 -273 107q-55 55 -73.5 121t-18.5 161v500zM625 1382l184 -94l-320 -295l-110 70z" />
    <glyph glyph-name="ucircumflex" unicode="&#xfb;" horiz-adv-x="991" 
d="M127 862h201v-493q0 -108 37 -156q46 -59 131 -59t131 59q37 48 37 156v493h200v-500q0 -95 -18.5 -161t-73.5 -121q-107 -107 -280 -107q-169 0 -273 107q-55 55 -73.5 121t-18.5 161v500zM496 1169l-181 -176l-135 107l316 282l315 -282l-135 -107z" />
    <glyph glyph-name="udieresis" unicode="&#xfc;" horiz-adv-x="991" 
d="M127 862h201v-493q0 -108 37 -156q46 -59 131 -59t131 59q37 48 37 156v493h200v-500q0 -95 -18.5 -161t-73.5 -121q-107 -107 -280 -107q-169 0 -273 107q-55 55 -73.5 121t-18.5 161v500zM184 1165q0 54 36.5 90.5t90.5 36.5t90.5 -36.5t36.5 -90.5t-36.5 -90.5
t-90.5 -36.5t-90.5 36.5t-36.5 90.5zM553 1165q0 54 36.5 90.5t90.5 36.5t90.5 -36.5t36.5 -90.5t-36.5 -90.5t-90.5 -36.5t-90.5 36.5t-36.5 90.5z" />
    <glyph glyph-name="yacute" unicode="&#xfd;" horiz-adv-x="987" 
d="M63 -469l318 604l-369 727h242l246 -504l250 504h225l-686 -1331h-226zM647 1382l184 -94l-319 -295l-111 70z" />
    <glyph glyph-name="thorn" unicode="&#xfe;" horiz-adv-x="1085" 
d="M328 96v-565h-201v1962h201v-725q98 117 256 117q85 0 161.5 -31.5t134 -89t91 -143.5t33.5 -189q0 -122 -48 -225t-145 -168.5t-225 -65.5q-159 0 -258 123zM559 154q106 0 173 79.5t67 194.5q0 118 -66.5 197.5t-173.5 79.5q-102 0 -173 -72.5t-71 -206.5
q0 -129 71 -200.5t173 -71.5z" />
    <glyph glyph-name="ydieresis" unicode="&#xff;" horiz-adv-x="987" 
d="M63 -469l318 604l-369 727h242l246 -504l250 504h225l-686 -1331h-226zM182 1165q0 54 36.5 90.5t90.5 36.5t90.5 -36.5t36.5 -90.5t-36.5 -90.5t-90.5 -36.5t-90.5 36.5t-36.5 90.5zM551 1165q0 54 36.5 90.5t90.5 36.5t90.5 -36.5t36.5 -90.5t-36.5 -90.5t-90.5 -36.5
t-90.5 36.5t-36.5 90.5z" />
    <glyph glyph-name="Amacron" unicode="&#x100;" horiz-adv-x="1343" 
d="M1110 0l-143 330h-584l-150 -330h-225l680 1446l647 -1446h-225zM469 526h414l-203 463zM315 1501v164h738v-164h-738z" />
    <glyph glyph-name="amacron" unicode="&#x101;" horiz-adv-x="1085" 
d="M758 762v100h200v-862h-200v90q-101 -117 -258 -117q-128 0 -225 65.5t-145 169t-48 224.5q0 103 33.5 189t91 143.5t134 89t161.5 31.5q161 0 256 -123zM526 705q-107 0 -173 -79.5t-66 -197.5q0 -115 66.5 -194.5t172.5 -79.5q102 0 173 71.5t71 200.5q0 134 -71 206.5
t-173 72.5zM174 1040v160h676v-160h-676z" />
    <glyph glyph-name="Abreve" unicode="&#x102;" horiz-adv-x="1343" 
d="M1110 0l-143 330h-584l-150 -330h-225l680 1446l647 -1446h-225zM469 526h414l-203 463zM864 1790h168q-19 -100 -82 -176q-39 -47 -105.5 -83t-160.5 -36t-160.5 36t-105.5 83q-63 76 -82 176h168q19 -68 69 -100q45 -31 111 -31t111 31q50 32 69 100z" />
    <glyph glyph-name="abreve" unicode="&#x103;" horiz-adv-x="1085" 
d="M758 762v100h200v-862h-200v90q-101 -117 -258 -117q-128 0 -225 65.5t-145 169t-48 224.5q0 103 33.5 189t91 143.5t134 89t161.5 31.5q161 0 256 -123zM526 705q-107 0 -173 -79.5t-66 -197.5q0 -115 66.5 -194.5t172.5 -79.5q102 0 173 71.5t71 200.5q0 134 -71 206.5
t-173 72.5zM682 1307h162q-13 -63 -37.5 -110.5t-40.5 -63.5q-83 -103 -250 -103q-170 0 -256 100q-61 75 -80 177h162q19 -67 61 -101q38 -32 107 -32t108 30q47 35 64 103z" />
    <glyph glyph-name="Aogonek" unicode="&#x104;" horiz-adv-x="1343" 
d="M684 1452l651 -1452h-65q-57 -31 -96 -70q-52 -48 -52 -102q0 -28 21 -49q21 -19 67 -19q48 0 101 19l-19 -144q-59 -30 -127 -30q-101 0 -161 57q-50 50 -50 123q0 70 54 131q38 44 102 84l-143 330h-584l-150 -330h-225zM469 526h414l-203 463z" />
    <glyph glyph-name="aogonek" unicode="&#x105;" horiz-adv-x="1085" 
d="M758 762v100h200v-862h-51q-57 -31 -104 -78q-43 -45 -43 -92q0 -32 22 -51q21 -19 62 -19q54 0 104 19l-18 -127q-59 -39 -131 -39q-95 0 -154 59q-45 45 -45 113q0 71 53 131q40 45 105 84v90q-101 -117 -258 -117q-172 0 -289 117q-60 61 -94.5 149t-34.5 193
q0 217 137 344q113 109 277 109q165 0 262 -123zM526 705q-98 0 -164 -70q-75 -81 -75 -207q0 -57 20 -114t55 -93q64 -67 168 -67q102 0 168 69q72 75 72 209q0 116 -74 205q-73 68 -170 68z" />
    <glyph glyph-name="Cacute" unicode="&#x106;" horiz-adv-x="1269" 
d="M1176 1292v-245q-168 151 -371 151q-221 0 -359.5 -146.5t-138.5 -373.5q0 -218 141.5 -365t358.5 -147q202 0 369 158v-248q-172 -103 -375 -103q-285 0 -484 189q-219 205 -219 516q0 326 219 534q190 179 494 179q210 0 365 -99zM745 1489l-98 82l283 284l176 -122z
" />
    <glyph glyph-name="cacute" unicode="&#x107;" horiz-adv-x="860" 
d="M795 823v-225q-109 107 -244 107q-115 0 -191 -76q-73 -73 -73 -199q0 -129 78 -207q72 -69 182 -69q66 0 132 27.5t116 82.5v-223q-107 -68 -263 -68q-206 0 -327 127q-123 127 -123 324q0 203 131 334q127 127 346 127q124 0 236 -62zM625 1382l184 -94l-320 -295
l-110 70z" />
    <glyph glyph-name="Ccircumflex" unicode="&#x108;" horiz-adv-x="1269" 
d="M1176 1292v-245q-168 151 -371 151q-221 0 -359.5 -146.5t-138.5 -373.5q0 -218 141.5 -365t358.5 -147q202 0 369 158v-248q-172 -103 -375 -103q-285 0 -484 189q-219 205 -219 516q0 326 219 534q190 179 494 179q210 0 365 -99zM799 1663l-203 -168l-135 115l338 274
l338 -274l-136 -115z" />
    <glyph glyph-name="ccircumflex" unicode="&#x109;" horiz-adv-x="860" 
d="M795 823v-225q-109 107 -244 107q-115 0 -191 -76q-73 -73 -73 -199q0 -129 78 -207q72 -69 182 -69q66 0 132 27.5t116 82.5v-223q-107 -68 -263 -68q-206 0 -327 127q-123 127 -123 324q0 203 131 334q127 127 346 127q124 0 236 -62zM532 1169l-180 -176l-135 107
l315 282l316 -282l-135 -107z" />
    <glyph glyph-name="Cdotaccent" unicode="&#x10a;" horiz-adv-x="1269" 
d="M1176 1292v-245q-168 151 -371 151q-221 0 -359.5 -146.5t-138.5 -373.5q0 -218 141.5 -365t358.5 -147q202 0 369 158v-248q-172 -103 -375 -103q-285 0 -484 189q-219 205 -219 516q0 326 219 534q190 179 494 179q210 0 365 -99zM659 1640q0 58 39.5 98t98.5 40
q58 0 97.5 -39.5t39.5 -98.5q0 -58 -39 -97.5t-98 -39.5t-98.5 39.5t-39.5 97.5z" />
    <glyph glyph-name="cdotaccent" unicode="&#x10b;" horiz-adv-x="860" 
d="M795 823v-225q-109 107 -244 107q-115 0 -191 -76q-73 -73 -73 -199q0 -129 78 -207q72 -69 182 -69q66 0 132 27.5t116 82.5v-223q-107 -68 -263 -68q-206 0 -327 127q-123 127 -123 324q0 203 131 334q127 127 346 127q124 0 236 -62zM408 1126q0 56 39 95t94 39
t94 -39t39 -95t-39 -94.5t-94 -38.5t-94 38.5t-39 94.5z" />
    <glyph glyph-name="Ccaron" unicode="&#x10c;" horiz-adv-x="1269" 
d="M1176 1292v-245q-168 151 -371 151q-221 0 -359.5 -146.5t-138.5 -373.5q0 -218 141.5 -365t358.5 -147q202 0 369 158v-248q-172 -103 -375 -103q-285 0 -484 189q-219 205 -219 516q0 326 219 534q190 179 494 179q210 0 365 -99zM799 1716l202 168l136 -115l-338 -274
l-338 274l135 115z" />
    <glyph glyph-name="ccaron" unicode="&#x10d;" horiz-adv-x="860" 
d="M795 823v-225q-109 107 -244 107q-115 0 -191 -76q-73 -73 -73 -199q0 -129 78 -207q72 -69 182 -69q66 0 132 27.5t116 82.5v-223q-107 -68 -263 -68q-206 0 -327 127q-123 127 -123 324q0 203 131 334q127 127 346 127q124 0 236 -62zM532 1206l181 176l135 -106
l-316 -283l-315 283l135 106z" />
    <glyph glyph-name="Dcaron" unicode="&#x10e;" horiz-adv-x="1318" 
d="M164 1366h287q162 0 282 -27.5t225 -105.5q125 -94 194 -238t69 -313q0 -171 -70.5 -313.5t-204.5 -237.5q-111 -79 -225.5 -105t-274.5 -26h-282v1366zM373 1169v-972h90q232 0 362 96q80 61 133.5 160.5t53.5 228.5q0 128 -52.5 231.5t-132.5 161.5q-130 94 -364 94
h-90zM512 1716l203 168l135 -115l-338 -274l-338 274l135 115z" />
    <glyph glyph-name="dcaron" unicode="&#x10f;" horiz-adv-x="1310" 
d="M758 762v731h200v-1493h-200v90q-101 -117 -258 -117q-128 0 -225 65.5t-145 169t-48 224.5q0 103 33.5 189t91 143.5t134 89t161.5 31.5q161 0 256 -123zM526 705q-107 0 -173 -79.5t-66 -197.5q0 -115 66.5 -194.5t172.5 -79.5q102 0 173 71.5t71 200.5
q0 134 -71 206.5t-173 72.5zM1026 979l168 434l180 -70l-213 -421z" />
    <glyph glyph-name="Dcroat" unicode="&#x110;" horiz-adv-x="1318" 
d="M164 1366h287q162 0 282 -27.5t225 -105.5q125 -94 194 -238t69 -313q0 -158 -64.5 -301t-210.5 -250q-116 -85 -221 -108t-279 -23h-282v664h-164v176h164v526zM373 1169v-329h286v-176h-286v-467h90q232 0 362 96q80 61 133.5 160.5t53.5 228.5q0 128 -52.5 231.5
t-132.5 161.5q-130 94 -364 94h-90z" />
    <glyph glyph-name="dcroat" unicode="&#x111;" horiz-adv-x="1085" 
d="M758 762v368h-451v156h451v207h200v-207h148v-156h-148v-1130h-200v90q-101 -117 -258 -117q-128 0 -225 65.5t-145 169t-48 224.5q0 103 33.5 189t91 143.5t134 89t161.5 31.5q161 0 256 -123zM526 705q-107 0 -173 -79.5t-66 -197.5q0 -115 66.5 -194.5t172.5 -79.5
q103 0 173.5 71.5t70.5 200.5q0 138 -71 208.5t-173 70.5z" />
    <glyph glyph-name="Emacron" unicode="&#x112;" 
d="M918 1366v-197h-545v-346h528v-196h-528v-430h545v-197h-754v1366h754zM164 1501v164h737v-164h-737z" />
    <glyph glyph-name="emacron" unicode="&#x113;" horiz-adv-x="987" 
d="M731 291l168 -94q-57 -102 -145 -158q-103 -66 -254 -66q-180 0 -291 111q-61 61 -94 147t-33 183q0 101 35 193.5t102 160.5q117 117 289 117q167 0 276 -113q121 -125 121 -364v-25h-618q3 -48 22.5 -95.5t50.5 -78.5q55 -55 154 -55q80 0 137 43q50 38 80 94zM301 547
h399q-12 71 -61 117q-53 49 -135 49q-86 0 -142 -56q-45 -42 -61 -110zM162 1040v160h676v-160h-676z" />
    <glyph glyph-name="Edotaccent" unicode="&#x116;" 
d="M918 1366v-197h-545v-346h528v-196h-528v-430h545v-197h-754v1366h754zM416 1640q0 59 39.5 98.5t97.5 39.5t97.5 -39.5t39.5 -98.5q0 -58 -39 -97.5t-98 -39.5t-98 39.5t-39 97.5z" />
    <glyph glyph-name="edotaccent" unicode="&#x117;" horiz-adv-x="987" 
d="M731 291l168 -94q-57 -102 -145 -158q-103 -66 -254 -66q-180 0 -291 111q-61 61 -94 147t-33 183q0 101 35 193.5t102 160.5q117 117 289 117q167 0 276 -113q121 -125 121 -364v-25h-618q3 -48 22.5 -95.5t50.5 -78.5q55 -55 154 -55q80 0 137 43q50 38 80 94zM301 547
h399q-12 71 -61 117q-53 49 -135 49q-86 0 -142 -56q-45 -42 -61 -110zM367 1126q0 56 39 95t94 39t94 -39t39 -95t-38.5 -94.5t-94.5 -38.5t-94.5 38.5t-38.5 94.5z" />
    <glyph glyph-name="Eogonek" unicode="&#x118;" 
d="M918 1366v-197h-545v-325h528v-197h-528v-450h545v-197h-82q-59 -32 -97 -70q-51 -47 -51 -102q0 -28 21 -49q21 -19 67 -19q48 0 101 19l-19 -144q-59 -30 -127 -30q-102 0 -162 57q-49 49 -49 123q0 72 53 131q37 43 103 84h-512v1366h754z" />
    <glyph glyph-name="eogonek" unicode="&#x119;" horiz-adv-x="987" 
d="M731 291l168 -94q-44 -81 -115 -134q-61 -46 -127 -81.5t-94 -65.5q-41 -45 -41 -86q0 -31 23 -51q21 -19 61 -19q55 0 105 19l-19 -127q-62 -39 -125 -39q-104 0 -159 59q-46 48 -46 113q0 56 41 115q23 35 78 73q-166 5 -272 111q-61 59 -94 146.5t-33 183.5
q0 100 35.5 194t101.5 160q117 117 289 117q167 0 276 -113q121 -125 121 -364v-25h-618q3 -48 22.5 -95.5t50.5 -78.5q55 -55 154 -55q80 0 137 43q50 38 80 94zM301 547h399q-12 71 -61 117q-53 49 -135 49q-86 0 -142 -56q-45 -42 -61 -110z" />
    <glyph glyph-name="Ecaron" unicode="&#x11a;" 
d="M918 1366v-197h-545v-346h528v-196h-528v-430h545v-197h-754v1366h754zM553 1716l203 168l135 -115l-338 -274l-338 274l135 115z" />
    <glyph glyph-name="ecaron" unicode="&#x11b;" horiz-adv-x="987" 
d="M731 291l168 -94q-57 -102 -145 -158q-103 -66 -254 -66q-180 0 -291 111q-61 61 -94 147t-33 183q0 101 35 193.5t102 160.5q117 117 289 117q167 0 276 -113q121 -125 121 -364v-25h-618q3 -48 22.5 -95.5t50.5 -78.5q55 -55 154 -55q80 0 137 43q50 38 80 94zM301 547
h399q-12 71 -61 117q-53 49 -135 49q-86 0 -142 -56q-45 -42 -61 -110zM500 1206l180 176l135 -106l-315 -283l-316 283l135 106z" />
    <glyph glyph-name="Gcircumflex" unicode="&#x11c;" horiz-adv-x="1531" 
d="M870 518v193h564v-11q0 -356 -203 -553q-179 -174 -465 -174q-149 0 -260 45t-205 142q-99 102 -151 234.5t-52 281.5q0 153 55 287t144 223q91 93 226 149t288 56q201 0 356 -86q141 -79 222 -205l-166 -117q-75 104 -168 156q-100 59 -242 59q-219 0 -360 -141
q-68 -68 -107 -170.5t-39 -212.5q0 -103 37.5 -201t104.5 -170q129 -137 342 -137q181 0 305 121q100 98 114 231h-340zM807 1663l-203 -168l-135 115l338 274l338 -274l-135 -115z" />
    <glyph glyph-name="gcircumflex" unicode="&#x11d;" horiz-adv-x="1085" 
d="M758 768v94h200v-792q0 -169 -29 -274t-112 -175q-112 -92 -287 -92q-176 0 -282 106q-48 48 -82.5 120t-44.5 149h194q14 -82 64 -135q56 -60 156 -60q99 0 157 58q23 22 38 49.5t20 60.5t6.5 53.5t1.5 53.5v112q-97 -123 -262 -123q-173 0 -285 117q-129 136 -129 342
q0 207 127 334q116 119 293 119q158 0 256 -117zM526 705q-90 0 -151 -58q-40 -37 -64 -94.5t-24 -124.5q0 -65 23 -123.5t63 -93.5q64 -57 153 -57q102 0 168 69q76 81 76 203q0 138 -82 217q-62 62 -162 62zM512 1169l-180 -176l-135 107l315 282l315 -282l-135 -107z" />
    <glyph glyph-name="Gbreve" unicode="&#x11e;" horiz-adv-x="1531" 
d="M870 518v193h564v-11q0 -356 -203 -553q-179 -174 -465 -174q-149 0 -260 45t-205 142q-99 102 -151 234.5t-52 281.5q0 153 55 287t144 223q91 93 226 149t288 56q201 0 356 -86q141 -79 222 -205l-166 -117q-75 104 -168 156q-100 59 -242 59q-219 0 -360 -141
q-68 -68 -107 -170.5t-39 -212.5q0 -103 37.5 -201t104.5 -170q129 -137 342 -137q181 0 305 121q100 98 114 231h-340zM987 1790h168q-19 -100 -82 -176q-39 -47 -105.5 -83t-160.5 -36t-160.5 36t-105.5 83q-63 76 -82 176h168q19 -68 69 -100q45 -31 111 -31t111 31
q50 32 69 100z" />
    <glyph glyph-name="gbreve" unicode="&#x11f;" horiz-adv-x="1085" 
d="M758 768v94h200v-792q0 -169 -29 -274t-112 -175q-112 -92 -287 -92q-176 0 -282 106q-48 48 -82.5 120t-44.5 149h194q14 -82 64 -135q56 -60 156 -60q99 0 157 58q23 22 38 49.5t20 60.5t6.5 53.5t1.5 53.5v112q-97 -123 -262 -123q-173 0 -285 117q-129 136 -129 342
q0 207 127 334q116 119 293 119q158 0 256 -117zM526 705q-90 0 -151 -58q-40 -37 -64 -94.5t-24 -124.5q0 -65 23 -123.5t63 -93.5q64 -57 153 -57q102 0 168 69q76 81 76 203q0 138 -82 217q-62 62 -162 62zM682 1307h162q-13 -63 -37.5 -110.5t-40.5 -63.5
q-83 -103 -250 -103q-170 0 -256 100q-61 75 -80 177h162q19 -67 61 -101q38 -32 107 -32t108 30q47 35 64 103z" />
    <glyph glyph-name="Gdotaccent" unicode="&#x120;" horiz-adv-x="1531" 
d="M870 518v193h564v-11q0 -356 -203 -553q-179 -174 -465 -174q-149 0 -260 45t-205 142q-99 102 -151 234.5t-52 281.5q0 153 55 287t144 223q91 93 226 149t288 56q201 0 356 -86q141 -79 222 -205l-166 -117q-75 104 -168 156q-100 59 -242 59q-219 0 -360 -141
q-68 -68 -107 -170.5t-39 -212.5q0 -103 37.5 -201t104.5 -170q129 -137 342 -137q181 0 305 121q100 98 114 231h-340zM672 1640q0 59 39.5 98.5t97.5 39.5t97.5 -39.5t39.5 -98.5q0 -58 -39 -97.5t-98 -39.5t-98 39.5t-39 97.5z" />
    <glyph glyph-name="gdotaccent" unicode="&#x121;" horiz-adv-x="1085" 
d="M758 768v94h200v-792q0 -169 -29 -274t-112 -175q-112 -92 -287 -92q-176 0 -282 106q-48 48 -82.5 120t-44.5 149h194q14 -82 64 -135q56 -60 156 -60q99 0 157 58q23 22 38 49.5t20 60.5t6.5 53.5t1.5 53.5v112q-97 -123 -262 -123q-173 0 -285 117q-129 136 -129 342
q0 207 127 334q116 119 293 119q158 0 256 -117zM526 705q-90 0 -151 -58q-40 -37 -64 -94.5t-24 -124.5q0 -65 23 -123.5t63 -93.5q64 -57 153 -57q102 0 168 69q76 81 76 203q0 138 -82 217q-62 62 -162 62zM381 1126q0 56 39 95t94 39t94 -39t39 -95t-38.5 -94.5
t-94.5 -38.5t-94.5 38.5t-38.5 94.5z" />
    <glyph glyph-name="Gcommaaccent" unicode="&#x122;" horiz-adv-x="1531" 
d="M870 518v193h564v-11q0 -356 -203 -553q-179 -174 -465 -174q-149 0 -260 45t-205 142q-99 102 -151 234.5t-52 281.5q0 153 55 287t144 223q91 93 226 149t288 56q201 0 356 -86q141 -79 222 -205l-166 -117q-75 104 -168 156q-100 59 -242 59q-219 0 -360 -141
q-68 -68 -107 -170.5t-39 -212.5q0 -103 37.5 -201t104.5 -170q129 -137 342 -137q181 0 305 121q100 98 114 231h-340zM573 -496l148 394l180 -70l-184 -381z" />
    <glyph glyph-name="gcommaaccent" unicode="&#x123;" horiz-adv-x="1085" 
d="M758 768v94h200v-792q0 -169 -29 -274t-112 -175q-112 -92 -287 -92q-176 0 -282 106q-48 48 -82.5 120t-44.5 149h194q14 -82 64 -135q56 -60 156 -60q99 0 157 58q23 22 38 49.5t20 60.5t6.5 53.5t1.5 53.5v112q-97 -123 -262 -123q-173 0 -285 117q-129 136 -129 342
q0 207 127 334q116 119 293 119q158 0 256 -117zM526 705q-90 0 -151 -58q-40 -37 -64 -94.5t-24 -124.5q0 -65 23 -123.5t63 -93.5q64 -57 153 -57q102 0 168 69q76 81 76 203q0 138 -82 217q-62 62 -162 62zM748 1374l-148 -393l-180 70l184 381z" />
    <glyph glyph-name="Hcircumflex" unicode="&#x124;" horiz-adv-x="1331" 
d="M373 1366v-541h585v541h209v-1366h-209v629h-585v-629h-209v1366h209zM666 1663l-203 -168l-135 115l338 274l338 -274l-136 -115z" />
    <glyph glyph-name="hcircumflex" unicode="&#x125;" horiz-adv-x="995" 
d="M127 0v1493h201v-705q95 97 231 97q170 0 254 -117q55 -81 55 -240v-528h-200v510q0 34 -1.5 53.5t-10.5 47.5t-27 48q-42 46 -113 46q-48 0 -86.5 -20.5t-60.5 -51.5q-41 -58 -41 -217v-416h-201zM225 1661l-180 -176l-135 106l315 283l316 -283l-135 -106z" />
    <glyph glyph-name="Hbar" unicode="&#x126;" horiz-adv-x="1331" 
d="M373 1366v-109h585v109h209v-109h123v-172h-123v-1085h-209v629h-585v-629h-209v1085h-123v172h123v109h209zM958 1085h-585v-260h585v260z" />
    <glyph glyph-name="hbar" unicode="&#x127;" horiz-adv-x="995" 
d="M127 0v1130h-147v156h147v207h201v-207h409v-156h-409v-342q95 97 231 97q170 0 254 -117q55 -81 55 -240v-528h-200v510q0 34 -1.5 53.5t-10.5 47.5t-27 48q-42 46 -113 46q-48 0 -86.5 -20.5t-60.5 -51.5q-41 -58 -41 -217v-416h-201z" />
    <glyph glyph-name="Imacron" unicode="&#x12a;" horiz-adv-x="536" 
d="M164 1366h209v-1366h-209v1366zM-20 1501v164h577v-164h-577z" />
    <glyph glyph-name="imacron" unicode="&#x12b;" horiz-adv-x="454" 
d="M127 862h201v-862h-201v862zM-20 1040v160h495v-160h-495z" />
    <glyph glyph-name="Iogonek" unicode="&#x12e;" horiz-adv-x="536" 
d="M164 1366h209v-1366q-66 -36 -105 -80q-43 -46 -43 -92q0 -64 82 -64q38 0 107 15l-19 -144q-67 -30 -133 -30q-86 0 -145.5 49.5t-59.5 130.5q0 70 54 131q38 44 102 84h-49v1366z" />
    <glyph glyph-name="iogonek" unicode="&#x12f;" horiz-adv-x="454" 
d="M127 862h201v-862q-66 -36 -105 -80q-43 -46 -43 -92q0 -64 82 -64q46 0 107 15l-19 -127q-55 -39 -127 -39q-84 0 -143.5 48t-59.5 124q0 70 54 131q41 47 104 84h-51v862zM98 1219q0 55 37 92t92 37t92 -37t37 -92t-37 -92t-92 -37t-92 37t-37 92z" />
    <glyph glyph-name="Idotaccent" unicode="&#x130;" horiz-adv-x="536" 
d="M164 1366h209v-1366h-209v1366zM131 1640q0 59 39.5 98.5t97.5 39.5t98 -40t40 -98t-39.5 -97.5t-98.5 -39.5q-58 0 -97.5 39.5t-39.5 97.5z" />
    <glyph glyph-name="dotlessi" unicode="&#x131;" horiz-adv-x="454" 
d="M127 862h201v-862h-201v862z" />
    <glyph glyph-name="Jcircumflex" unicode="&#x134;" horiz-adv-x="741" 
d="M369 1366h209v-885q0 -100 -10 -173.5t-42 -137.5q-18 -36 -43 -67.5t-63 -62.5t-93.5 -49t-121.5 -18q-136 0 -242 70l103 176q58 -49 143 -49q100 0 137 92q23 59 23 219v885zM471 1663l-203 -168l-135 115l338 274l338 -274l-135 -115z" />
    <glyph glyph-name="jcircumflex" unicode="&#x135;" horiz-adv-x="454" 
d="M127 862h201v-1331h-201v1331zM227 1169l-180 -176l-135 107l315 282l316 -282l-135 -107z" />
    <glyph glyph-name="Kcommaaccent" unicode="&#x136;" horiz-adv-x="1200" 
d="M373 1366v-545l528 545h275l-617 -618l621 -748h-279l-487 606l-41 -41v-565h-209v1366h209zM389 -496l148 394l180 -70l-185 -381z" />
    <glyph glyph-name="kcommaaccent" unicode="&#x137;" horiz-adv-x="905" 
d="M127 1493h201v-920l280 289h266l-370 -358l397 -504h-254l-282 369l-37 -37v-332h-201v1493zM266 -496l148 394l180 -70l-184 -381z" />
    <glyph glyph-name="Lacute" unicode="&#x139;" horiz-adv-x="806" 
d="M164 1366h209v-1169h401v-197h-610v1366zM315 1489l-98 82l283 284l176 -122z" />
    <glyph glyph-name="lacute" unicode="&#x13a;" horiz-adv-x="454" 
d="M127 1493h201v-1493h-201v1493zM358 1915l185 -94l-320 -295l-110 69z" />
    <glyph glyph-name="Lcommaaccent" unicode="&#x13b;" horiz-adv-x="806" 
d="M164 1366h209v-1169h401v-197h-610v1366zM266 -496l148 394l180 -70l-184 -381z" />
    <glyph glyph-name="lcommaaccent" unicode="&#x13c;" horiz-adv-x="454" 
d="M127 1493h201v-1493h-201v1493zM41 -496l147 394l181 -70l-185 -381z" />
    <glyph glyph-name="Lcaron" unicode="&#x13d;" horiz-adv-x="806" 
d="M164 1366h209v-1169h401v-197h-610v1366zM471 958l168 435l180 -70l-213 -422z" />
    <glyph glyph-name="lcaron" unicode="&#x13e;" horiz-adv-x="675" 
d="M127 1493h201v-1493h-201v1493zM389 979l168 434l180 -70l-213 -421z" />
    <glyph glyph-name="Ldot" unicode="&#x13f;" horiz-adv-x="806" 
d="M164 1366h209v-1169h401v-197h-610v1366zM522 684q0 58 39 97.5t98 39.5t98.5 -39.5t39.5 -97.5t-39.5 -97.5t-98.5 -39.5t-98 39.5t-39 97.5z" />
    <glyph glyph-name="ldot" unicode="&#x140;" horiz-adv-x="720" 
d="M127 1493h201v-1493h-201v1493zM455 743q0 56 39 95t94 39t94 -39t39 -95q0 -55 -38.5 -94t-94.5 -39t-94.5 39t-38.5 94z" />
    <glyph glyph-name="Lslash" unicode="&#x141;" horiz-adv-x="806" 
d="M164 1366h209v-514l245 158v-172l-245 -158v-483h401v-197h-610v588l-164 -105v172l164 105v606z" />
    <glyph glyph-name="lslash" unicode="&#x142;" horiz-adv-x="454" 
d="M127 1493h201v-440l127 98v-164l-127 -98v-889h-201v766l-127 -98v163l127 99v563z" />
    <glyph glyph-name="Nacute" unicode="&#x143;" horiz-adv-x="1527" 
d="M373 0h-209v1458l991 -1038v946h209v-1450l-991 1038v-954zM731 1489l-98 82l282 284l177 -122z" />
    <glyph glyph-name="nacute" unicode="&#x144;" horiz-adv-x="993" 
d="M125 0v862h201v-80q92 103 233 103q169 0 254 -117q53 -75 53 -240v-528h-200v479q0 53 -6 92.5t-18.5 63.5t-25.5 39t-34 21.5t-35.5 8t-38.5 1.5q-33 0 -54 -3t-48 -19t-42.5 -45.5t-26.5 -86t-11 -137.5v-414h-201zM651 1382l185 -94l-320 -295l-110 70z" />
    <glyph glyph-name="Ncommaaccent" unicode="&#x145;" horiz-adv-x="1527" 
d="M373 0h-209v1458l991 -1038v946h209v-1450l-991 1038v-954zM573 -496l148 394l180 -70l-184 -381z" />
    <glyph glyph-name="ncommaaccent" unicode="&#x146;" horiz-adv-x="993" 
d="M125 0v862h201v-80q92 103 233 103q169 0 254 -117q53 -75 53 -240v-528h-200v479q0 53 -6 92.5t-18.5 63.5t-25.5 39t-34 21.5t-35.5 8t-38.5 1.5q-33 0 -54 -3t-48 -19t-42.5 -45.5t-26.5 -86t-11 -137.5v-414h-201zM287 -496l147 394l180 -70l-184 -381z" />
    <glyph glyph-name="Ncaron" unicode="&#x147;" horiz-adv-x="1527" 
d="M373 0h-209v1458l991 -1038v946h209v-1450l-991 1038v-954zM764 1716l203 168l135 -115l-338 -274l-338 274l135 115z" />
    <glyph glyph-name="ncaron" unicode="&#x148;" horiz-adv-x="993" 
d="M125 0v862h201v-80q92 103 233 103q169 0 254 -117q53 -75 53 -240v-528h-200v479q0 53 -6 92.5t-18.5 63.5t-25.5 39t-34 21.5t-35.5 8t-38.5 1.5q-33 0 -54 -3t-48 -19t-42.5 -45.5t-26.5 -86t-11 -137.5v-414h-201zM532 1206l181 176l135 -106l-316 -283l-315 283
l135 106z" />
    <glyph glyph-name="Omacron" unicode="&#x14c;" horiz-adv-x="1617" 
d="M809 1391q151 0 283.5 -54.5t226 -149t147.5 -226t54 -279.5t-54 -279.5t-147.5 -226t-226 -149t-283.5 -54.5t-283.5 54.5t-226 149t-147.5 226t-54 279.5t54 279.5t147.5 226t226 149t283.5 54.5zM809 166q220 0 361 144.5t141 371.5t-141 371.5t-361 144.5
t-361 -144.5t-141 -371.5t141 -371.5t361 -144.5zM440 1501v164h738v-164h-738z" />
    <glyph glyph-name="omacron" unicode="&#x14d;" horiz-adv-x="1085" 
d="M543 885q197 0 329 -128.5t132 -326.5q0 -197 -132.5 -327t-328.5 -130t-328.5 130t-132.5 327q0 198 132 326.5t329 128.5zM543 154q118 0 187 74.5t69 199.5q0 71 -22 126t-59 87t-81.5 48t-93.5 16t-93.5 -16t-81.5 -48t-59 -87t-22 -126q0 -125 69 -199.5t187 -74.5z
M205 1040v160h676v-160h-676z" />
    <glyph glyph-name="Obreve" unicode="&#x14e;" horiz-adv-x="1617" 
d="M809 1391q151 0 283.5 -54.5t226 -149t147.5 -226t54 -279.5t-54 -279.5t-147.5 -226t-226 -149t-283.5 -54.5t-283.5 54.5t-226 149t-147.5 226t-54 279.5t54 279.5t147.5 226t226 149t283.5 54.5zM809 166q220 0 361 144.5t141 371.5t-141 371.5t-361 144.5
t-361 -144.5t-141 -371.5t141 -371.5t361 -144.5zM989 1790h168q-19 -100 -82 -176q-39 -47 -105.5 -83t-160.5 -36t-160.5 36t-105.5 83q-63 76 -82 176h168q19 -68 69 -100q45 -31 111 -31t111 31q50 32 69 100z" />
    <glyph glyph-name="obreve" unicode="&#x14f;" horiz-adv-x="1085" 
d="M543 885q197 0 329 -128.5t132 -326.5q0 -197 -132.5 -327t-328.5 -130t-328.5 130t-132.5 327q0 198 132 326.5t329 128.5zM543 154q118 0 187 74.5t69 199.5q0 71 -22 126t-59 87t-81.5 48t-93.5 16t-93.5 -16t-81.5 -48t-59 -87t-22 -126q0 -125 69 -199.5t187 -74.5z
M713 1307h161q-13 -63 -37 -110.5t-40 -63.5q-83 -103 -250 -103q-170 0 -256 100q-61 75 -80 177h162q19 -67 61 -101q38 -32 107 -32t108 30q47 35 64 103z" />
    <glyph glyph-name="Ohungarumlaut" unicode="&#x150;" horiz-adv-x="1617" 
d="M809 1391q151 0 283.5 -54.5t226 -149t147.5 -226t54 -279.5t-54 -279.5t-147.5 -226t-226 -149t-283.5 -54.5t-283.5 54.5t-226 149t-147.5 226t-54 279.5t54 279.5t147.5 226t226 149t283.5 54.5zM809 166q220 0 361 144.5t141 371.5t-141 371.5t-361 144.5
t-361 -144.5t-141 -371.5t141 -371.5t361 -144.5zM772 1855l160 -106l-320 -260l-90 74zM1182 1855l159 -106l-319 -260l-90 74z" />
    <glyph glyph-name="ohungarumlaut" unicode="&#x151;" horiz-adv-x="1085" 
d="M543 885q197 0 329 -128.5t132 -326.5q0 -197 -132.5 -327t-328.5 -130t-328.5 130t-132.5 327q0 198 132 326.5t329 128.5zM543 154q118 0 187 74.5t69 199.5q0 71 -22 126t-59 87t-81.5 48t-93.5 16t-93.5 -16t-81.5 -48t-59 -87t-22 -126q0 -125 69 -199.5t187 -74.5z
M506 1382l168 -94l-299 -295l-86 70zM874 1382l168 -94l-299 -295l-86 70z" />
    <glyph glyph-name="OE" unicode="&#x152;" horiz-adv-x="2166" 
d="M2060 1366v-197h-544v-325h528v-197h-528v-450h544v-197h-753v188q-54 -63 -122 -108t-136.5 -67t-126 -31t-113.5 -9q-201 0 -364.5 94t-255 256.5t-91.5 358.5q0 148 54 279.5t147.5 226t226 149t283.5 54.5q37 0 73 -3t94 -16.5t110 -35.5t112 -65.5t109 -101.5v197
h753zM809 1198q-220 0 -361 -144.5t-141 -371.5t141 -371.5t361 -144.5t361 144.5t141 371.5t-141 371.5t-361 144.5z" />
    <glyph glyph-name="oe" unicode="&#x153;" horiz-adv-x="1716" 
d="M1460 291l168 -94q-57 -102 -145 -158q-106 -66 -248 -66q-122 0 -205 45q-85 45 -131 121q-66 -83 -156 -125q-90 -41 -213 -41q-192 0 -317 131q-131 134 -131 336q0 176 117 301q62 64 151 104t193 40q119 0 209 -43q92 -43 147 -123q52 77 135 123q84 43 203 43
q169 0 276 -113q121 -125 121 -364v-25h-618q3 -47 23 -95t51 -79q55 -55 153 -55q80 0 137 43q50 38 80 94zM543 154q101 0 178 67q78 75 78 207q0 129 -68 201q-73 76 -188 76q-111 0 -181 -70q-37 -37 -56 -93.5t-19 -115.5q0 -57 20 -113t58 -94q65 -65 178 -65z
M1030 547h400q-12 70 -62 117q-53 49 -135 49q-85 0 -141 -56q-46 -43 -62 -110z" />
    <glyph glyph-name="Racute" unicode="&#x154;" horiz-adv-x="1093" 
d="M164 1366h244q127 0 211 -18t149 -62q52 -35 87.5 -82t50 -95.5t19.5 -80.5t5 -63q0 -146 -82.5 -248t-220.5 -133l426 -584h-252l-391 559h-37v-559h-209v1366zM373 1174v-435h65q21 0 42 2t58 8t67.5 21t60 38t46.5 63t17 92q0 211 -285 211h-71zM479 1489l-98 82
l283 284l176 -122z" />
    <glyph glyph-name="racute" unicode="&#x155;" horiz-adv-x="679" 
d="M127 0v862h201v-78q41 48 84 72q49 29 123 29q89 0 157 -41l-82 -182q-47 30 -102 30q-80 0 -125 -47q-19 -21 -31.5 -46.5t-17 -55.5t-5.5 -48.5t-1 -48.5v-446h-201zM584 1382l184 -94l-319 -295l-111 70z" />
    <glyph glyph-name="Rcommaaccent" unicode="&#x156;" horiz-adv-x="1093" 
d="M164 1366h244q127 0 211 -18t149 -62q52 -35 87.5 -82t50 -95.5t19.5 -80.5t5 -63q0 -146 -82.5 -248t-220.5 -133l426 -584h-252l-391 559h-37v-559h-209v1366zM373 1174v-435h65q21 0 42 2t58 8t67.5 21t60 38t46.5 63t17 92q0 211 -285 211h-71zM369 -496l147 394
l180 -70l-184 -381z" />
    <glyph glyph-name="rcommaaccent" unicode="&#x157;" horiz-adv-x="679" 
d="M127 0v862h201v-78q41 48 84 72q49 29 123 29q89 0 157 -41l-82 -182q-47 30 -102 30q-80 0 -125 -47q-19 -21 -31.5 -46.5t-17 -55.5t-5.5 -48.5t-1 -48.5v-446h-201zM143 -496l148 394l180 -70l-184 -381z" />
    <glyph glyph-name="Rcaron" unicode="&#x158;" horiz-adv-x="1093" 
d="M164 1366h244q127 0 211 -18t149 -62q52 -35 87.5 -82t50 -95.5t19.5 -80.5t5 -63q0 -146 -82.5 -248t-220.5 -133l426 -584h-252l-391 559h-37v-559h-209v1366zM373 1174v-435h65q21 0 42 2t58 8t67.5 21t60 38t46.5 63t17 92q0 211 -285 211h-71zM492 1716l202 168
l135 -115l-337 -274l-338 274l135 115z" />
    <glyph glyph-name="rcaron" unicode="&#x159;" horiz-adv-x="679" 
d="M127 0v862h201v-78q41 48 84 72q49 29 123 29q89 0 157 -41l-82 -182q-47 30 -102 30q-80 0 -125 -47q-19 -21 -31.5 -46.5t-17 -55.5t-5.5 -48.5t-1 -48.5v-446h-201zM430 1206l180 176l135 -106l-315 -283l-315 283l135 106z" />
    <glyph glyph-name="Sacute" unicode="&#x15a;" horiz-adv-x="1056" 
d="M922 1161l-168 -98q-19 48 -62 86q-60 49 -147 49q-91 0 -142 -47t-51 -117q0 -107 148 -166l137 -55q177 -72 249 -172t72 -229q0 -194 -123.5 -316.5t-316.5 -122.5q-197 0 -321 138q-102 113 -115 266l207 45q0 -100 57 -174q65 -82 178 -82q97 0 161.5 64t64.5 165
q0 49 -17 89t-49 67.5t-61.5 44t-69.5 33.5l-131 55q-279 116 -279 346q0 70 27 134.5t76.5 115t126.5 81t170 30.5q166 0 274 -93q65 -58 105 -137zM496 1489l-99 82l283 284l176 -122z" />
    <glyph glyph-name="sacute" unicode="&#x15b;" horiz-adv-x="737" 
d="M653 733l-149 -98q-45 74 -123 74q-39 0 -62 -23q-18 -18 -18 -45q0 -30 29 -49q5 -3 12 -6.5t22 -11.5t33 -17l103 -51q88 -45 121 -80q63 -63 63 -160q0 -114 -76 -196q-89 -97 -241 -97q-114 0 -187 56q-78 59 -110 157l163 78q20 -57 48 -82q32 -32 88 -32
q54 0 82 28t28 68q0 36 -26 65q-30 30 -86 54l-74 34q-84 39 -119 74q-61 58 -61 145q0 111 71 185q78 82 211 82q93 0 160 -45q58 -36 98 -107zM522 1382l185 -94l-320 -295l-111 70z" />
    <glyph glyph-name="Scircumflex" unicode="&#x15c;" horiz-adv-x="1056" 
d="M922 1161l-168 -98q-19 48 -62 86q-60 49 -147 49q-91 0 -142 -47t-51 -117q0 -107 148 -166l137 -55q177 -72 249 -172t72 -229q0 -194 -123.5 -316.5t-316.5 -122.5q-197 0 -321 138q-102 113 -115 266l207 45q0 -100 57 -174q65 -82 178 -82q97 0 161.5 64t64.5 165
q0 49 -17 89t-49 67.5t-61.5 44t-69.5 33.5l-131 55q-279 116 -279 346q0 70 27 134.5t76.5 115t126.5 81t170 30.5q166 0 274 -93q65 -58 105 -137zM532 1663l-202 -168l-135 115l337 274l338 -274l-135 -115z" />
    <glyph glyph-name="scircumflex" unicode="&#x15d;" horiz-adv-x="737" 
d="M653 733l-149 -98q-45 74 -123 74q-39 0 -62 -23q-18 -18 -18 -45q0 -30 29 -49q5 -3 12 -6.5t22 -11.5t33 -17l103 -51q88 -45 121 -80q63 -63 63 -160q0 -114 -76 -196q-89 -97 -241 -97q-114 0 -187 56q-78 59 -110 157l163 78q20 -57 48 -82q32 -32 88 -32
q54 0 82 28t28 68q0 36 -26 65q-30 30 -86 54l-74 34q-84 39 -119 74q-61 58 -61 145q0 111 71 185q78 82 211 82q93 0 160 -45q58 -36 98 -107zM369 1169l-181 -176l-135 107l316 282l315 -282l-135 -107z" />
    <glyph glyph-name="Scedilla" unicode="&#x15e;" horiz-adv-x="1056" 
d="M922 1161l-168 -98q-19 48 -62 86q-60 49 -147 49q-91 0 -142 -47t-51 -117q0 -107 148 -166l137 -55q177 -72 249 -172t72 -229q0 -194 -123.5 -316.5t-316.5 -122.5q-197 0 -321 138q-102 113 -115 266l207 45q0 -100 57 -174q65 -82 178 -82q97 0 161.5 64t64.5 165
q0 49 -17 89t-49 67.5t-61.5 44t-69.5 33.5l-131 55q-279 116 -279 346q0 70 27 134.5t76.5 115t126.5 81t170 30.5q166 0 274 -93q65 -58 105 -137zM492 -109l176 -77l-230 -273l-131 66z" />
    <glyph glyph-name="scedilla" unicode="&#x15f;" horiz-adv-x="737" 
d="M653 733l-149 -98q-45 74 -123 74q-39 0 -62 -23q-18 -18 -18 -45q0 -30 29 -49q5 -3 12 -6.5t22 -11.5t33 -17l103 -51q88 -45 121 -80q63 -63 63 -160q0 -114 -76 -196q-89 -97 -241 -97q-114 0 -187 56q-78 59 -110 157l163 78q20 -57 48 -82q32 -32 88 -32
q54 0 82 28t28 68q0 36 -26 65q-30 30 -86 54l-74 34q-84 39 -119 74q-61 58 -61 145q0 111 71 185q78 82 211 82q93 0 160 -45q58 -36 98 -107zM344 -109l168 -65l-209 -275l-131 66z" />
    <glyph glyph-name="Scaron" unicode="&#x160;" horiz-adv-x="1056" 
d="M922 1161l-168 -98q-19 48 -62 86q-60 49 -147 49q-91 0 -142 -47t-51 -117q0 -107 148 -166l137 -55q177 -72 249 -172t72 -229q0 -194 -123.5 -316.5t-316.5 -122.5q-197 0 -321 138q-102 113 -115 266l207 45q0 -100 57 -174q65 -82 178 -82q97 0 161.5 64t64.5 165
q0 49 -17 89t-49 67.5t-61.5 44t-69.5 33.5l-131 55q-279 116 -279 346q0 70 27 134.5t76.5 115t126.5 81t170 30.5q166 0 274 -93q65 -58 105 -137zM532 1716l203 168l135 -115l-338 -274l-337 274l135 115z" />
    <glyph glyph-name="scaron" unicode="&#x161;" horiz-adv-x="737" 
d="M653 733l-149 -98q-45 74 -123 74q-39 0 -62 -23q-18 -18 -18 -45q0 -30 29 -49q5 -3 12 -6.5t22 -11.5t33 -17l103 -51q88 -45 121 -80q63 -63 63 -160q0 -114 -76 -196q-89 -97 -241 -97q-114 0 -187 56q-78 59 -110 157l163 78q20 -57 48 -82q32 -32 88 -32
q54 0 82 28t28 68q0 36 -26 65q-30 30 -86 54l-74 34q-84 39 -119 74q-61 58 -61 145q0 111 71 185q78 82 211 82q93 0 160 -45q58 -36 98 -107zM369 1206l180 176l135 -106l-315 -283l-316 283l135 106z" />
    <glyph glyph-name="Tcedilla" unicode="&#x162;" horiz-adv-x="876" 
d="M856 1169h-313v-1169h-209v1169h-314v197h836v-197zM410 -109l176 -77l-230 -273l-131 66z" />
    <glyph glyph-name="tcedilla" unicode="&#x163;" horiz-adv-x="495" 
d="M487 678h-153v-678h-201v678h-84v184h84v316h201v-316h153v-184zM201 -109l168 -65l-209 -275l-131 66z" />
    <glyph glyph-name="Tcaron" unicode="&#x164;" horiz-adv-x="876" 
d="M856 1169h-313v-1169h-209v1169h-314v197h836v-197zM438 1716l203 168l135 -115l-338 -274l-338 274l136 115z" />
    <glyph glyph-name="tcaron" unicode="&#x165;" horiz-adv-x="696" 
d="M487 678h-153v-678h-201v678h-84v184h84v316h201v-316h153v-184zM410 979l168 434l180 -70l-213 -421z" />
    <glyph glyph-name="Utilde" unicode="&#x168;" horiz-adv-x="1339" 
d="M164 1366h209v-823q0 -160 43 -236q34 -58 101.5 -99.5t152.5 -41.5t152.5 41.5t101.5 99.5q43 76 43 236v823h209v-879q0 -214 -127 -354q-148 -160 -379 -160t-379 160q-127 140 -127 354v879zM920 1704l118 -94q-81 -176 -237 -176q-24 0 -45.5 5.5t-31 9.5t-36.5 17
q-82 43 -86 45q-48 21 -76 21q-74 0 -104 -94l-121 84q36 65 86 110q67 56 143 56q43 0 101 -21q35 -13 94 -47q52 -31 84 -31q48 0 75 37t36 78z" />
    <glyph glyph-name="utilde" unicode="&#x169;" horiz-adv-x="991" 
d="M127 862h201v-493q0 -108 37 -156q46 -59 131 -59t131 59q37 48 37 156v493h200v-500q0 -95 -18.5 -161t-73.5 -121q-107 -107 -280 -107q-169 0 -273 107q-55 55 -73.5 121t-18.5 161v500zM745 1274l119 -94q-81 -176 -237 -176q-24 0 -45.5 5.5t-31 9.5t-36.5 17
q-82 43 -86 45q-48 21 -76 21q-74 0 -104 -94l-121 84q36 65 86 110q66 55 143 55q46 0 101 -20q35 -13 94 -47q52 -31 84 -31q48 0 74.5 37t35.5 78z" />
    <glyph glyph-name="Umacron" unicode="&#x16a;" horiz-adv-x="1339" 
d="M164 1366h209v-823q0 -160 43 -236q34 -58 101.5 -99.5t152.5 -41.5t152.5 41.5t101.5 99.5q43 76 43 236v823h209v-879q0 -214 -127 -354q-148 -160 -379 -160t-379 160q-127 140 -127 354v879zM301 1501v164h737v-164h-737z" />
    <glyph glyph-name="umacron" unicode="&#x16b;" horiz-adv-x="991" 
d="M127 862h201v-493q0 -108 37 -156q46 -59 131 -59t131 59q37 48 37 156v493h200v-500q0 -95 -18.5 -161t-73.5 -121q-107 -107 -280 -107q-169 0 -273 107q-55 55 -73.5 121t-18.5 161v500zM158 1040v160h676v-160h-676z" />
    <glyph glyph-name="Ubreve" unicode="&#x16c;" horiz-adv-x="1339" 
d="M164 1366h209v-823q0 -160 43 -236q34 -58 101.5 -99.5t152.5 -41.5t152.5 41.5t101.5 99.5q43 76 43 236v823h209v-879q0 -214 -127 -354q-148 -160 -379 -160t-379 160q-127 140 -127 354v879zM850 1790h168q-19 -100 -82 -176q-39 -47 -105.5 -83t-160.5 -36t-161 36
t-106 83q-62 74 -81 176h167q19 -67 70 -100q45 -31 111 -31q65 0 110 31q51 33 70 100z" />
    <glyph glyph-name="ubreve" unicode="&#x16d;" horiz-adv-x="991" 
d="M127 862h201v-493q0 -108 37 -156q46 -59 131 -59t131 59q37 48 37 156v493h200v-500q0 -95 -18.5 -161t-73.5 -121q-107 -107 -280 -107q-169 0 -273 107q-55 55 -73.5 121t-18.5 161v500zM666 1307h161q-13 -63 -37 -110.5t-40 -63.5q-83 -103 -250 -103
q-170 0 -256 100q-61 75 -80 177h162q19 -67 61 -101q38 -32 107 -32t108 30q47 35 64 103z" />
    <glyph glyph-name="Uring" unicode="&#x16e;" horiz-adv-x="1339" 
d="M164 1366h209v-823q0 -160 43 -236q34 -58 101.5 -99.5t152.5 -41.5t152.5 41.5t101.5 99.5q43 76 43 236v823h209v-879q0 -214 -127 -354q-148 -160 -379 -160t-379 160q-127 140 -127 354v879zM471 1686q0 83 59 140.5t140 57.5q83 0 140.5 -57.5t57.5 -140.5
q0 -81 -57.5 -140t-140.5 -59q-82 0 -140.5 58.5t-58.5 140.5zM582 1686q0 -37 25.5 -63t62.5 -26t62.5 26t25.5 63t-25.5 62.5t-62.5 25.5t-62.5 -25.5t-25.5 -62.5z" />
    <glyph glyph-name="uring" unicode="&#x16f;" horiz-adv-x="991" 
d="M127 862h201v-493q0 -108 37 -156q46 -59 131 -59t131 59q37 48 37 156v493h200v-500q0 -95 -18.5 -161t-73.5 -121q-107 -107 -280 -107q-169 0 -273 107q-55 55 -73.5 121t-18.5 161v500zM303 1186q0 78 57.5 135t135.5 57t135 -57t57 -135t-57 -135.5t-135 -57.5
t-135.5 57.5t-57.5 135.5zM408 1186q0 -37 25.5 -62.5t62.5 -25.5t62.5 25.5t25.5 62.5t-25.5 62.5t-62.5 25.5t-62.5 -25.5t-25.5 -62.5z" />
    <glyph glyph-name="Uhungarumlaut" unicode="&#x170;" horiz-adv-x="1339" 
d="M164 1366h209v-823q0 -160 43 -236q34 -58 101.5 -99.5t152.5 -41.5t152.5 41.5t101.5 99.5q43 76 43 236v823h209v-879q0 -214 -127 -354q-148 -160 -379 -160t-379 160q-127 140 -127 354v879zM633 1855l160 -106l-320 -260l-90 74zM1042 1855l160 -106l-319 -260
l-90 74z" />
    <glyph glyph-name="uhungarumlaut" unicode="&#x171;" horiz-adv-x="991" 
d="M127 862h201v-493q0 -108 37 -156q46 -59 131 -59t131 59q37 48 37 156v493h200v-500q0 -95 -18.5 -161t-73.5 -121q-107 -107 -280 -107q-169 0 -273 107q-55 55 -73.5 121t-18.5 161v500zM459 1382l168 -94l-299 -295l-86 70zM827 1382l168 -94l-299 -295l-86 70z" />
    <glyph glyph-name="Uogonek" unicode="&#x172;" horiz-adv-x="1339" 
d="M164 1366h209v-823q0 -161 43 -236q34 -58 101.5 -99.5t152.5 -41.5t152.5 41.5t101.5 99.5q28 47 35.5 102t7.5 134v823h209v-879q0 -87 -18.5 -165t-76.5 -152q-67 -86 -186 -154q-18 -11 -51 -28t-55 -30t-39 -28q-56 -44 -56 -102q0 -32 25 -51q22 -17 57 -17
q55 0 107 19l-19 -144q-62 -30 -133 -30q-102 0 -162 63q-43 46 -43 117q0 64 45 121q25 35 78 74q-103 0 -197.5 39.5t-160.5 113.5q-127 140 -127 354v879z" />
    <glyph glyph-name="uogonek" unicode="&#x173;" horiz-adv-x="991" 
d="M127 862h201v-495q0 -106 37 -156q45 -57 131 -57t131 57q37 50 37 156v495h200v-500q0 -58 -4 -96t-25.5 -91.5t-62.5 -94.5q-11 -11 -23.5 -21.5t-29 -21.5t-24.5 -16t-29.5 -18t-24.5 -15q-80 -50 -100 -72q-41 -44 -41 -86q0 -34 20 -51q21 -19 70 -19q46 0 98 19
l-18 -127q-62 -39 -125 -39q-105 0 -160 59q-45 45 -45 113q0 60 39 111q31 42 80 79q-146 11 -240 105q-41 41 -62.5 94.5t-25.5 91.5t-4 96v500z" />
    <glyph glyph-name="Ydieresis" unicode="&#x178;" horiz-adv-x="1105" 
d="M449 0v590l-449 776h238l315 -547l315 547h238l-449 -776v-590h-208zM225 1628q0 54 36.5 90.5t90.5 36.5t90.5 -36.5t36.5 -90.5t-36.5 -90.5t-90.5 -36.5t-90.5 36.5t-36.5 90.5zM627 1628q0 54 36.5 90.5t90.5 36.5t90.5 -36.5t36.5 -90.5t-36.5 -90.5t-90.5 -36.5
t-90.5 36.5t-36.5 90.5z" />
    <glyph glyph-name="Zacute" unicode="&#x179;" horiz-adv-x="1134" 
d="M1073 1366l-672 -1169h656v-197h-996l672 1169h-561v197h901zM561 1489l-98 82l282 284l177 -122z" />
    <glyph glyph-name="zacute" unicode="&#x17a;" horiz-adv-x="983" 
d="M967 862l-555 -678h512v-184h-908l559 678h-440v184h832zM645 1382l184 -94l-319 -295l-111 70z" />
    <glyph glyph-name="Zdotaccent" unicode="&#x17b;" horiz-adv-x="1134" 
d="M1073 1366l-672 -1169h656v-197h-996l672 1169h-561v197h901zM457 1640q0 59 39.5 98.5t97.5 39.5t97.5 -39.5t39.5 -98.5q0 -58 -39.5 -97.5t-97.5 -39.5t-97.5 39.5t-39.5 97.5z" />
    <glyph glyph-name="zdotaccent" unicode="&#x17c;" horiz-adv-x="983" 
d="M967 862l-555 -678h512v-184h-908l559 678h-440v184h832zM399 1126q0 56 39 95t94 39q56 0 95 -39t39 -95q0 -55 -39 -94t-95 -39t-94.5 38.5t-38.5 94.5z" />
    <glyph glyph-name="Zcaron" unicode="&#x17d;" horiz-adv-x="1134" 
d="M1073 1366l-672 -1169h656v-197h-996l672 1169h-561v197h901zM594 1716l203 168l135 -115l-338 -274l-338 274l135 115z" />
    <glyph glyph-name="zcaron" unicode="&#x17e;" horiz-adv-x="983" 
d="M967 862l-555 -678h512v-184h-908l559 678h-440v184h832zM532 1206l181 176l135 -106l-316 -283l-315 283l135 106z" />
    <glyph glyph-name="uni018F" unicode="&#x18f;" horiz-adv-x="1531" 
d="M305 979l-147 135q66 87 149 146q181 131 416 131q314 0 516 -209q195 -202 195 -500q0 -301 -209 -510q-199 -199 -490 -199q-328 0 -508 254q-129 182 -129 441v63h1125q-10 139 -81.5 247t-181 164t-237.5 56q-77 0 -146 -20.5t-120.5 -56t-87.5 -69.5t-64 -73z
M1206 539h-884q13 -132 90 -228q116 -145 325 -145q115 0 208 43t155 115q78 90 106 215z" />
    <glyph glyph-name="florin" unicode="&#x192;" horiz-adv-x="1163" 
d="M1040 1497l-36 -190q-44 20 -91 20q-64 0 -104 -43q-37 -42 -57 -151l-50 -271h230l-29 -160h-229l-105 -571q-15 -79 -22 -111.5t-25 -94.5t-42.5 -103.5t-57.5 -73.5q-61 -59 -160.5 -88t-220.5 -20l33 190h12q129 0 184 55q26 25 45 70.5t26.5 79.5t18.5 94l105 573
h-174l28 160h175l53 295q32 183 119 270q89 89 235 89q71 0 139 -19z" />
    <glyph glyph-name="uni01CF" unicode="&#x1cf;" horiz-adv-x="536" 
d="M164 1366h209v-1366h-209v1366zM268 1716l162 158l121 -100l-283 -269l-282 269l120 100z" />
    <glyph glyph-name="uni01D0" unicode="&#x1d0;" horiz-adv-x="454" 
d="M127 862h201v-862h-201v862zM227 1214l144 150l110 -94l-254 -256l-254 256l111 94z" />
    <glyph glyph-name="uni01DD" unicode="&#x1dd;" horiz-adv-x="999" 
d="M272 598l-182 61q51 105 150 164q105 62 239 62q190 0 305 -107q61 -57 97.5 -148.5t36.5 -207.5q0 -211 -132 -340q-112 -109 -290 -109q-171 0 -277 103q-62 61 -99.5 157t-37.5 211v52h627q-4 45 -24 87.5t-48 67.5q-57 54 -160 54q-76 0 -129 -33q-40 -22 -76 -74z
M694 332h-399q5 -39 21 -78t40 -61q48 -48 136 -48q85 0 139 54t63 133z" />
    <glyph glyph-name="Gcaron" unicode="&#x1e6;" horiz-adv-x="1531" 
d="M870 518v193h564v-11q0 -356 -203 -553q-179 -174 -465 -174q-149 0 -260 45t-205 142q-99 102 -151 234.5t-52 281.5q0 153 55 287t144 223q91 93 226 149t288 56q201 0 356 -86q141 -79 222 -205l-166 -117q-75 104 -168 156q-100 59 -242 59q-219 0 -360 -141
q-68 -68 -107 -170.5t-39 -212.5q0 -103 37.5 -201t104.5 -170q129 -137 342 -137q181 0 305 121q100 98 114 231h-340zM766 1716l203 168l135 -115l-338 -274l-338 274l135 115z" />
    <glyph glyph-name="gcaron" unicode="&#x1e7;" horiz-adv-x="1085" 
d="M758 768v94h200v-792q0 -169 -29 -274t-112 -175q-112 -92 -287 -92q-176 0 -282 106q-48 48 -82.5 120t-44.5 149h194q14 -82 64 -135q56 -60 156 -60q99 0 157 58q23 22 38 49.5t20 60.5t6.5 53.5t1.5 53.5v112q-97 -123 -262 -123q-173 0 -285 117q-129 136 -129 342
q0 207 127 334q116 119 293 119q158 0 256 -117zM526 705q-90 0 -151 -58q-40 -37 -64 -94.5t-24 -124.5q0 -65 23 -123.5t63 -93.5q64 -57 153 -57q102 0 168 69q76 81 76 203q0 138 -82 217q-62 62 -162 62zM543 1206l180 176l135 -106l-315 -283l-316 283l135 106z" />
    <glyph glyph-name="AEacute" unicode="&#x1fc;" horiz-adv-x="1896" 
d="M1118 0l-143 326h-580l-149 -326h-226l656 1366h604l86 -197h-543l144 -325h528l86 -197h-528l194 -450h543l86 -197h-758zM487 522h406l-195 445zM915 1489l-98 82l283 284l176 -122z" />
    <glyph glyph-name="aeacute" unicode="&#x1fd;" horiz-adv-x="1548" 
d="M203 672v186q115 27 243 27q110 0 179 -27q76 -29 129 -96q48 58 118 88q76 35 179 35q187 0 295 -113q120 -126 120 -364v-25h-618q3 -47 23 -95t51 -79q55 -55 153 -55q80 0 137 43q50 38 80 94l168 -94q-57 -102 -145 -158q-104 -66 -258 -66q-105 0 -180 37
q-77 36 -123 103q-60 -70 -140 -107q-77 -33 -182 -33q-169 0 -264 93q-86 83 -86 196q0 123 82 201q48 45 118 68.5t144 23.5q120 0 221 -57q0 104 -57 155q-59 52 -176 52q-100 0 -211 -33zM451 383q-94 0 -142 -43q-35 -32 -35 -76q0 -45 41 -80q50 -39 136 -39
q75 0 129 33q55 35 55 90q0 53 -64 88q-53 27 -120 27zM862 547h400q-12 70 -62 117q-54 49 -135 49q-82 0 -141 -56q-46 -46 -62 -110zM928 1382l184 -94l-319 -295l-111 70z" />
    <glyph glyph-name="Scommaaccent" unicode="&#x218;" horiz-adv-x="1056" 
d="M922 1161l-168 -98q-19 48 -62 86q-60 49 -147 49q-91 0 -142 -47t-51 -117q0 -107 148 -166l137 -55q177 -72 249 -172t72 -229q0 -194 -123.5 -316.5t-316.5 -122.5q-197 0 -321 138q-102 113 -115 266l207 45q0 -100 57 -174q65 -82 178 -82q97 0 161.5 64t64.5 165
q0 49 -17 89t-49 67.5t-61.5 44t-69.5 33.5l-131 55q-279 116 -279 346q0 70 27 134.5t76.5 115t126.5 81t170 30.5q166 0 274 -93q65 -58 105 -137zM328 -496l147 394l180 -70l-184 -381z" />
    <glyph glyph-name="scommaaccent" unicode="&#x219;" horiz-adv-x="737" 
d="M653 733l-149 -98q-45 74 -123 74q-39 0 -62 -23q-18 -18 -18 -45q0 -30 29 -49q5 -3 12 -6.5t22 -11.5t33 -17l103 -51q88 -45 121 -80q63 -63 63 -160q0 -114 -76 -196q-89 -97 -241 -97q-114 0 -187 56q-78 59 -110 157l163 78q20 -57 48 -82q32 -32 88 -32
q54 0 82 28t28 68q0 36 -26 65q-30 30 -86 54l-74 34q-84 39 -119 74q-61 58 -61 145q0 111 71 185q78 82 211 82q93 0 160 -45q58 -36 98 -107zM164 -496l147 394l181 -70l-185 -381z" />
    <glyph glyph-name="Tcommaaccent" unicode="&#x21a;" horiz-adv-x="876" 
d="M856 1169h-313v-1169h-209v1169h-314v197h836v-197zM266 -496l148 394l180 -70l-184 -381z" />
    <glyph glyph-name="tcommaaccent" unicode="&#x21b;" horiz-adv-x="495" 
d="M487 678h-153v-678h-201v678h-84v184h84v316h201v-316h153v-184zM61 -496l148 394l180 -70l-184 -381z" />
    <glyph glyph-name="uni0228" unicode="&#x228;" 
d="M918 1366v-197h-545v-346h528v-196h-528v-430h545v-197h-754v1366h754zM532 -109l177 -77l-230 -273l-131 66z" />
    <glyph glyph-name="uni0229" unicode="&#x229;" horiz-adv-x="987" 
d="M731 291l168 -94q-57 -102 -145 -158q-103 -66 -254 -66q-180 0 -291 111q-61 61 -94 147t-33 183q0 101 35 193.5t102 160.5q117 117 289 117q167 0 276 -113q121 -125 121 -364v-25h-618q3 -48 22.5 -95.5t50.5 -78.5q55 -55 154 -55q80 0 137 43q50 38 80 94zM301 547
h399q-12 71 -61 117q-53 49 -135 49q-86 0 -142 -56q-45 -42 -61 -110zM510 -109l168 -65l-209 -275l-131 66z" />
    <glyph glyph-name="uni0237" unicode="&#x237;" horiz-adv-x="454" 
d="M127 862h201v-1331h-201v1331z" />
    <glyph glyph-name="uni0259" unicode="&#x259;" horiz-adv-x="999" 
d="M272 598l-182 61q51 105 150 164q105 62 239 62q190 0 305 -107q61 -57 97.5 -148.5t36.5 -207.5q0 -211 -132 -340q-112 -109 -290 -109q-171 0 -277 103q-62 61 -99.5 157t-37.5 211v52h627q-4 45 -24 87.5t-48 67.5q-57 54 -160 54q-76 0 -129 -33q-40 -22 -76 -74z
M694 332h-399q5 -39 21 -78t40 -61q48 -48 136 -48q85 0 139 54t63 133z" />
    <glyph glyph-name="afii57929" unicode="&#x2bc;" 
d="M328 979l168 434l180 -70l-213 -421z" />
    <glyph glyph-name="circumflex" unicode="&#x2c6;" 
d="M512 1169l-180 -176l-135 107l315 282l315 -282l-135 -107z" />
    <glyph glyph-name="caron" unicode="&#x2c7;" 
d="M512 1206l180 176l135 -106l-315 -283l-315 283l135 106z" />
    <glyph glyph-name="uni02C9" unicode="&#x2c9;" 
d="M174 1040v160h676v-160h-676z" />
    <glyph glyph-name="breve" unicode="&#x2d8;" 
d="M682 1307h162q-13 -63 -37.5 -110.5t-40.5 -63.5q-83 -103 -250 -103q-170 0 -256 100q-61 75 -80 177h162q19 -67 61 -101q38 -32 107 -32t108 30q47 35 64 103z" />
    <glyph glyph-name="dotaccent" unicode="&#x2d9;" 
d="M379 1126q0 56 39 95t94 39t94 -39t39 -95t-38.5 -94.5t-94.5 -38.5t-94.5 38.5t-38.5 94.5z" />
    <glyph glyph-name="ring" unicode="&#x2da;" 
d="M319 1186q0 78 57.5 135t135.5 57t135.5 -57t57.5 -135t-57.5 -135.5t-135.5 -57.5t-135.5 57.5t-57.5 135.5zM424 1186q0 -37 25.5 -62.5t62.5 -25.5t62.5 25.5t25.5 62.5t-25.5 62.5t-62.5 25.5t-62.5 -25.5t-25.5 -62.5z" />
    <glyph glyph-name="ogonek" unicode="&#x2db;" 
d="M510 0h149q-64 -35 -104 -80q-43 -46 -43 -92q0 -64 82 -64q46 0 106 15l-18 -127q-60 -39 -127 -39q-85 0 -144 46.5t-59 125.5q0 70 54 131q41 47 104 84z" />
    <glyph glyph-name="tilde" unicode="&#x2dc;" 
d="M762 1274l119 -94q-81 -176 -238 -176q-24 0 -45.5 5.5t-31 9.5t-36.5 17q-82 43 -86 45q-48 21 -75 21q-75 0 -105 -94l-121 84q36 65 86 110q66 55 144 55q45 0 100 -20q35 -13 94 -47q52 -31 84 -31q48 0 75 37t36 78z" />
    <glyph glyph-name="hungarumlaut" unicode="&#x2dd;" 
d="M475 1382l168 -94l-299 -295l-86 70zM844 1382l168 -94l-299 -295l-86 70z" />
    <glyph glyph-name="acutecomb" unicode="&#x301;" horiz-adv-x="4" 
d="M-354 1382l184 -94l-319 -295l-111 70z" />
    <glyph glyph-name="uni0394" unicode="&#x394;" horiz-adv-x="1368" 
d="M1319 0h-1270l524 1366h213zM680 1083l-328 -886h656z" />
    <glyph glyph-name="uni0394" unicode="&#x2206;" horiz-adv-x="1368" 
d="M1319 0h-1270l524 1366h213zM680 1083l-328 -886h656z" />
    <glyph glyph-name="uni03A9" unicode="&#x3a9;" horiz-adv-x="1363" 
d="M766 0v221q145 61 233 185q99 134 99 313q0 229 -142 366q-118 113 -274 113t-274 -113q-142 -137 -142 -366q0 -179 99 -313q88 -124 233 -185v-221h-541v197h330q-163 82 -254 239q-76 131 -76 295q0 307 191 494q168 166 434 166t434 -166q191 -187 191 -494
q0 -164 -76 -295q-91 -157 -254 -239h330v-197h-541z" />
    <glyph glyph-name="uni03A9" unicode="&#x2126;" horiz-adv-x="1363" 
d="M766 0v221q145 61 233 185q99 134 99 313q0 229 -142 366q-118 113 -274 113t-274 -113q-142 -137 -142 -366q0 -179 99 -313q88 -124 233 -185v-221h-541v197h330q-163 82 -254 239q-76 131 -76 295q0 307 191 494q168 166 434 166t434 -166q191 -187 191 -494
q0 -164 -76 -295q-91 -157 -254 -239h330v-197h-541z" />
    <glyph glyph-name="pi" unicode="&#x3c0;" horiz-adv-x="1134" 
d="M399 0h-200v678h-154v184h1045v-184h-154v-678h-201v678h-336v-678z" />
    <glyph glyph-name="afii10023" unicode="&#x401;" 
d="M918 1366v-197h-545v-346h528v-196h-528v-430h545v-197h-754v1366h754zM213 1628q0 54 36.5 90.5t90.5 36.5t90.5 -36.5t36.5 -90.5t-36.5 -90.5t-90.5 -36.5t-90.5 36.5t-36.5 90.5zM614 1628q0 54 36.5 90.5t90.5 36.5t90.5 -36.5t36.5 -90.5t-36.5 -90.5t-90.5 -36.5
t-90.5 36.5t-36.5 90.5z" />
    <glyph glyph-name="afii10051" unicode="&#x402;" horiz-adv-x="1368" 
d="M995 1169h-450v-381q146 48 280 48q163 0 267 -62q178 -105 178 -366q0 -240 -150 -345q-104 -75 -286 -75q-56 0 -138 12v193q60 -13 131 -13q106 0 160 43q70 57 70 183q0 145 -109 204q-63 33 -157 33q-75 0 -146 -17t-100 -30v-596h-209v1169h-316v197h975v-197z" />
    <glyph glyph-name="afii10052" unicode="&#x403;" horiz-adv-x="876" 
d="M164 0v1366h684v-197h-475v-1169h-209zM479 1489l-98 82l283 284l176 -122z" />
    <glyph glyph-name="afii10053" unicode="&#x404;" horiz-adv-x="1269" 
d="M1176 1292v-245q-165 151 -371 151q-236 0 -365 -143q-96 -105 -121 -256h672v-197h-678q14 -165 125 -285q64 -71 160 -111t209 -40q202 0 369 158v-248q-172 -103 -375 -103q-285 0 -484 189q-219 205 -219 516q0 326 219 534q190 179 494 179q210 0 365 -99z" />
    <glyph glyph-name="afii10054" unicode="&#x405;" horiz-adv-x="1056" 
d="M922 1161l-168 -98q-19 48 -62 86q-60 49 -147 49q-91 0 -142 -47t-51 -117q0 -107 148 -166l137 -55q177 -72 249 -172t72 -229q0 -194 -123.5 -316.5t-316.5 -122.5q-197 0 -321 138q-102 113 -115 266l207 45q0 -100 57 -174q65 -82 178 -82q97 0 161.5 64t64.5 165
q0 49 -17 89t-49 67.5t-61.5 44t-69.5 33.5l-131 55q-279 116 -279 346q0 70 27 134.5t76.5 115t126.5 81t170 30.5q166 0 274 -93q65 -58 105 -137z" />
    <glyph glyph-name="afii10055" unicode="&#x406;" horiz-adv-x="536" 
d="M164 1366h209v-1366h-209v1366z" />
    <glyph glyph-name="afii10056" unicode="&#x407;" horiz-adv-x="536" 
d="M164 1366h209v-1366h-209v1366zM29 1628q0 46 30.5 80.5t71.5 34.5q40 0 72.5 -35t32.5 -80t-32.5 -80t-72.5 -35q-41 0 -71.5 34.5t-30.5 80.5zM303 1628q0 46 31 80.5t72 34.5t71.5 -34.5t30.5 -80.5t-30.5 -80.5t-71.5 -34.5t-72 34.5t-31 80.5z" />
    <glyph glyph-name="afii10057" unicode="&#x408;" horiz-adv-x="741" 
d="M369 1366h209v-885q0 -100 -10 -173.5t-42 -137.5q-18 -36 -43 -67.5t-63 -62.5t-93.5 -49t-121.5 -18q-136 0 -242 70l103 176q58 -49 143 -49q100 0 137 92q23 59 23 219v885z" />
    <glyph glyph-name="afii10058" unicode="&#x409;" horiz-adv-x="1843" 
d="M295 1366h872v-551h156q220 0 342 -108q60 -52 94.5 -130.5t34.5 -170.5q0 -98 -43.5 -187.5t-126.5 -144.5q-110 -74 -299 -74h-367v1169h-454v-680q0 -72 -3.5 -119t-15.5 -107t-41 -107.5t-75 -85.5q-101 -82 -248 -82q-42 0 -92 12v193q43 -13 75 -13q76 0 123 47
q25 24 40 59t20.5 87.5t6.5 82.5t1 95v815zM1167 618v-421h148q20 0 33.5 0.5t44.5 4.5t53.5 11t51.5 22t47 36.5t31 55t13 76.5q0 32 -6.5 60.5t-25 57.5t-47.5 50t-78 34t-113 13h-152z" />
    <glyph glyph-name="afii10059" unicode="&#x40a;" horiz-adv-x="1843" 
d="M373 1366v-541h585v541h209v-541h156q220 0 342 -108q129 -113 129 -301q0 -109 -44 -199t-126 -143q-110 -74 -299 -74h-367v629h-585v-629h-209v1366h209zM1167 629v-432h148q156 0 221 65q53 53 53 152q0 97 -57 151q-68 64 -213 64h-152z" />
    <glyph glyph-name="afii10060" unicode="&#x40b;" horiz-adv-x="1413" 
d="M995 1169h-450v-364q126 14 264 14q242 0 348 -84q133 -105 133 -332v-403h-209v373q0 44 -2 70.5t-19.5 70.5t-51.5 70q-55 43 -217 43q-103 0 -246 -15v-612h-209v1169h-316v197h975v-197z" />
    <glyph glyph-name="afii10061" unicode="&#x40c;" horiz-adv-x="1200" 
d="M373 1366v-545l528 545h275l-617 -618l621 -748h-279l-487 606l-41 -41v-565h-209v1366h209zM567 1489l-98 82l283 284l176 -122z" />
    <glyph glyph-name="afii10062" unicode="&#x40e;" horiz-adv-x="1167" 
d="M12 1366h254l352 -729l320 729h217l-616 -1366h-217l176 387zM264 1704l164 74q11 -39 37 -65t57.5 -35.5t48.5 -12t31 -2.5t31 2.5t48.5 12t57.5 35.5t37 65l164 -74q-25 -60 -66.5 -103.5t-90 -65t-93 -31t-88.5 -9.5t-88.5 9.5t-93 31t-90 65t-66.5 103.5z" />
    <glyph glyph-name="afii10145" unicode="&#x40f;" horiz-adv-x="1310" 
d="M164 0v1366h209v-1169h565v1169h209v-1366h-393v-340h-197v340h-393z" />
    <glyph glyph-name="afii10017" unicode="&#x410;" horiz-adv-x="1343" 
d="M1110 0l-143 330h-584l-150 -330h-225l680 1446l647 -1446h-225zM469 526h414l-203 463z" />
    <glyph glyph-name="afii10018" unicode="&#x411;" horiz-adv-x="1077" 
d="M164 0v1366h684v-197h-475v-354h135q220 0 342 -108q60 -52 94.5 -130.5t34.5 -170.5q0 -98 -43.5 -187.5t-126.5 -144.5q-110 -74 -299 -74h-346zM373 618v-421h127q20 0 33.5 0.5t44.5 4.5t53.5 11t51.5 22t47 36.5t31 55t13 76.5q0 32 -6.5 60.5t-25 57.5t-47.5 50
t-78 34t-113 13h-131z" />
    <glyph glyph-name="afii10019" unicode="&#x412;" horiz-adv-x="1077" 
d="M164 1366h207q139 0 225.5 -22.5t151.5 -83.5q108 -102 108 -271q0 -96 -41 -162q-38 -65 -102 -94q105 -25 176 -98q90 -95 90 -256q0 -151 -90 -246q-126 -133 -383 -133h-342v1366zM373 1169v-391h63q115 0 170 53q53 51 53 156q0 84 -49 131q-53 51 -166 51h-71z
M373 606v-409h127q142 0 207 53q31 25 49 65.5t18 85.5q0 89 -55 144q-63 61 -215 61h-131z" />
    <glyph glyph-name="afii10020" unicode="&#x413;" horiz-adv-x="876" 
d="M164 0v1366h684v-197h-475v-1169h-209z" />
    <glyph glyph-name="afii10021" unicode="&#x414;" horiz-adv-x="1331" 
d="M295 1366h852v-1169h156v-504h-197v307h-881v-307h-196v504q70 -3 127 49.5t90 134.5q49 123 49 358v627zM504 1169v-430q0 -257 -47 -381q-36 -93 -107 -161h588v972h-434z" />
    <glyph glyph-name="afii10022" unicode="&#x415;" 
d="M918 1366v-197h-545v-346h528v-196h-528v-430h545v-197h-754v1366h754z" />
    <glyph glyph-name="afii10024" unicode="&#x416;" horiz-adv-x="1732" 
d="M762 1366h209v-551l487 551h254l-563 -627l575 -739h-258l-462 602l-33 -37v-565h-209v565l-33 37l-463 -602h-258l576 739l-564 627h254l488 -551v551z" />
    <glyph glyph-name="afii10025" unicode="&#x417;" horiz-adv-x="1167" 
d="M281 1057l-138 133q77 102 176 147q104 52 248 52q204 0 318 -109q98 -94 98 -240q0 -99 -45 -170q-42 -71 -123 -118q111 -30 184 -121q70 -90 70 -232q0 -185 -137 -305q-140 -119 -369 -119q-194 0 -336 107q-110 85 -174 221l185 94q40 -105 127 -166q90 -63 225 -63
t209 74q65 65 65 168q0 104 -80 159q-35 24 -84.5 37t-81.5 15t-81 2h-123v196h110q52 0 107.5 13.5t89.5 41.5q61 51 61 140q0 91 -65 141q-52 41 -158 41q-99 0 -166 -39q-65 -37 -112 -100z" />
    <glyph glyph-name="afii10026" unicode="&#x418;" horiz-adv-x="1458" 
d="M1085 0v920l-921 -981v1427h209v-924l921 981v-1423h-209z" />
    <glyph glyph-name="afii10027" unicode="&#x419;" horiz-adv-x="1458" 
d="M1085 0v920l-921 -981v1427h209v-924l921 981v-1423h-209zM391 1704l164 74q11 -39 37 -65t57.5 -35.5t48.5 -12t31 -2.5t31 2.5t48.5 12t57.5 35.5t37 65l164 -74q-25 -60 -66.5 -103.5t-90 -65t-93 -31t-88.5 -9.5t-88.5 9.5t-93 31t-90 65t-66.5 103.5z" />
    <glyph glyph-name="afii10028" unicode="&#x41a;" horiz-adv-x="1200" 
d="M373 1366v-545l528 545h275l-617 -618l621 -748h-279l-487 606l-41 -41v-565h-209v1366h209z" />
    <glyph glyph-name="afii10029" unicode="&#x41b;" horiz-adv-x="1331" 
d="M295 1366h872v-1366h-209v1169h-454v-680q0 -72 -3.5 -119t-15.5 -107t-41 -107.5t-75 -85.5q-101 -82 -248 -82q-42 0 -92 12v193q43 -13 75 -13q76 0 123 47q25 24 40 59t20.5 87.5t6.5 82.5t1 95v815z" />
    <glyph glyph-name="afii10030" unicode="&#x41c;" horiz-adv-x="1744" 
d="M336 0h-213l287 1468l475 -1060l479 1060l258 -1468h-213l-139 823l-398 -886l-393 888z" />
    <glyph glyph-name="afii10031" unicode="&#x41d;" horiz-adv-x="1331" 
d="M373 1366v-541h585v541h209v-1366h-209v629h-585v-629h-209v1366h209z" />
    <glyph glyph-name="afii10032" unicode="&#x41e;" horiz-adv-x="1617" 
d="M809 1391q151 0 283.5 -54.5t226 -149t147.5 -226t54 -279.5t-54 -279.5t-147.5 -226t-226 -149t-283.5 -54.5t-283.5 54.5t-226 149t-147.5 226t-54 279.5t54 279.5t147.5 226t226 149t283.5 54.5zM809 166q220 0 361 144.5t141 371.5t-141 371.5t-361 144.5
t-361 -144.5t-141 -371.5t141 -371.5t361 -144.5z" />
    <glyph glyph-name="afii10033" unicode="&#x41f;" horiz-adv-x="1331" 
d="M164 1366h1003v-1366h-209v1169h-585v-1169h-209v1366z" />
    <glyph glyph-name="afii10034" unicode="&#x420;" horiz-adv-x="983" 
d="M164 1366h301q189 0 299 -74q83 -55 126.5 -144t43.5 -187q0 -186 -133 -299q-127 -107 -334 -107h-94v-555h-209v1366zM373 1174v-426h94q131 0 198.5 58t67.5 157q0 27 -4.5 51.5t-21.5 55t-44.5 52.5t-78.5 37t-119 15h-92z" />
    <glyph glyph-name="afii10035" unicode="&#x421;" horiz-adv-x="1269" 
d="M1176 1292v-245q-168 151 -371 151q-221 0 -359.5 -146.5t-138.5 -373.5q0 -218 141.5 -365t358.5 -147q202 0 369 158v-248q-172 -103 -375 -103q-285 0 -484 189q-219 205 -219 516q0 326 219 534q190 179 494 179q210 0 365 -99z" />
    <glyph glyph-name="afii10036" unicode="&#x422;" horiz-adv-x="876" 
d="M856 1169h-313v-1169h-209v1169h-314v197h836v-197z" />
    <glyph glyph-name="afii10037" unicode="&#x423;" horiz-adv-x="1167" 
d="M12 1366h254l352 -729l320 729h217l-616 -1366h-217l176 387z" />
    <glyph glyph-name="afii10038" unicode="&#x424;" horiz-adv-x="1691" 
d="M741 0v193h-36q-155 0 -273.5 41.5t-190.5 115t-107.5 168t-35.5 207.5t35.5 207.5t107.5 168t190.5 115t273.5 41.5h36v164h209v-164h37q155 0 273.5 -41.5t190 -115t107 -168t35.5 -207.5t-35.5 -207.5t-107 -168t-190 -115t-273.5 -41.5h-37v-193h-209zM741 385v680
h-41q-195 0 -294 -93.5t-99 -246.5t99 -246.5t294 -93.5h41zM950 1065v-680h41q195 0 294 93.5t99 246.5t-99 246.5t-294 93.5h-41z" />
    <glyph glyph-name="afii10039" unicode="&#x425;" horiz-adv-x="1118" 
d="M20 0l431 713l-377 653h233l266 -463l273 463h233l-393 -653l412 -713h-234l-299 522l-311 -522h-234z" />
    <glyph glyph-name="afii10040" unicode="&#x426;" horiz-adv-x="1351" 
d="M164 0v1366h209v-1169h565v1169h209v-1169h176v-504h-197v307h-962z" />
    <glyph glyph-name="afii10041" unicode="&#x427;" horiz-adv-x="1241" 
d="M868 0v561q-187 -14 -278 -14q-228 0 -334 84q-133 105 -133 332v403h209v-373q0 -31 1.5 -51t7.5 -53t22.5 -60t42.5 -47q55 -43 217 -43q106 0 245 15v612h209v-1366h-209z" />
    <glyph glyph-name="afii10042" unicode="&#x428;" horiz-adv-x="1921" 
d="M164 0v1366h209v-1169h483v1169h209v-1169h483v1169h209v-1366h-1593z" />
    <glyph glyph-name="afii10043" unicode="&#x429;" horiz-adv-x="1961" 
d="M164 0v1366h209v-1169h483v1169h209v-1169h483v1169h209v-1169h176v-504h-196v307h-1573z" />
    <glyph glyph-name="afii10044" unicode="&#x42a;" horiz-adv-x="1212" 
d="M328 0v1169h-308v197h517v-551h155q220 0 342 -108q60 -52 94.5 -130.5t34.5 -170.5q0 -98 -43.5 -187.5t-126.5 -144.5q-110 -74 -299 -74h-366zM537 618v-421h147q20 0 33.5 0.5t44.5 4.5t53.5 11t51.5 22t47 36.5t31 55t13 76.5q0 32 -6.5 60.5t-25 57.5t-47.5 50
t-78 34t-113 13h-151z" />
    <glyph glyph-name="afii10045" unicode="&#x42b;" horiz-adv-x="1515" 
d="M164 0v1366h209v-551h155q220 0 342 -108q60 -52 94.5 -130.5t34.5 -170.5q0 -98 -43.5 -187.5t-126.5 -144.5q-110 -74 -299 -74h-366zM373 618v-421h147q20 0 33.5 0.5t44.5 4.5t54 11t51.5 22t47 36.5t31.5 55t13 76.5q0 32 -6.5 60.5t-25.5 57.5t-48 50t-78 34
t-113 13h-151zM1143 1366h209v-1366h-209v1366z" />
    <glyph glyph-name="afii10046" unicode="&#x42c;" horiz-adv-x="1048" 
d="M164 0v1366h209v-551h155q220 0 342 -108q60 -52 94.5 -130.5t34.5 -170.5q0 -98 -43.5 -187.5t-126.5 -144.5q-110 -74 -299 -74h-366zM373 618v-421h147q20 0 33.5 0.5t44.5 4.5t54 11t51.5 22t47 36.5t31.5 55t13 76.5q0 32 -6.5 60.5t-25.5 57.5t-48 50t-78 34
t-113 13h-151z" />
    <glyph glyph-name="afii10047" unicode="&#x42d;" horiz-adv-x="1273" 
d="M98 1047v245q173 99 396 99q144 0 262 -41t217 -138q203 -201 203 -528q0 -321 -203 -524q-187 -187 -486 -187q-215 0 -389 103v248q88 -89 191.5 -123.5t197.5 -34.5q209 0 332 123q124 124 139 305h-675v197h671q-18 165 -125 276q-125 131 -340 131q-222 0 -391 -151
z" />
    <glyph glyph-name="afii10048" unicode="&#x42e;" horiz-adv-x="2048" 
d="M373 823h205q36 215 182 365q199 203 500 203q147 0 275.5 -54.5t219.5 -148.5t143 -225.5t52 -280.5q0 -198 -89 -360.5t-247.5 -255.5t-353.5 -93q-99 0 -186 21t-152.5 58t-112.5 76t-84 85q-63 77 -103.5 183.5t-43.5 230.5h-205v-627h-209v1366h209v-543zM1260 166
q212 0 346.5 145t134.5 371t-134.5 371t-346.5 145t-347 -145t-135 -371t135 -371t347 -145z" />
    <glyph glyph-name="afii10049" unicode="&#x42f;" horiz-adv-x="1093" 
d="M41 0l405 569q-54 6 -110.5 30.5t-99.5 62.5q-117 102 -117 290q0 173 104 285q42 45 92 73.5t105 39t89.5 13.5t84.5 3h336v-1366h-209v547h-49l-373 -547h-258zM721 1174h-103q-83 0 -138.5 -13.5t-94.5 -50.5q-66 -62 -66 -158q0 -110 78 -164q73 -49 209 -49h115v435
z" />
    <glyph glyph-name="afii10065" unicode="&#x430;" horiz-adv-x="1085" 
d="M758 762v100h200v-862h-200v90q-101 -117 -258 -117q-128 0 -225 65.5t-145 169t-48 224.5q0 103 33.5 189t91 143.5t134 89t161.5 31.5q161 0 256 -123zM526 705q-107 0 -173 -79.5t-66 -197.5q0 -115 66.5 -194.5t172.5 -79.5q102 0 173 71.5t71 200.5q0 134 -71 206.5
t-173 72.5z" />
    <glyph glyph-name="afii10066" unicode="&#x431;" horiz-adv-x="1085" 
d="M778 1454h205q-22 -106 -94 -184t-176 -107l-135 -37q-56 -16 -83.5 -25.5t-70 -37t-70.5 -66.5q-33 -44 -51 -109.5t-20 -123.5h2q90 121 293 121q181 0 301 -123q125 -128 125 -328q0 -201 -132 -331t-329 -130t-316 115q-50 47 -81.5 105.5t-44 124t-16 109
t-3.5 103.5q0 202 30 345t101 247q97 145 258 185l143 34q142 35 164 113zM543 154q118 0 187 74.5t69 199.5q0 71 -22 126t-59 87t-81.5 48t-93.5 16t-93.5 -16t-81.5 -48t-59 -87t-22 -126q0 -125 69 -199.5t187 -74.5z" />
    <glyph glyph-name="afii10067" unicode="&#x432;" horiz-adv-x="905" 
d="M127 862h338q128 0 197 -51q79 -64 79 -166q0 -117 -102 -168q67 -13 117 -57q67 -60 67 -166q0 -125 -94 -197q-77 -57 -199 -57h-403v862zM328 526h102q52 0 80 19q39 24 39 69q0 44 -35 68q-24 16 -88 16h-98v-172zM328 164h149q68 0 105 24q41 27 41 76q0 53 -39 76
q-34 22 -101 22h-155v-198z" />
    <glyph glyph-name="afii10068" unicode="&#x433;" horiz-adv-x="671" 
d="M127 0v862h528v-184h-327v-678h-201z" />
    <glyph glyph-name="afii10069" unicode="&#x434;" horiz-adv-x="995" 
d="M201 862h647v-678h131v-430h-184v246h-602v-246h-185v430q54 3 94.5 35.5t63.5 77.5q35 74 35 227v338zM647 184v494h-254v-229q0 -188 -100 -265h354z" />
    <glyph glyph-name="afii10070" unicode="&#x435;" horiz-adv-x="987" 
d="M731 291l168 -94q-57 -102 -145 -158q-103 -66 -254 -66q-180 0 -291 111q-61 61 -94 147t-33 183q0 101 35 193.5t102 160.5q117 117 289 117q167 0 276 -113q121 -125 121 -364v-25h-618q3 -48 22.5 -95.5t50.5 -78.5q55 -55 154 -55q80 0 137 43q50 38 80 94zM301 547
h399q-12 71 -61 117q-53 49 -135 49q-86 0 -142 -56q-45 -42 -61 -110z" />
    <glyph glyph-name="afii10072" unicode="&#x436;" horiz-adv-x="1277" 
d="M539 862h200v-319l260 319h242l-334 -393l367 -469h-250l-260 346l-25 -29v-317h-200v317l-25 29l-260 -346h-250l367 469l-334 393h242l260 -319v319z" />
    <glyph glyph-name="afii10073" unicode="&#x437;" horiz-adv-x="901" 
d="M244 639l-129 113q48 58 131 96q86 37 203 37q133 0 219 -60q90 -64 90 -176q0 -72 -37 -119q-31 -41 -82 -61q79 -17 125 -63q55 -55 55 -144q0 -116 -74 -190q-99 -99 -303 -99q-135 0 -225 52q-92 55 -135 153l160 82q28 -62 75 -90q50 -33 129 -33q95 0 138 43
q30 33 30 76q0 44 -26 70q-16 17 -44 25.5t-46.5 9.5t-53.5 1h-90v164h76q62 0 98 23q37 28 37 76t-37 73q-33 23 -96 23q-59 0 -113 -25q-40 -19 -75 -57z" />
    <glyph glyph-name="afii10074" unicode="&#x438;" horiz-adv-x="1044" 
d="M127 862h201v-489l590 567v-940h-201v502l-590 -568v928z" />
    <glyph glyph-name="afii10075" unicode="&#x439;" horiz-adv-x="1044" 
d="M127 862h201v-489l590 567v-940h-201v502l-590 -568v928zM193 1235l163 47q39 -133 168 -133q66 0 106 32t62 101l164 -47q-22 -80 -81 -137t-123.5 -81t-127.5 -24t-127.5 24t-123 81t-80.5 137z" />
    <glyph glyph-name="afii10076" unicode="&#x43a;" horiz-adv-x="905" 
d="M127 862h201v-307l286 307h267l-377 -377l397 -485h-254l-287 354l-32 -32v-322h-201v862z" />
    <glyph glyph-name="afii10077" unicode="&#x43b;" horiz-adv-x="962" 
d="M836 862v-862h-201v678h-254v-342q0 -159 -82 -248q-54 -60 -130 -80t-153 -8v184q42 -10 81 2t61 37q30 37 30 113v526h648z" />
    <glyph glyph-name="afii10078" unicode="&#x43c;" horiz-adv-x="1187" 
d="M29 0l209 940l356 -657l356 657l209 -940h-205l-86 432l-274 -498l-275 498l-86 -432h-204z" />
    <glyph glyph-name="afii10079" unicode="&#x43d;" horiz-adv-x="1011" 
d="M127 0v862h201v-319h356v319h201v-862h-201v358h-356v-358h-201z" />
    <glyph glyph-name="afii10080" unicode="&#x43e;" horiz-adv-x="1085" 
d="M543 885q197 0 329 -128.5t132 -326.5q0 -197 -132.5 -327t-328.5 -130t-328.5 130t-132.5 327q0 198 132 326.5t329 128.5zM543 154q118 0 187 74.5t69 199.5q0 71 -22 126t-59 87t-81.5 48t-93.5 16t-93.5 -16t-81.5 -48t-59 -87t-22 -126q0 -125 69 -199.5t187 -74.5z
" />
    <glyph glyph-name="afii10081" unicode="&#x43f;" horiz-adv-x="1003" 
d="M127 862h750v-862h-201v678h-348v-678h-201v862z" />
    <glyph glyph-name="afii10082" unicode="&#x440;" horiz-adv-x="1085" 
d="M328 100v-569h-201v1331h201v-94q98 117 256 117q176 0 298 -124.5t122 -324.5q0 -105 -36.5 -194.5t-96 -147t-133.5 -89.5t-152 -32q-32 0 -68.5 7.5t-92.5 38t-97 81.5zM559 705q-102 0 -173 -72.5t-71 -206.5q0 -129 71 -200.5t173 -71.5q106 0 173 79.5t67 194.5
q0 118 -66.5 197.5t-173.5 79.5z" />
    <glyph glyph-name="afii10083" unicode="&#x441;" horiz-adv-x="860" 
d="M795 823v-225q-109 107 -244 107q-115 0 -191 -76q-73 -73 -73 -199q0 -129 78 -207q72 -69 182 -69q66 0 132 27.5t116 82.5v-223q-107 -68 -263 -68q-206 0 -327 127q-123 127 -123 324q0 203 131 334q127 127 346 127q124 0 236 -62z" />
    <glyph glyph-name="afii10084" unicode="&#x442;" horiz-adv-x="737" 
d="M721 678h-252v-678h-201v678h-252v184h705v-184z" />
    <glyph glyph-name="afii10085" unicode="&#x443;" horiz-adv-x="987" 
d="M63 -469l318 604l-369 727h242l246 -504l250 504h225l-686 -1331h-226z" />
    <glyph glyph-name="afii10086" unicode="&#x444;" horiz-adv-x="1372" 
d="M586 -469v455q-223 -3 -355 112q-145 123 -145 334q0 209 143 332q131 113 357 113v489h200v-489q226 0 357 -113q143 -123 143 -332q0 -211 -145 -334q-132 -115 -355 -112v-455h-200zM586 166v530q-121 0 -189 -45q-15 -9 -30 -23.5t-34 -40t-30.5 -66t-11.5 -89.5
q0 -146 100 -215q76 -54 195 -51zM786 696v-530q119 -3 195 51q100 69 100 215q0 49 -11.5 89.5t-30.5 66t-34 40t-30 23.5q-68 45 -189 45z" />
    <glyph glyph-name="afii10087" unicode="&#x445;" horiz-adv-x="1015" 
d="M12 0l381 467l-307 395h238l190 -252l193 252h245l-317 -395l369 -467h-242l-248 322l-256 -322h-246z" />
    <glyph glyph-name="afii10088" unicode="&#x446;" horiz-adv-x="1028" 
d="M127 0v862h201v-678h340v678h200v-678h144v-430h-185v246h-700z" />
    <glyph glyph-name="afii10089" unicode="&#x447;" horiz-adv-x="921" 
d="M594 0v334q-97 -19 -176 -19q-147 0 -228 64q-37 29 -57 70.5t-23.5 70t-3.5 66.5v276h201v-235q0 -88 51 -119q36 -21 101 -21q71 0 135 23v352h201v-862h-201z" />
    <glyph glyph-name="afii10090" unicode="&#x448;" horiz-adv-x="1429" 
d="M127 0v862h201v-678h286v678h201v-678h287v678h201v-862h-1176z" />
    <glyph glyph-name="afii10091" unicode="&#x449;" horiz-adv-x="1462" 
d="M127 0v862h201v-678h286v678h201v-678h287v678h201v-678h143v-430h-184v246h-1135z" />
    <glyph glyph-name="afii10092" unicode="&#x44a;" horiz-adv-x="892" 
d="M201 0v678h-185v184h385v-305h115q41 0 67 -2t63.5 -9.5t69.5 -26.5t60 -50q68 -75 68 -188q0 -129 -78 -207q-27 -26 -57 -42.5t-67 -22.5t-61 -7.5t-67 -1.5h-313zM401 172h93q74 0 104 18q45 32 45 89q0 58 -43 86q-33 20 -104 20h-95v-213z" />
    <glyph glyph-name="afii10093" unicode="&#x44b;" horiz-adv-x="1187" 
d="M127 0v862h201v-305h114q41 0 67 -2t63.5 -9.5t69.5 -26.5t60 -50q68 -75 68 -188q0 -129 -78 -207q-27 -26 -57 -42.5t-67 -22.5t-61 -7.5t-67 -1.5h-313zM328 172h92q74 0 104 18q45 32 45 89q0 58 -43 86q-33 20 -104 20h-94v-213zM860 0v862h201v-862h-201z" />
    <glyph glyph-name="afii10094" unicode="&#x44c;" horiz-adv-x="819" 
d="M127 0v862h201v-305h114q41 0 67 -2t63.5 -9.5t69.5 -26.5t60 -50q68 -75 68 -188q0 -129 -78 -207q-27 -26 -57 -42.5t-67 -22.5t-61 -7.5t-67 -1.5h-313zM328 172h92q74 0 104 18q45 32 45 89q0 58 -43 86q-33 20 -104 20h-94v-213z" />
    <glyph glyph-name="afii10095" unicode="&#x44d;" horiz-adv-x="876" 
d="M82 649v191q115 45 244 45q217 0 344 -127q125 -125 125 -326q0 -200 -127 -330q-123 -129 -322 -129q-137 0 -264 50v190q105 -59 235 -59q126 0 195 69q50 50 63 133h-399v168h393q-17 91 -86 138q-60 43 -166 43q-120 0 -235 -56z" />
    <glyph glyph-name="afii10096" unicode="&#x44e;" horiz-adv-x="1433" 
d="M328 543h137q20 120 113 215q127 127 321 127q192 0 322.5 -128.5t130.5 -326.5q0 -197 -130 -327t-323 -130q-204 0 -332 138q-94 102 -106 247h-133v-358h-201v862h201v-319zM899 705q-104 0 -176 -69.5t-72 -207.5t72 -206t176 -68t176 68t72 206t-72 207.5t-176 69.5
z" />
    <glyph glyph-name="afii10097" unicode="&#x44f;" horiz-adv-x="856" 
d="M16 0l271 342q-78 11 -137 66q-72 69 -72 178q0 124 80 198q50 48 110 63t140 15h321v-862h-201v317h-41l-235 -317h-236zM528 481v209h-116q-72 0 -105 -18q-49 -29 -49 -86q0 -55 41 -84q33 -21 111 -21h118z" />
    <glyph glyph-name="afii10071" unicode="&#x451;" horiz-adv-x="987" 
d="M731 291l168 -94q-57 -102 -145 -158q-103 -66 -254 -66q-180 0 -291 111q-61 61 -94 147t-33 183q0 101 35 193.5t102 160.5q117 117 289 117q167 0 276 -113q121 -125 121 -364v-25h-618q3 -48 22.5 -95.5t50.5 -78.5q55 -55 154 -55q80 0 137 43q50 38 80 94zM301 547
h399q-12 71 -61 117q-53 49 -135 49q-86 0 -142 -56q-45 -42 -61 -110zM209 1165q0 54 36.5 90.5t90.5 36.5t90.5 -36.5t36.5 -90.5t-36.5 -90.5t-90.5 -36.5t-90.5 36.5t-36.5 90.5zM578 1165q0 54 36.5 90.5t90.5 36.5t90 -36.5t36 -90.5t-36 -90.5t-90 -36.5t-90.5 36.5
t-36.5 90.5z" />
    <glyph glyph-name="afii10099" unicode="&#x452;" horiz-adv-x="995" 
d="M127 0v1049h-147v155h147v289h201v-289h409v-155h-409v-342q94 96 231 96q170 0 254 -117q55 -81 55 -240v-622q0 -76 -17.5 -137t-72.5 -103q-70 -55 -184 -55q-87 0 -135 18v181q49 -19 96 -19q66 0 94 45q19 33 19 123v551q0 35 -1.5 54t-10.5 47.5t-27 48.5
q-41 45 -113 45q-48 0 -86.5 -20.5t-60.5 -51.5q-41 -58 -41 -217v-334h-201z" />
    <glyph glyph-name="afii10100" unicode="&#x453;" horiz-adv-x="671" 
d="M127 0v862h528v-184h-327v-678h-201zM543 1382l184 -94l-319 -295l-111 70z" />
    <glyph glyph-name="afii10101" unicode="&#x454;" horiz-adv-x="876" 
d="M795 827v-213q-97 91 -240 91q-101 0 -168 -56q-56 -46 -80 -123h393v-164h-399q8 -88 72 -145q72 -63 186 -63q136 0 236 94v-213q-94 -62 -263 -62q-199 0 -327 131q-123 126 -123 326q0 210 139 338q125 117 330 117q136 0 244 -58z" />
    <glyph glyph-name="afii10102" unicode="&#x455;" horiz-adv-x="737" 
d="M653 733l-149 -98q-45 74 -123 74q-39 0 -62 -23q-18 -18 -18 -45q0 -30 29 -49q5 -3 12 -6.5t22 -11.5t33 -17l103 -51q88 -45 121 -80q63 -63 63 -160q0 -114 -76 -196q-89 -97 -241 -97q-114 0 -187 56q-78 59 -110 157l163 78q20 -57 48 -82q32 -32 88 -32
q54 0 82 28t28 68q0 36 -26 65q-30 30 -86 54l-74 34q-84 39 -119 74q-61 58 -61 145q0 111 71 185q78 82 211 82q93 0 160 -45q58 -36 98 -107z" />
    <glyph glyph-name="afii10103" unicode="&#x456;" horiz-adv-x="454" 
d="M127 862h201v-862h-201v862zM98 1219q0 55 37 92t92 37t92 -37t37 -92t-37 -92t-92 -37t-92 37t-37 92z" />
    <glyph glyph-name="afii10104" unicode="&#x457;" horiz-adv-x="475" 
d="M137 862h201v-862h-201v862zM360 1348q39 0 70 -34t31 -93t-31 -93t-70 -34t-69.5 34t-30.5 93t30.5 93t69.5 34zM115 1348q39 0 69.5 -34t30.5 -93t-30.5 -93t-69.5 -34t-70 34t-31 93t31 93t70 34z" />
    <glyph glyph-name="afii10105" unicode="&#x458;" horiz-adv-x="454" 
d="M127 862h201v-1331h-201v1331zM98 1219q0 55 37 92t92 37t92 -37t37 -92t-37 -92t-92 -37t-92 37t-37 92z" />
    <glyph glyph-name="afii10106" unicode="&#x459;" horiz-adv-x="1327" 
d="M836 862v-305h114q41 0 67 -2t63.5 -9.5t69.5 -26.5t60 -50q68 -75 68 -188q0 -129 -78 -207q-27 -26 -57 -42.5t-67 -22.5t-61 -7.5t-67 -1.5h-313v678h-254v-342q0 -159 -82 -248q-87 -92 -231 -92q-20 0 -52 4v184q24 -4 39 -4q31 0 59.5 12t43.5 31q30 37 30 113v526
h648zM836 172h92q74 0 104 18q45 32 45 89q0 58 -43 86q-33 20 -104 20h-94v-213z" />
    <glyph glyph-name="afii10107" unicode="&#x45a;" horiz-adv-x="1376" 
d="M127 0v862h201v-305h356v305h201v-305h114q41 0 67 -2t64 -9.5t70 -26.5t60 -50q67 -74 67 -188q0 -129 -78 -207q-27 -26 -57 -42.5t-67 -22.5t-61 -7.5t-67 -1.5h-313v385h-356v-385h-201zM885 172h92q74 0 104 18q45 32 45 89q0 58 -43 86q-33 20 -104 20h-94v-213z
" />
    <glyph glyph-name="afii10108" unicode="&#x45b;" horiz-adv-x="995" 
d="M127 0v1049h-147v155h147v289h201v-289h409v-155h-409v-342q94 96 231 96q170 0 254 -117q55 -81 55 -240v-446h-200v428q0 35 -1.5 54t-10.5 47.5t-27 48.5q-41 45 -113 45q-48 0 -86.5 -20.5t-60.5 -51.5q-41 -58 -41 -217v-334h-201z" />
    <glyph glyph-name="afii10109" unicode="&#x45c;" horiz-adv-x="905" 
d="M127 862h201v-307l286 307h267l-377 -377l397 -485h-254l-287 354l-32 -32v-322h-201v862zM606 1382l185 -94l-320 -295l-111 70z" />
    <glyph glyph-name="afii10110" unicode="&#x45e;" horiz-adv-x="987" 
d="M63 -469l318 604l-369 727h242l246 -504l250 504h225l-686 -1331h-226zM170 1235l164 47q39 -133 168 -133q66 0 106 32t62 101l164 -47q-22 -80 -81 -137t-123.5 -81t-127.5 -24t-127.5 24t-123.5 81t-81 137z" />
    <glyph glyph-name="afii10193" unicode="&#x45f;" horiz-adv-x="995" 
d="M127 0v862h201v-678h340v678h200v-862h-278v-266h-184v266h-279z" />
    <glyph glyph-name="afii10146" unicode="&#x462;" horiz-adv-x="1212" 
d="M328 0v1030h-308v193h308v198h209v-198h368v-193h-368v-215h155q220 0 342 -108q60 -54 94.5 -131.5t34.5 -167.5q0 -100 -43.5 -189.5t-126.5 -144.5q-110 -74 -299 -74h-366zM537 618v-421h147q45 0 76 3t73.5 19t71.5 45q53 53 53 139q0 96 -57 150q-67 65 -213 65
h-151z" />
    <glyph glyph-name="afii10194" unicode="&#x463;" horiz-adv-x="892" 
d="M16 862h185v504h200v-504h246v-172h-246v-133h115q41 0 67 -2t63.5 -9.5t69.5 -26.5t60 -50q68 -75 68 -188q0 -129 -78 -207q-27 -26 -57 -42.5t-67 -22.5t-61 -7.5t-67 -1.5h-313v690h-185v172zM401 172h93q74 0 104 18q45 32 45 89q0 58 -43 86q-33 20 -104 20h-95
v-213z" />
    <glyph glyph-name="afii10147" unicode="&#x472;" horiz-adv-x="1617" 
d="M809 1391q151 0 283.5 -54.5t226 -149t147.5 -226t54 -279.5t-54 -279.5t-147.5 -226t-226 -149t-283.5 -54.5t-283.5 54.5t-226 149t-147.5 226t-54 279.5t54 279.5t147.5 226t226 149t283.5 54.5zM1305 588h-992q24 -179 161 -300.5t335 -121.5t335 121.5t161 300.5z
M313 784h992q-26 174 -161.5 294t-334.5 120t-334.5 -120t-161.5 -294z" />
    <glyph glyph-name="afii10195" unicode="&#x473;" horiz-adv-x="1085" 
d="M543 885q197 0 329 -128.5t132 -326.5q0 -197 -132.5 -327t-328.5 -130t-328.5 130t-132.5 327q0 198 132 326.5t329 128.5zM791 354h-496q17 -96 85 -148t163 -52t163 52t85 148zM295 518h496q-20 83 -84.5 135t-163.5 52t-163.5 -52t-84.5 -135z" />
    <glyph glyph-name="afii10148" unicode="&#x474;" horiz-adv-x="1228" 
d="M8 1366h225l381 -952l381 952h226l-607 -1454z" />
    <glyph glyph-name="afii10196" unicode="&#x475;" horiz-adv-x="917" 
d="M12 862h226l221 -491l221 491h225l-446 -923z" />
    <glyph glyph-name="afii10050" unicode="&#x490;" horiz-adv-x="876" 
d="M164 0v1366h487v307h197v-504h-475v-1169h-209z" />
    <glyph glyph-name="afii10098" unicode="&#x491;" horiz-adv-x="671" 
d="M127 0v862h344v246h184v-430h-327v-678h-201z" />
    <glyph glyph-name="uni0492" unicode="&#x492;" horiz-adv-x="876" 
d="M164 0v659h-184v177h184v530h684v-197h-475v-333h307v-177h-307v-659h-209z" />
    <glyph glyph-name="uni0493" unicode="&#x493;" horiz-adv-x="671" 
d="M127 0v344h-147v164h147v354h528v-184h-327v-170h204v-164h-204v-344h-201z" />
    <glyph glyph-name="uni0494" unicode="&#x494;" horiz-adv-x="1196" 
d="M823 1169h-450v-381q146 48 280 48q163 0 267 -62q178 -105 178 -366q0 -240 -150 -345q-104 -75 -286 -75q-56 0 -138 12v193q60 -13 131 -13q106 0 160 43q70 57 70 183q0 145 -109 204q-63 33 -158 33q-75 0 -145.5 -17t-99.5 -30v-596h-209v1366h659v-197z" />
    <glyph glyph-name="uni0495" unicode="&#x495;" horiz-adv-x="901" 
d="M127 0v862h528v-184h-327v-195h61q91 0 174.5 -27t138.5 -79q51 -48 84 -124.5t33 -176.5q0 -225 -157 -369q-125 -113 -293 -133v184q95 14 159 84q86 90 86 232q0 116 -67 176q-60 53 -176 53h-43v-303h-201z" />
    <glyph glyph-name="uni0496" unicode="&#x496;" horiz-adv-x="1753" 
d="M762 1366h209v-551l487 551h254l-563 -627l422 -542h153v-504h-196v307h-62l-462 602l-33 -37v-565h-209v565l-33 37l-463 -602h-258l576 739l-564 627h254l488 -551v551z" />
    <glyph glyph-name="uni0497" unicode="&#x497;" horiz-adv-x="1290" 
d="M539 862h200v-319l260 319h242l-334 -393l223 -285h144v-430h-184v246h-66l-260 346l-25 -29v-317h-200v317l-25 29l-260 -346h-250l367 469l-334 393h242l260 -319v319z" />
    <glyph glyph-name="uni0498" unicode="&#x498;" horiz-adv-x="1167" 
d="M281 1057l-138 133q77 102 176 147q104 52 248 52q204 0 318 -109q98 -94 98 -240q0 -99 -45 -170q-42 -71 -123 -118q111 -30 184 -121q70 -90 70 -232q0 -185 -137 -305q-98 -85 -230 -106v-328h-196v320q-158 10 -279 102q-113 86 -174 221l185 94q40 -105 127 -166
q90 -63 225 -63t209 74q65 65 65 168q0 104 -80 159q-35 24 -84.5 37t-81.5 15t-81 2h-123v196h110q52 0 107.5 13.5t89.5 41.5q61 51 61 140q0 91 -65 141q-52 41 -158 41q-99 0 -166 -39q-65 -37 -112 -100z" />
    <glyph glyph-name="uni0499" unicode="&#x499;" horiz-adv-x="901" 
d="M244 639l-129 113q48 58 131 96q86 37 203 37q133 0 219 -60q90 -64 90 -176q0 -72 -37 -119q-31 -41 -82 -61q79 -17 125 -63q55 -55 55 -144q0 -116 -74 -190q-73 -73 -180 -86v-252h-184v248q-105 2 -186 59q-75 52 -113 137l160 82q28 -62 75 -90q50 -33 129 -33
q95 0 138 43q30 33 30 76q0 44 -26 70q-16 17 -44 25.5t-46.5 9.5t-53.5 1h-90v164h76q62 0 98 23q37 28 37 76t-37 73q-33 23 -96 23q-59 0 -113 -25q-40 -19 -75 -57z" />
    <glyph glyph-name="uni049A" unicode="&#x49a;" horiz-adv-x="1208" 
d="M164 1366h209v-545l528 545h275l-617 -618l457 -551h164v-504h-197v307h-82l-487 606l-41 -41v-565h-209v1366z" />
    <glyph glyph-name="uni049B" unicode="&#x49b;" horiz-adv-x="917" 
d="M127 862h201v-307l286 307h267l-377 -377l248 -301h149v-430h-184v246h-70l-287 354l-32 -32v-322h-201v862z" />
    <glyph glyph-name="uni049C" unicode="&#x49c;" horiz-adv-x="1392" 
d="M164 1366h209v-541h176v287h184v-287l393 541h246l-465 -618l465 -748h-246l-393 641v-307h-184v307h-176v-641h-209v1366z" />
    <glyph glyph-name="uni049D" unicode="&#x49d;" horiz-adv-x="1077" 
d="M127 862h201v-311h123v205h163v-217l234 323h225l-282 -381l282 -481h-225l-234 399v-237h-163v225h-123v-387h-201v862z" />
    <glyph glyph-name="uni04A0" unicode="&#x4a0;" horiz-adv-x="1433" 
d="M397 0v1169h-377v197h586v-545l529 545h274l-616 -618l620 -748h-278l-488 606l-41 -41v-565h-209z" />
    <glyph glyph-name="uni04A1" unicode="&#x4a1;" horiz-adv-x="1044" 
d="M266 0v678h-250v184h451v-307l287 307h266l-377 -377l397 -485h-254l-286 354l-33 -32v-322h-201z" />
    <glyph glyph-name="uni04A2" unicode="&#x4a2;" horiz-adv-x="1372" 
d="M164 0v1366h209v-541h585v541h209v-1169h176v-504h-196v307h-189v629h-585v-629h-209z" />
    <glyph glyph-name="uni04A3" unicode="&#x4a3;" horiz-adv-x="1044" 
d="M127 0v862h201v-319h356v319h201v-678h143v-430h-184v246h-160v358h-356v-358h-201z" />
    <glyph glyph-name="uni04A4" unicode="&#x4a4;" horiz-adv-x="1671" 
d="M164 0v1366h209v-541h585v541h684v-197h-475v-1169h-209v629h-585v-629h-209z" />
    <glyph glyph-name="uni04A5" unicode="&#x4a5;" horiz-adv-x="1228" 
d="M127 0v862h201v-319h356v319h528v-184h-327v-678h-201v358h-356v-358h-201z" />
    <glyph glyph-name="uni04AA" unicode="&#x4aa;" horiz-adv-x="1269" 
d="M1176 1292v-245q-155 151 -371 151q-210 0 -340 -125q-74 -71 -116 -177t-42 -218q0 -109 37 -203t100 -160q62 -66 154 -107.5t209 -41.5q204 0 369 158v-248q-128 -76 -269 -94v-322h-196v326q-225 17 -394 176q-219 201 -219 516q0 326 219 534q190 179 492 179
q209 0 367 -99z" />
    <glyph glyph-name="uni04AB" unicode="&#x4ab;" horiz-adv-x="860" 
d="M795 823v-225q-109 107 -244 107q-115 0 -191 -76q-73 -73 -73 -199q0 -129 78 -207q72 -69 182 -69q66 0 132 27.5t116 82.5v-223q-77 -51 -162 -57v-250h-184v246q-141 14 -244 120q-123 127 -123 324q0 203 131 334q127 127 346 127q124 0 236 -62z" />
    <glyph glyph-name="uni04AE" unicode="&#x4ae;" horiz-adv-x="1105" 
d="M449 0v590l-449 776h238l315 -547l315 547h238l-449 -776v-590h-208z" />
    <glyph glyph-name="uni04AF" unicode="&#x4af;" horiz-adv-x="917" 
d="M12 862h226l221 -485l221 485h225l-346 -717v-614h-201v614z" />
    <glyph glyph-name="uni04B0" unicode="&#x4b0;" horiz-adv-x="1105" 
d="M449 0v414h-390v176h390l-449 776h238l315 -547l315 547h238l-449 -776h390v-176h-390v-414h-208z" />
    <glyph glyph-name="uni04B1" unicode="&#x4b1;" horiz-adv-x="917" 
d="M12 862h226l221 -485l221 485h225l-346 -717v-104h266v-176h-266v-334h-201v334h-266v176h266v104z" />
    <glyph glyph-name="uni04B2" unicode="&#x4b2;" horiz-adv-x="1167" 
d="M20 0l431 713l-377 653h233l266 -463l273 463h233l-393 -653l297 -516h156v-504h-197v307h-78l-299 522l-311 -522h-234z" />
    <glyph glyph-name="uni04B3" unicode="&#x4b3;" horiz-adv-x="1019" 
d="M12 0l381 467l-307 395h238l190 -252l193 252h245l-317 -395l223 -283h146v-430h-185v246h-57l-248 322l-256 -322h-246z" />
    <glyph glyph-name="uni04B6" unicode="&#x4b6;" horiz-adv-x="1282" 
d="M868 0v561q-187 -14 -278 -14q-228 0 -334 84q-133 105 -133 332v403h209v-373q0 -31 1.5 -51t7.5 -53t22.5 -60t42.5 -47q55 -43 217 -43q106 0 245 15v612h209v-1169h176v-504h-196v307h-189z" />
    <glyph glyph-name="uni04B7" unicode="&#x4b7;" horiz-adv-x="954" 
d="M594 0v334q-97 -19 -176 -19q-147 0 -228 64q-37 29 -57 70.5t-23.5 70t-3.5 66.5v276h201v-235q0 -88 51 -119q36 -21 101 -21q71 0 135 23v352h201v-678h143v-430h-184v246h-160z" />
    <glyph glyph-name="uni04B8" unicode="&#x4b8;" horiz-adv-x="1310" 
d="M938 0v561q-99 -12 -201 -12v-283h-184v283q-68 2 -148 21t-137 61q-145 105 -145 332v403h209v-373q0 -44 2.5 -71t22.5 -70t59 -70q52 -37 137 -41v303h184v-303q94 0 201 13v612h209v-1366h-209z" />
    <glyph glyph-name="uni04B9" unicode="&#x4b9;" horiz-adv-x="1085" 
d="M758 0v330q-86 -15 -140 -17v-180h-163v180q-62 0 -135 14.5t-119 47.5q-95 68 -95 211v276h201v-235q0 -90 66 -119q35 -14 82 -14v233h163v-233q68 0 140 16v352h200v-862h-200z" />
    <glyph glyph-name="uni04BA" unicode="&#x4ba;" horiz-adv-x="1241" 
d="M373 1366v-541q135 15 264 15q242 0 348 -84q133 -105 133 -332v-424h-209v393q0 44 -2 70.5t-19.5 70.5t-51.5 70q-55 43 -218 43q-112 0 -245 -14v-633h-209v1366h209z" />
    <glyph glyph-name="uni04BB" unicode="&#x4bb;" horiz-adv-x="995" 
d="M127 0v1493h201v-705q95 97 231 97q170 0 254 -117q55 -81 55 -240v-528h-200v510q0 34 -1.5 53.5t-10.5 47.5t-27 48q-42 46 -113 46q-48 0 -86.5 -20.5t-60.5 -51.5q-41 -58 -41 -217v-416h-201z" />
    <glyph glyph-name="uni04C0" unicode="&#x4c0;" horiz-adv-x="536" 
d="M164 1366h209v-1366h-209v1366z" />
    <glyph glyph-name="uni04C1" unicode="&#x4c1;" horiz-adv-x="1732" 
d="M762 1366h209v-551l487 551h254l-563 -627l575 -739h-258l-462 602l-33 -37v-565h-209v565l-33 37l-463 -602h-258l576 739l-564 627h254l488 -551v551zM524 1704l164 74q11 -39 37 -65t57.5 -35.5t48.5 -12t31 -2.5t31 2.5t48.5 12t57.5 35.5t37 65l164 -74
q-25 -60 -66.5 -103.5t-90 -65t-93 -31t-88.5 -9.5t-88.5 9.5t-93 31t-90 65t-66.5 103.5z" />
    <glyph glyph-name="uni04C2" unicode="&#x4c2;" horiz-adv-x="1277" 
d="M539 862h200v-319l260 319h242l-334 -393l367 -469h-250l-260 346l-25 -29v-317h-200v317l-25 29l-260 -346h-250l367 469l-334 393h242l260 -319v319zM303 1235l164 47q39 -133 168 -133q66 0 106 32t62 101l164 -47q-22 -80 -81 -137t-123.5 -81t-127.5 -24t-127.5 24
t-123.5 81t-81 137z" />
    <glyph glyph-name="uni04C3" unicode="&#x4c3;" horiz-adv-x="1261" 
d="M164 1366h209v-561l528 561h275l-547 -549q104 0 212 -39.5t181 -113.5q141 -143 141 -426q0 -305 -129 -445q-112 -121 -323 -121q-115 0 -215 43l49 191q77 -41 162 -41q98 0 159 61q88 91 88 297q0 94 -26.5 179t-77.5 137q-95 100 -297 100q-83 0 -180 -23v-616h-209
v1366z" />
    <glyph glyph-name="uni04C4" unicode="&#x4c4;" horiz-adv-x="901" 
d="M127 862h201v-307l286 307h267l-389 -393q136 -14 227 -109q100 -108 100 -288q0 -224 -157 -365q-122 -110 -293 -133v184q95 14 159 84q86 90 86 232q0 106 -59 168q-59 61 -188 61h-39v-303h-201v862z" />
    <glyph glyph-name="uni04C7" unicode="&#x4c7;" horiz-adv-x="1331" 
d="M164 0v1366h209v-541h585v541h209v-1542q0 -169 -90 -240q-67 -55 -192 -55q-73 0 -135 18v189q51 -19 96 -19q66 0 94 45q18 31 18 123v744h-585v-629h-209z" />
    <glyph glyph-name="uni04C8" unicode="&#x4c8;" horiz-adv-x="1011" 
d="M127 0v862h201v-319h356v319h201v-1038q0 -76 -17.5 -137t-72.5 -103q-70 -55 -185 -55q-87 0 -135 18v181q49 -19 96 -19q67 0 95 45q18 31 18 123v481h-356v-358h-201z" />
    <glyph glyph-name="uni04D0" unicode="&#x4d0;" horiz-adv-x="1343" 
d="M1110 0l-143 330h-584l-150 -330h-225l680 1446l647 -1446h-225zM469 526h414l-203 463zM342 1704l164 74q11 -39 37 -65t57.5 -35.5t48.5 -12t31 -2.5t31 2.5t48.5 12t57.5 35.5t37 65l164 -74q-25 -60 -66.5 -103.5t-90 -65t-93 -31t-88.5 -9.5t-88.5 9.5t-93 31
t-90 65t-66.5 103.5z" />
    <glyph glyph-name="uni04D1" unicode="&#x4d1;" horiz-adv-x="1085" 
d="M758 762v100h200v-862h-200v90q-101 -117 -258 -117q-128 0 -225 65.5t-145 169t-48 224.5q0 103 33.5 189t91 143.5t134 89t161.5 31.5q161 0 256 -123zM526 705q-107 0 -173 -79.5t-66 -197.5q0 -115 66.5 -194.5t172.5 -79.5q102 0 173 71.5t71 200.5q0 134 -71 206.5
t-173 72.5zM180 1235l164 47q39 -133 168 -133q66 0 106 32t62 101l164 -47q-22 -80 -81 -137t-123.5 -81t-127.5 -24t-127.5 24t-123.5 81t-81 137z" />
    <glyph glyph-name="uni04D2" unicode="&#x4d2;" horiz-adv-x="1343" 
d="M1110 0l-143 330h-584l-150 -330h-225l680 1446l647 -1446h-225zM469 526h414l-203 463zM352 1628q0 54 36.5 90.5t90.5 36.5t90.5 -36.5t36.5 -90.5t-36.5 -90.5t-90.5 -36.5t-90.5 36.5t-36.5 90.5zM754 1628q0 54 36.5 90.5t90.5 36.5t90.5 -36.5t36.5 -90.5
t-36.5 -90.5t-90.5 -36.5t-90.5 36.5t-36.5 90.5z" />
    <glyph glyph-name="uni04D3" unicode="&#x4d3;" horiz-adv-x="1085" 
d="M758 762v100h200v-862h-200v90q-101 -117 -258 -117q-128 0 -225 65.5t-145 169t-48 224.5q0 103 33.5 189t91 143.5t134 89t161.5 31.5q161 0 256 -123zM526 705q-107 0 -173 -79.5t-66 -197.5q0 -115 66.5 -194.5t172.5 -79.5q102 0 173 71.5t71 200.5q0 134 -71 206.5
t-173 72.5zM201 1165q0 54 36.5 90.5t90.5 36.5t90.5 -36.5t36.5 -90.5t-36.5 -90.5t-90.5 -36.5t-90.5 36.5t-36.5 90.5zM569 1165q0 54 36.5 90.5t90.5 36.5t90.5 -36.5t36.5 -90.5t-36.5 -90.5t-90.5 -36.5t-90.5 36.5t-36.5 90.5z" />
    <glyph glyph-name="uni04D4" unicode="&#x4d4;" horiz-adv-x="1896" 
d="M1118 0l-143 326h-580l-149 -326h-226l656 1366h604l86 -197h-543l144 -325h528l86 -197h-528l194 -450h543l86 -197h-758zM487 522h406l-195 445z" />
    <glyph glyph-name="uni04D5" unicode="&#x4d5;" horiz-adv-x="1548" 
d="M203 672v186q115 27 243 27q110 0 179 -27q76 -29 129 -96q48 58 118 88q76 35 179 35q187 0 295 -113q120 -126 120 -364v-25h-618q3 -47 23 -95t51 -79q55 -55 153 -55q80 0 137 43q50 38 80 94l168 -94q-57 -102 -145 -158q-104 -66 -258 -66q-105 0 -180 37
q-77 36 -123 103q-60 -70 -140 -107q-77 -33 -182 -33q-169 0 -264 93q-86 83 -86 196q0 123 82 201q48 45 118 68.5t144 23.5q120 0 221 -57q0 104 -57 155q-59 52 -176 52q-100 0 -211 -33zM451 383q-94 0 -142 -43q-35 -32 -35 -76q0 -45 41 -80q50 -39 136 -39
q75 0 129 33q55 35 55 90q0 53 -64 88q-53 27 -120 27zM862 547h400q-12 70 -62 117q-54 49 -135 49q-82 0 -141 -56q-46 -46 -62 -110z" />
    <glyph glyph-name="uni04D6" unicode="&#x4d6;" 
d="M918 1366v-197h-545v-346h528v-196h-528v-430h545v-197h-754v1366h754zM205 1704l164 74q11 -39 37 -65t57.5 -35.5t48.5 -12t31 -2.5t31 2.5t48.5 12t57.5 35.5t37 65l164 -74q-25 -60 -66.5 -103.5t-90 -65t-93 -31t-88.5 -9.5t-88.5 9.5t-93 31t-90 65t-66.5 103.5z
" />
    <glyph glyph-name="uni04D7" unicode="&#x4d7;" horiz-adv-x="987" 
d="M731 291l168 -94q-57 -102 -145 -158q-103 -66 -254 -66q-180 0 -291 111q-61 61 -94 147t-33 183q0 101 35 193.5t102 160.5q117 117 289 117q167 0 276 -113q121 -125 121 -364v-25h-618q3 -48 22.5 -95.5t50.5 -78.5q55 -55 154 -55q80 0 137 43q50 38 80 94zM301 547
h399q-12 71 -61 117q-53 49 -135 49q-86 0 -142 -56q-45 -42 -61 -110zM162 1235l164 47q39 -133 168 -133q66 0 106 32t62 101l163 -47q-22 -80 -80.5 -137t-123 -81t-127.5 -24t-127.5 24t-123.5 81t-81 137z" />
    <glyph glyph-name="uni04D8" unicode="&#x4d8;" horiz-adv-x="1531" 
d="M305 979l-147 135q66 87 149 146q181 131 416 131q314 0 516 -209q195 -202 195 -500q0 -301 -209 -510q-199 -199 -490 -199q-328 0 -508 254q-129 182 -129 441v63h1125q-10 139 -81.5 247t-181 164t-237.5 56q-77 0 -146 -20.5t-120.5 -56t-87.5 -69.5t-64 -73z
M1206 539h-884q13 -132 90 -228q116 -145 325 -145q115 0 208 43t155 115q78 90 106 215z" />
    <glyph glyph-name="afii10846" unicode="&#x4d9;" horiz-adv-x="999" 
d="M272 598l-182 61q51 105 150 164q105 62 239 62q190 0 305 -107q61 -57 97.5 -148.5t36.5 -207.5q0 -211 -132 -340q-112 -109 -290 -109q-171 0 -277 103q-62 61 -99.5 157t-37.5 211v52h627q-4 45 -24 87.5t-48 67.5q-57 54 -160 54q-76 0 -129 -33q-40 -22 -76 -74z
M694 332h-399q5 -39 21 -78t40 -61q48 -48 136 -48q85 0 139 54t63 133z" />
    <glyph glyph-name="uni04DA" unicode="&#x4da;" horiz-adv-x="1531" 
d="M305 979l-147 135q66 87 149 146q181 131 416 131q314 0 516 -209q195 -202 195 -500q0 -301 -209 -510q-199 -199 -490 -199q-328 0 -508 254q-129 182 -129 441v63h1125q-10 139 -81.5 247t-181 164t-237.5 56q-77 0 -146 -20.5t-120.5 -56t-87.5 -69.5t-64 -73z
M1206 539h-884q13 -132 90 -228q116 -145 325 -145q115 0 208 43t155 115q78 90 106 215zM438 1628q0 54 36.5 90.5t90.5 36.5t90.5 -36.5t36.5 -90.5t-36.5 -90.5t-90.5 -36.5t-90.5 36.5t-36.5 90.5zM840 1628q0 54 36.5 90.5t90.5 36.5t90.5 -36.5t36.5 -90.5
t-36.5 -90.5t-90.5 -36.5t-90.5 36.5t-36.5 90.5z" />
    <glyph glyph-name="uni04DB" unicode="&#x4db;" horiz-adv-x="999" 
d="M272 598l-182 61q51 105 150 164q105 62 239 62q190 0 305 -107q61 -57 97.5 -148.5t36.5 -207.5q0 -211 -132 -340q-112 -109 -290 -109q-171 0 -277 103q-62 61 -99.5 157t-37.5 211v52h627q-4 45 -24 87.5t-48 67.5q-57 54 -160 54q-76 0 -129 -33q-40 -22 -76 -74z
M694 332h-399q5 -39 21 -78t40 -61q48 -48 136 -48q85 0 139 54t63 133zM188 1165q0 54 36.5 90.5t90.5 36.5t90.5 -36.5t36.5 -90.5t-36.5 -90.5t-90.5 -36.5t-90.5 36.5t-36.5 90.5zM557 1165q0 54 36.5 90.5t90.5 36.5t90.5 -36.5t36.5 -90.5t-36.5 -90.5t-90.5 -36.5
t-90.5 36.5t-36.5 90.5z" />
    <glyph glyph-name="uni04DC" unicode="&#x4dc;" horiz-adv-x="1732" 
d="M762 1366h209v-551l487 551h254l-563 -627l575 -739h-258l-462 602l-33 -37v-565h-209v565l-33 37l-463 -602h-258l576 739l-564 627h254l488 -551v551zM539 1628q0 54 36.5 90.5t90.5 36.5t90.5 -36.5t36.5 -90.5t-36.5 -90.5t-90.5 -36.5t-90.5 36.5t-36.5 90.5z
M940 1628q0 54 36.5 90.5t90.5 36.5t90.5 -36.5t36.5 -90.5t-36.5 -90.5t-90.5 -36.5t-90.5 36.5t-36.5 90.5z" />
    <glyph glyph-name="uni04DD" unicode="&#x4dd;" horiz-adv-x="1277" 
d="M539 862h200v-319l260 319h242l-334 -393l367 -469h-250l-260 346l-25 -29v-317h-200v317l-25 29l-260 -346h-250l367 469l-334 393h242l260 -319v319zM328 1165q0 54 36.5 90.5t90.5 36.5t90.5 -36.5t36.5 -90.5t-36.5 -90.5t-90.5 -36.5t-90.5 36.5t-36.5 90.5z
M696 1165q0 54 36.5 90.5t90.5 36.5t90.5 -36.5t36.5 -90.5t-36.5 -90.5t-90.5 -36.5t-90.5 36.5t-36.5 90.5z" />
    <glyph glyph-name="uni04DE" unicode="&#x4de;" horiz-adv-x="1167" 
d="M281 1057l-138 133q77 102 176 147q104 52 248 52q204 0 318 -109q98 -94 98 -240q0 -99 -45 -170q-42 -71 -123 -118q111 -30 184 -121q70 -90 70 -232q0 -185 -137 -305q-140 -119 -369 -119q-194 0 -336 107q-110 85 -174 221l185 94q40 -105 127 -166q90 -63 225 -63
t209 74q65 65 65 168q0 104 -80 159q-35 24 -84.5 37t-81.5 15t-81 2h-123v196h110q52 0 107.5 13.5t89.5 41.5q61 51 61 140q0 91 -65 141q-52 41 -158 41q-99 0 -166 -39q-65 -37 -112 -100zM246 1628q0 54 36.5 90.5t90.5 36.5t90.5 -36.5t36.5 -90.5t-36.5 -90.5
t-90.5 -36.5t-90.5 36.5t-36.5 90.5zM647 1628q0 54 36.5 90.5t90.5 36.5t90.5 -36.5t36.5 -90.5t-36.5 -90.5t-90.5 -36.5t-90.5 36.5t-36.5 90.5z" />
    <glyph glyph-name="uni04DF" unicode="&#x4df;" horiz-adv-x="901" 
d="M244 639l-129 113q48 58 131 96q86 37 203 37q133 0 219 -60q90 -64 90 -176q0 -72 -37 -119q-31 -41 -82 -61q79 -17 125 -63q55 -55 55 -144q0 -116 -74 -190q-99 -99 -303 -99q-135 0 -225 52q-92 55 -135 153l160 82q28 -62 75 -90q50 -33 129 -33q95 0 138 43
q30 33 30 76q0 44 -26 70q-16 17 -44 25.5t-46.5 9.5t-53.5 1h-90v164h76q62 0 98 23q37 28 37 76t-37 73q-33 23 -96 23q-59 0 -113 -25q-40 -19 -75 -57zM160 1165q0 54 36.5 90.5t90.5 36.5t90.5 -36.5t36.5 -90.5t-36.5 -90.5t-90.5 -36.5t-90.5 36.5t-36.5 90.5z
M528 1165q0 54 36.5 90.5t90.5 36.5t90.5 -36.5t36.5 -90.5t-36.5 -90.5t-90.5 -36.5t-90.5 36.5t-36.5 90.5z" />
    <glyph glyph-name="uni04E2" unicode="&#x4e2;" horiz-adv-x="1458" 
d="M1085 0v920l-921 -981v1427h209v-924l921 981v-1423h-209zM377 1501v164h737v-164h-737z" />
    <glyph glyph-name="uni04E3" unicode="&#x4e3;" horiz-adv-x="1044" 
d="M127 862h201v-489l590 567v-940h-201v502l-590 -568v928zM184 1040v160h676v-160h-676z" />
    <glyph glyph-name="uni04E4" unicode="&#x4e4;" horiz-adv-x="1458" 
d="M1085 0v920l-921 -981v1427h209v-924l921 981v-1423h-209zM418 1628q0 54 36.5 90.5t90.5 36.5t90.5 -36.5t36.5 -90.5t-36.5 -90.5t-90.5 -36.5t-90.5 36.5t-36.5 90.5zM819 1628q0 54 36.5 90.5t90.5 36.5t90.5 -36.5t36.5 -90.5t-36.5 -90.5t-90.5 -36.5t-90.5 36.5
t-36.5 90.5z" />
    <glyph glyph-name="uni04E5" unicode="&#x4e5;" horiz-adv-x="1044" 
d="M127 862h201v-489l590 567v-940h-201v502l-590 -568v928zM211 1165q0 54 36.5 90.5t90.5 36.5t90.5 -36.5t36.5 -90.5t-36.5 -90.5t-90.5 -36.5t-90.5 36.5t-36.5 90.5zM580 1165q0 54 36.5 90.5t90.5 36.5t90.5 -36.5t36.5 -90.5t-36.5 -90.5t-90.5 -36.5t-90.5 36.5
t-36.5 90.5z" />
    <glyph glyph-name="uni04E6" unicode="&#x4e6;" horiz-adv-x="1617" 
d="M809 1391q151 0 283.5 -54.5t226 -149t147.5 -226t54 -279.5t-54 -279.5t-147.5 -226t-226 -149t-283.5 -54.5t-283.5 54.5t-226 149t-147.5 226t-54 279.5t54 279.5t147.5 226t226 149t283.5 54.5zM809 166q220 0 361 144.5t141 371.5t-141 371.5t-361 144.5
t-361 -144.5t-141 -371.5t141 -371.5t361 -144.5zM481 1628q0 54 36.5 90.5t90.5 36.5t90.5 -36.5t36.5 -90.5t-36.5 -90.5t-90.5 -36.5t-90.5 36.5t-36.5 90.5zM883 1628q0 54 36.5 90.5t90.5 36.5t90.5 -36.5t36.5 -90.5t-36.5 -90.5t-90.5 -36.5t-90.5 36.5t-36.5 90.5z
" />
    <glyph glyph-name="uni04E7" unicode="&#x4e7;" horiz-adv-x="1085" 
d="M543 885q197 0 329 -128.5t132 -326.5q0 -197 -132.5 -327t-328.5 -130t-328.5 130t-132.5 327q0 198 132 326.5t329 128.5zM543 154q118 0 187 74.5t69 199.5q0 71 -22 126t-59 87t-81.5 48t-93.5 16t-93.5 -16t-81.5 -48t-59 -87t-22 -126q0 -125 69 -199.5t187 -74.5z
M231 1165q0 54 36.5 90.5t90.5 36.5t90.5 -36.5t36.5 -90.5t-36.5 -90.5t-90.5 -36.5t-90.5 36.5t-36.5 90.5zM600 1165q0 54 36.5 90.5t90.5 36.5t90.5 -36.5t36.5 -90.5t-36.5 -90.5t-90.5 -36.5t-90.5 36.5t-36.5 90.5z" />
    <glyph glyph-name="uni04E8" unicode="&#x4e8;" horiz-adv-x="1617" 
d="M809 1391q151 0 283.5 -54.5t226 -149t147.5 -226t54 -279.5t-54 -279.5t-147.5 -226t-226 -149t-283.5 -54.5t-283.5 54.5t-226 149t-147.5 226t-54 279.5t54 279.5t147.5 226t226 149t283.5 54.5zM1305 588h-992q24 -179 161 -300.5t335 -121.5t335 121.5t161 300.5z
M313 784h992q-26 174 -161.5 294t-334.5 120t-334.5 -120t-161.5 -294z" />
    <glyph glyph-name="uni04E9" unicode="&#x4e9;" horiz-adv-x="1085" 
d="M543 885q197 0 329 -128.5t132 -326.5q0 -197 -132.5 -327t-328.5 -130t-328.5 130t-132.5 327q0 198 132 326.5t329 128.5zM791 354h-496q17 -96 85 -148t163 -52t163 52t85 148zM295 518h496q-20 83 -84.5 135t-163.5 52t-163.5 -52t-84.5 -135z" />
    <glyph glyph-name="uni04EA" unicode="&#x4ea;" horiz-adv-x="1617" 
d="M809 1391q151 0 283.5 -54.5t226 -149t147.5 -226t54 -279.5t-54 -279.5t-147.5 -226t-226 -149t-283.5 -54.5t-283.5 54.5t-226 149t-147.5 226t-54 279.5t54 279.5t147.5 226t226 149t283.5 54.5zM1305 588h-992q24 -179 161 -300.5t335 -121.5t335 121.5t161 300.5z
M313 784h992q-26 174 -161.5 294t-334.5 120t-334.5 -120t-161.5 -294zM481 1628q0 54 36.5 90.5t90.5 36.5t90.5 -36.5t36.5 -90.5t-36.5 -90.5t-90.5 -36.5t-90.5 36.5t-36.5 90.5zM883 1628q0 54 36.5 90.5t90.5 36.5t90.5 -36.5t36.5 -90.5t-36.5 -90.5t-90.5 -36.5
t-90.5 36.5t-36.5 90.5z" />
    <glyph glyph-name="uni04EB" unicode="&#x4eb;" horiz-adv-x="1085" 
d="M543 885q197 0 329 -128.5t132 -326.5q0 -197 -132.5 -327t-328.5 -130t-328.5 130t-132.5 327q0 198 132 326.5t329 128.5zM791 354h-496q17 -96 85 -148t163 -52t163 52t85 148zM295 518h496q-20 83 -84.5 135t-163.5 52t-163.5 -52t-84.5 -135zM231 1165
q0 54 36.5 90.5t90.5 36.5t90.5 -36.5t36.5 -90.5t-36.5 -90.5t-90.5 -36.5t-90.5 36.5t-36.5 90.5zM600 1165q0 54 36.5 90.5t90.5 36.5t90.5 -36.5t36.5 -90.5t-36.5 -90.5t-90.5 -36.5t-90.5 36.5t-36.5 90.5z" />
    <glyph glyph-name="uni04EE" unicode="&#x4ee;" horiz-adv-x="1167" 
d="M12 1366h254l352 -729l320 729h217l-616 -1366h-217l176 387zM233 1501v164h738v-164h-738z" />
    <glyph glyph-name="uni04EF" unicode="&#x4ef;" horiz-adv-x="987" 
d="M63 -469l318 604l-369 727h242l246 -504l250 504h225l-686 -1331h-226zM156 1040v160h675v-160h-675z" />
    <glyph glyph-name="uni04F0" unicode="&#x4f0;" horiz-adv-x="1167" 
d="M12 1366h254l352 -729l320 729h217l-616 -1366h-217l176 387zM274 1628q0 54 36.5 90.5t90.5 36.5t90.5 -36.5t36.5 -90.5t-36.5 -90.5t-90.5 -36.5t-90.5 36.5t-36.5 90.5zM676 1628q0 54 36.5 90.5t90.5 36.5t90.5 -36.5t36.5 -90.5t-36.5 -90.5t-90.5 -36.5
t-90.5 36.5t-36.5 90.5z" />
    <glyph glyph-name="uni04F1" unicode="&#x4f1;" horiz-adv-x="987" 
d="M63 -469l318 604l-369 727h242l246 -504l250 504h225l-686 -1331h-226zM182 1165q0 54 36.5 90.5t90.5 36.5t90.5 -36.5t36.5 -90.5t-36.5 -90.5t-90.5 -36.5t-90.5 36.5t-36.5 90.5zM551 1165q0 54 36.5 90.5t90.5 36.5t90.5 -36.5t36.5 -90.5t-36.5 -90.5t-90.5 -36.5
t-90.5 36.5t-36.5 90.5z" />
    <glyph glyph-name="uni04F2" unicode="&#x4f2;" horiz-adv-x="1167" 
d="M12 1366h254l352 -729l320 729h217l-616 -1366h-217l176 387zM565 1855l160 -106l-319 -260l-91 74zM975 1855l160 -106l-320 -260l-90 74z" />
    <glyph glyph-name="uni04F3" unicode="&#x4f3;" horiz-adv-x="987" 
d="M63 -469l318 604l-369 727h242l246 -504l250 504h225l-686 -1331h-226zM457 1382l168 -94l-299 -295l-86 70zM825 1382l168 -94l-299 -295l-86 70z" />
    <glyph glyph-name="uni04F4" unicode="&#x4f4;" horiz-adv-x="1241" 
d="M868 0v561q-187 -14 -278 -14q-228 0 -334 84q-133 105 -133 332v403h209v-373q0 -31 1.5 -51t7.5 -53t22.5 -60t42.5 -47q55 -43 217 -43q106 0 245 15v612h209v-1366h-209zM293 1628q0 54 36.5 90.5t90.5 36.5t90.5 -36.5t36.5 -90.5t-36.5 -90.5t-90.5 -36.5
t-90.5 36.5t-36.5 90.5zM694 1628q0 54 36.5 90.5t90.5 36.5t90.5 -36.5t36.5 -90.5t-36.5 -90.5t-90.5 -36.5t-90.5 36.5t-36.5 90.5z" />
    <glyph glyph-name="uni04F5" unicode="&#x4f5;" horiz-adv-x="921" 
d="M594 0v334q-97 -19 -176 -19q-147 0 -228 64q-37 29 -57 70.5t-23.5 70t-3.5 66.5v276h201v-235q0 -88 51 -119q36 -21 101 -21q71 0 135 23v352h201v-862h-201zM150 1165q0 54 36 90.5t90 36.5t90.5 -36.5t36.5 -90.5t-36.5 -90.5t-90.5 -36.5t-90 36.5t-36 90.5z
M518 1165q0 54 36.5 90.5t90.5 36.5t90.5 -36.5t36.5 -90.5t-36.5 -90.5t-90.5 -36.5t-90.5 36.5t-36.5 90.5z" />
    <glyph glyph-name="uni04F8" unicode="&#x4f8;" horiz-adv-x="1515" 
d="M164 0v1366h209v-551h155q220 0 342 -108q60 -52 94.5 -130.5t34.5 -170.5q0 -98 -43.5 -187.5t-126.5 -144.5q-110 -74 -299 -74h-366zM373 618v-421h147q20 0 33.5 0.5t44.5 4.5t54 11t51.5 22t47 36.5t31.5 55t13 76.5q0 32 -6.5 60.5t-25.5 57.5t-48 50t-78 34
t-113 13h-151zM1143 1366h209v-1366h-209v1366zM420 1628q0 54 36.5 90.5t90.5 36.5t90.5 -36.5t36.5 -90.5t-36.5 -90.5t-90.5 -36.5t-90.5 36.5t-36.5 90.5zM821 1628q0 54 36.5 90.5t90.5 36.5t90.5 -36.5t36.5 -90.5t-36.5 -90.5t-90.5 -36.5t-90.5 36.5t-36.5 90.5z
" />
    <glyph glyph-name="uni04F9" unicode="&#x4f9;" horiz-adv-x="1187" 
d="M127 0v862h201v-305h114q41 0 67 -2t63.5 -9.5t69.5 -26.5t60 -50q68 -75 68 -188q0 -129 -78 -207q-27 -26 -57 -42.5t-67 -22.5t-61 -7.5t-67 -1.5h-313zM328 172h92q74 0 104 18q45 32 45 89q0 58 -43 86q-33 20 -104 20h-94v-213zM860 0v862h201v-862h-201zM293 1165
q0 54 36.5 90.5t90.5 36.5t90.5 -36.5t36.5 -90.5t-36.5 -90.5t-90.5 -36.5t-90.5 36.5t-36.5 90.5zM662 1165q0 54 36 90.5t90 36.5t90.5 -36.5t36.5 -90.5t-36.5 -90.5t-90.5 -36.5t-90 36.5t-36 90.5z" />
    <glyph glyph-name="uni1E9E" unicode="&#x1e9e;" horiz-adv-x="1161" 
d="M164 0v983q0 186 141 309q59 51 133 75t144 24q151 0 254 -76q63 -47 104 -120t45 -161l-237 -235q140 -32 225 -123q90 -97 90 -260q0 -184 -164 -314q-131 -102 -352 -131v197q54 2 115 20t106 56q90 73 90 186q0 117 -94 182q-39 27 -100 44t-117 20v123l217 233
q-8 81 -55 123q-50 47 -140 47q-84 0 -137 -53q-59 -59 -59 -154v-995h-209z" />
    <glyph glyph-name="uni2010" unicode="&#x2010;" horiz-adv-x="696" 
d="M102 332v209h492v-209h-492z" />
    <glyph glyph-name="uni2011" unicode="&#x2011;" horiz-adv-x="696" 
d="M102 332v209h492v-209h-492z" />
    <glyph glyph-name="figuredash" unicode="&#x2012;" horiz-adv-x="1269" 
d="M143 602v184h983v-184h-983z" />
    <glyph glyph-name="endash" unicode="&#x2013;" horiz-adv-x="1269" 
d="M143 344v184h983v-184h-983z" />
    <glyph glyph-name="emdash" unicode="&#x2014;" horiz-adv-x="1720" 
d="M143 344v184h1434v-184h-1434z" />
    <glyph glyph-name="afii00208" unicode="&#x2015;" horiz-adv-x="1720" 
d="M143 344v184h1434v-184h-1434z" />
    <glyph glyph-name="quoteleft" unicode="&#x2018;" horiz-adv-x="593" 
d="M492 1366l-209 -520l-181 69l254 506z" />
    <glyph glyph-name="quoteright" unicode="&#x2019;" horiz-adv-x="593" 
d="M102 915l209 521l181 -70l-254 -506z" />
    <glyph glyph-name="quotesinglbase" unicode="&#x201a;" horiz-adv-x="696" 
d="M102 -264l209 520l181 -70l-254 -505z" />
    <glyph glyph-name="quotedblleft" unicode="&#x201c;" horiz-adv-x="946" 
d="M844 1366l-209 -520l-176 69l252 506zM487 1366l-208 -520l-177 69l252 506z" />
    <glyph glyph-name="quotedblright" unicode="&#x201d;" horiz-adv-x="946" 
d="M102 915l209 521l176 -70l-251 -506zM459 915l209 521l176 -70l-252 -506z" />
    <glyph glyph-name="quotedblbase" unicode="&#x201e;" horiz-adv-x="1048" 
d="M102 -264l209 520l176 -70l-251 -505zM459 -264l209 520l176 -70l-252 -505z" />
    <glyph glyph-name="dagger" unicode="&#x2020;" horiz-adv-x="1163" 
d="M481 1057v436h201v-436h283v-193h-283v-1226h-201v1226h-282v193h282z" />
    <glyph glyph-name="daggerdbl" unicode="&#x2021;" horiz-adv-x="1163" 
d="M481 1057v436h201v-436h283v-193h-283v-514h283v-192h-283v-520h-201v520h-282v192h282v514h-282v193h282z" />
    <glyph glyph-name="bullet" unicode="&#x2022;" horiz-adv-x="2048" 
d="M737 696q0 118 84.5 202.5t202.5 84.5t202.5 -84.5t84.5 -202.5t-84 -202t-203 -84t-203 84t-84 202z" />
    <glyph glyph-name="ellipsis" unicode="&#x2026;" horiz-adv-x="1638" 
d="M164 98q0 51 36 87t87 36t87 -36t36 -87t-36 -87t-87 -36t-87 36t-36 87zM696 98q0 51 36 87t87 36t87 -36t36 -87t-36 -87t-87 -36t-87 36t-36 87zM1229 98q0 51 36 87t87 36t87 -36t36 -87t-36 -87t-87 -36t-87 36t-36 87z" />
    <glyph glyph-name="perthousand" unicode="&#x2030;" horiz-adv-x="2457" 
d="M397 1378q135 0 232.5 -94.5t97.5 -226.5q0 -131 -97 -226.5t-233 -95.5t-232.5 95.5t-96.5 226.5q0 132 97 226.5t232 94.5zM397 883q79 0 124.5 53.5t45.5 120.5t-45.5 120.5t-124.5 53.5t-124.5 -53.5t-45.5 -120.5t45.5 -120.5t124.5 -53.5zM391 37l780 1352l97 -56
l-781 -1356zM1262 629q135 0 232 -95t97 -227q0 -131 -96.5 -226t-232.5 -95t-233 95t-97 226q0 132 97.5 227t232.5 95zM1262 133q79 0 124.5 53.5t45.5 120.5t-45.5 120.5t-124.5 53.5t-124.5 -53.5t-45.5 -120.5t45.5 -120.5t124.5 -53.5zM2060 629q135 0 232.5 -95
t97.5 -227q0 -131 -97 -226t-233 -95t-232.5 95t-96.5 226q0 132 97 227t232 95zM2060 133q79 0 124.5 53.5t45.5 120.5t-45.5 120.5t-124.5 53.5t-124.5 -53.5t-45.5 -120.5t45.5 -120.5t124.5 -53.5z" />
    <glyph glyph-name="guilsinglleft" unicode="&#x2039;" horiz-adv-x="657" 
d="M287 449l260 -338l-133 -97l-332 435l332 434l133 -97z" />
    <glyph glyph-name="guilsinglright" unicode="&#x203a;" horiz-adv-x="657" 
d="M371 449l-260 337l133 97l331 -434l-331 -435l-133 97z" />
    <glyph glyph-name="fraction" unicode="&#x2044;" horiz-adv-x="471" 
d="M-205 35l783 1354l98 -58l-782 -1354z" />
    <glyph glyph-name="uni2070" unicode="&#x2070;" horiz-adv-x="757" 
d="M379 532q-115 0 -201 91q-112 125 -112 333q0 209 112 334q85 90 201 90t201 -90q112 -125 112 -334q0 -208 -112 -333q-86 -91 -201 -91zM379 1245q-64 0 -109 -61q-57 -77 -57 -228q0 -150 57 -227q45 -61 109 -61q63 0 108 61q58 79 58 227q0 149 -58 228
q-45 61 -108 61z" />
    <glyph glyph-name="uni2074" unicode="&#x2074;" horiz-adv-x="757" 
d="M604 1427v-628h88v-135h-88v-117h-147v117h-428zM285 799h172v233z" />
    <glyph glyph-name="uni2075" unicode="&#x2075;" horiz-adv-x="757" 
d="M612 1366v-135h-258l-35 -125q12 2 39 2q119 0 195 -59q98 -78 98 -215q0 -135 -90.5 -218.5t-232.5 -83.5q-187 0 -287 175l115 79q49 -118 174 -118q83 0 128.5 45t45.5 114q0 71 -46 114.5t-128 43.5q-98 0 -156 -70h-55l135 451h358z" />
    <glyph glyph-name="uni2076" unicode="&#x2076;" horiz-adv-x="757" 
d="M434 1415l125 -88l-182 -262q12 2 37 2q106 0 184 -63t78 -189q0 -124 -82.5 -203.5t-214.5 -79.5q-72 0 -130 23t-93.5 61t-54.5 84.5t-19 96.5q0 111 68 209zM377 936q-63 0 -105.5 -37.5t-42.5 -97.5q0 -59 43 -98t107 -39t106.5 39t42.5 98q0 60 -42.5 97.5
t-108.5 37.5z" />
    <glyph glyph-name="uni2077" unicode="&#x2077;" horiz-adv-x="757" 
d="M70 580l397 651h-393v135h651l-516 -848z" />
    <glyph glyph-name="uni2078" unicode="&#x2078;" horiz-adv-x="757" 
d="M379 1380q119 0 188.5 -69t69.5 -164q0 -109 -90 -174q61 -28 86.5 -82t25.5 -111q0 -114 -82 -181t-198 -67t-198.5 67t-82.5 181q0 56 26 110.5t87 82.5q-90 65 -90 174q0 95 69.5 164t188.5 69zM379 1249q-56 0 -87.5 -32.5t-31.5 -75.5q0 -41 31 -73t88 -32
q56 0 87.5 31.5t31.5 73.5q0 43 -31.5 75.5t-87.5 32.5zM379 905q-62 0 -97.5 -36t-35.5 -85q0 -48 34.5 -84t98.5 -36t98.5 36t34.5 84q0 49 -35.5 85t-97.5 36z" />
    <glyph glyph-name="uni2079" unicode="&#x2079;" horiz-adv-x="757" 
d="M324 498l-125 88l182 262q-12 -2 -35 -2q-105 0 -184.5 66t-79.5 184q0 125 82 204.5t215 79.5q141 0 219 -78.5t78 -185.5q0 -113 -68 -209zM381 977q63 0 105 37.5t42 97.5q0 59 -42.5 98t-106.5 39t-107 -39t-43 -98q0 -60 43 -97.5t109 -37.5z" />
    <glyph glyph-name="uni2080" unicode="&#x2080;" horiz-adv-x="757" 
d="M379 -14q-116 0 -201 90q-112 125 -112 334q0 208 112 333q86 91 201 91t201 -91q112 -125 112 -333q0 -209 -112 -334q-85 -90 -201 -90zM379 698q-64 0 -109 -61q-57 -77 -57 -227q0 -151 57 -228q45 -61 109 -61q63 0 108 61q58 79 58 228q0 148 -58 227
q-45 61 -108 61z" />
    <glyph glyph-name="uni2081" unicode="&#x2081;" horiz-adv-x="757" 
d="M332 0v684h-160l86 135h225v-819h-151z" />
    <glyph glyph-name="uni2082" unicode="&#x2082;" horiz-adv-x="757" 
d="M643 135v-135h-594l299 332q69 78 103 127q43 60 43 116t-36 89.5t-93 33.5q-67 0 -105 -44.5t-45 -104.5h-143q7 119 75 196q80 89 211 89q132 0 207.5 -74t75.5 -180q0 -75 -61 -174q-40 -63 -113 -144l-113 -127h289z" />
    <glyph glyph-name="uni2083" unicode="&#x2083;" horiz-adv-x="757" 
d="M236 586h-144q7 85 47 143q29 43 84.5 74t141.5 31q129 0 194.5 -66.5t65.5 -163.5q0 -126 -107 -172q11 -4 22 -9.5t30 -20.5t33.5 -34t25 -51t10.5 -71q0 -109 -74.5 -184.5t-214.5 -75.5q-194 0 -262 159q-19 50 -22 99h143q4 -43 23.5 -70.5t47 -37.5t42 -12.5
t28.5 -2.5q69 0 105.5 36.5t36.5 90.5q0 13 -2 25.5t-11 30.5t-23 31t-41.5 22.5t-64.5 9.5h-49v135h49q129 0 129 96q0 49 -32 74.5t-87 25.5q-57 0 -89 -30.5t-35 -81.5z" />
    <glyph glyph-name="uni2084" unicode="&#x2084;" horiz-adv-x="757" 
d="M604 881v-629h88v-135h-88v-117h-147v117h-428zM285 252h172v233z" />
    <glyph glyph-name="uni2085" unicode="&#x2085;" horiz-adv-x="757" 
d="M612 819v-135h-258l-35 -125q12 2 39 2q119 0 195 -59q98 -78 98 -215q0 -135 -90.5 -218t-232.5 -83q-187 0 -287 174l115 80q49 -119 174 -119q83 0 128.5 45.5t45.5 114.5q0 70 -46 113.5t-128 43.5q-99 0 -156 -69h-55l135 450h358z" />
    <glyph glyph-name="uni2086" unicode="&#x2086;" horiz-adv-x="757" 
d="M434 868l125 -88l-182 -262q12 2 37 2q106 0 184 -63t78 -189q0 -124 -82 -203t-215 -79q-141 0 -219 78.5t-78 185.5q0 111 68 209zM377 389q-63 0 -105.5 -37.5t-42.5 -97.5q0 -59 43 -98t107 -39t106.5 39t42.5 98q0 60 -42.5 97.5t-108.5 37.5z" />
    <glyph glyph-name="uni2087" unicode="&#x2087;" horiz-adv-x="757" 
d="M70 33l397 651h-393v135h651l-516 -848z" />
    <glyph glyph-name="uni2088" unicode="&#x2088;" horiz-adv-x="757" 
d="M379 834q119 0 188.5 -69.5t69.5 -164.5q0 -109 -90 -174q61 -28 86.5 -82t25.5 -111q0 -114 -82 -180.5t-198 -66.5t-198.5 66.5t-82.5 180.5q0 56 26 110.5t87 82.5q-90 65 -90 174q0 95 69.5 164.5t188.5 69.5zM379 702q-56 0 -87.5 -32.5t-31.5 -75.5q0 -41 31 -73
t88 -32q56 0 87.5 31.5t31.5 73.5q0 43 -31.5 75.5t-87.5 32.5zM379 358q-63 0 -98 -35.5t-35 -84.5q0 -48 34.5 -84.5t98.5 -36.5t98.5 36.5t34.5 84.5q0 49 -35 84.5t-98 35.5z" />
    <glyph glyph-name="uni2089" unicode="&#x2089;" horiz-adv-x="757" 
d="M324 -49l-125 88l182 262q-12 -2 -35 -2q-105 0 -184.5 66t-79.5 184q0 125 82 205t215 80q72 0 130 -23t93.5 -61t54.5 -84.5t19 -96.5q0 -113 -68 -209zM381 430q63 0 105 37.5t42 97.5q0 59 -42.5 98t-106.5 39t-107 -39t-43 -98q0 -60 43 -97.5t109 -37.5z" />
    <glyph glyph-name="Euro" unicode="&#x20ac;" horiz-adv-x="1163" 
d="M1110 1313l-88 -183q-100 68 -242 68q-161 0 -277 -74.5t-161 -210.5h596l-61 -143h-564q-10 -80 -2 -152h506l-61 -143h-424q35 -144 153.5 -226.5t276.5 -82.5q178 0 328 117v-224q-168 -86 -334 -86q-135 0 -258 41.5t-211 126.5q-138 132 -168 334h-139l61 143h61
q-8 72 2 152h-124l61 143h84q45 176 168 299q181 179 493 179q189 0 324 -78z" />
    <glyph glyph-name="uni20B4" unicode="&#x20b4;" horiz-adv-x="1163" 
d="M164 1161q71 97 170 156q119 74 272 74q156 0 246 -74q90 -72 90 -184q0 -117 -96 -218h227v-143h-336l-147 -151h483v-144h-608q-41 -36 -62.5 -83t-21.5 -87q0 -59 45 -100q48 -41 139 -41q113 0 191 63q69 56 96 127l174 -82q-45 -114 -147 -194q-74 -59 -151 -83
t-179 -24q-159 0 -254 68q-55 38 -89 98t-34 135q0 112 80 203h-170v144h283l147 151h-430v143h551q38 28 69 70.5t31 93.5q0 55 -33 84q-37 35 -112 35q-79 0 -150 -41q-69 -41 -106 -94z" />
    <glyph glyph-name="uni20B6" unicode="&#x20b6;" horiz-adv-x="1163" 
d="M575 1366q189 0 299 -74q83 -54 126.5 -142t43.5 -177q0 -79 -29 -155t-79 -126q-125 -125 -358 -125h-95v-151h324v-144h-324v-272h-209v272h-149v144h149v151h-149v181h149v618h301zM483 1174v-426h95q144 0 213 69q53 53 53 146q0 89 -58 147q-40 39 -91 51.5
t-120 12.5h-92z" />
    <glyph glyph-name="uni20B6" unicode="&#x20cf;" horiz-adv-x="1163" 
d="M575 1366q189 0 299 -74q83 -54 126.5 -142t43.5 -177q0 -79 -29 -155t-79 -126q-125 -125 -358 -125h-95v-151h324v-144h-324v-272h-209v272h-149v144h149v151h-149v181h149v618h301zM483 1174v-426h95q144 0 213 69q53 53 53 146q0 89 -58 147q-40 39 -91 51.5
t-120 12.5h-92z" />
    <glyph glyph-name="uni20B6" unicode="&#x20ce;" horiz-adv-x="1163" 
d="M575 1366q189 0 299 -74q83 -54 126.5 -142t43.5 -177q0 -79 -29 -155t-79 -126q-125 -125 -358 -125h-95v-151h324v-144h-324v-272h-209v272h-149v144h149v151h-149v181h149v618h301zM483 1174v-426h95q144 0 213 69q53 53 53 146q0 89 -58 147q-40 39 -91 51.5
t-120 12.5h-92z" />
    <glyph glyph-name="uni20B6" unicode="&#x20cd;" horiz-adv-x="1163" 
d="M575 1366q189 0 299 -74q83 -54 126.5 -142t43.5 -177q0 -79 -29 -155t-79 -126q-125 -125 -358 -125h-95v-151h324v-144h-324v-272h-209v272h-149v144h149v151h-149v181h149v618h301zM483 1174v-426h95q144 0 213 69q53 53 53 146q0 89 -58 147q-40 39 -91 51.5
t-120 12.5h-92z" />
    <glyph glyph-name="uni20B6" unicode="&#x20cc;" horiz-adv-x="1163" 
d="M575 1366q189 0 299 -74q83 -54 126.5 -142t43.5 -177q0 -79 -29 -155t-79 -126q-125 -125 -358 -125h-95v-151h324v-144h-324v-272h-209v272h-149v144h149v151h-149v181h149v618h301zM483 1174v-426h95q144 0 213 69q53 53 53 146q0 89 -58 147q-40 39 -91 51.5
t-120 12.5h-92z" />
    <glyph glyph-name="uni20B6" unicode="&#x20cb;" horiz-adv-x="1163" 
d="M575 1366q189 0 299 -74q83 -54 126.5 -142t43.5 -177q0 -79 -29 -155t-79 -126q-125 -125 -358 -125h-95v-151h324v-144h-324v-272h-209v272h-149v144h149v151h-149v181h149v618h301zM483 1174v-426h95q144 0 213 69q53 53 53 146q0 89 -58 147q-40 39 -91 51.5
t-120 12.5h-92z" />
    <glyph glyph-name="uni20B6" unicode="&#x20ca;" horiz-adv-x="1163" 
d="M575 1366q189 0 299 -74q83 -54 126.5 -142t43.5 -177q0 -79 -29 -155t-79 -126q-125 -125 -358 -125h-95v-151h324v-144h-324v-272h-209v272h-149v144h149v151h-149v181h149v618h301zM483 1174v-426h95q144 0 213 69q53 53 53 146q0 89 -58 147q-40 39 -91 51.5
t-120 12.5h-92z" />
    <glyph glyph-name="uni20B6" unicode="&#x20c9;" horiz-adv-x="1163" 
d="M575 1366q189 0 299 -74q83 -54 126.5 -142t43.5 -177q0 -79 -29 -155t-79 -126q-125 -125 -358 -125h-95v-151h324v-144h-324v-272h-209v272h-149v144h149v151h-149v181h149v618h301zM483 1174v-426h95q144 0 213 69q53 53 53 146q0 89 -58 147q-40 39 -91 51.5
t-120 12.5h-92z" />
    <glyph glyph-name="uni20B6" unicode="&#x20c8;" horiz-adv-x="1163" 
d="M575 1366q189 0 299 -74q83 -54 126.5 -142t43.5 -177q0 -79 -29 -155t-79 -126q-125 -125 -358 -125h-95v-151h324v-144h-324v-272h-209v272h-149v144h149v151h-149v181h149v618h301zM483 1174v-426h95q144 0 213 69q53 53 53 146q0 89 -58 147q-40 39 -91 51.5
t-120 12.5h-92z" />
    <glyph glyph-name="uni20B6" unicode="&#x20c7;" horiz-adv-x="1163" 
d="M575 1366q189 0 299 -74q83 -54 126.5 -142t43.5 -177q0 -79 -29 -155t-79 -126q-125 -125 -358 -125h-95v-151h324v-144h-324v-272h-209v272h-149v144h149v151h-149v181h149v618h301zM483 1174v-426h95q144 0 213 69q53 53 53 146q0 89 -58 147q-40 39 -91 51.5
t-120 12.5h-92z" />
    <glyph glyph-name="uni20B6" unicode="&#x20c6;" horiz-adv-x="1163" 
d="M575 1366q189 0 299 -74q83 -54 126.5 -142t43.5 -177q0 -79 -29 -155t-79 -126q-125 -125 -358 -125h-95v-151h324v-144h-324v-272h-209v272h-149v144h149v151h-149v181h149v618h301zM483 1174v-426h95q144 0 213 69q53 53 53 146q0 89 -58 147q-40 39 -91 51.5
t-120 12.5h-92z" />
    <glyph glyph-name="uni20B6" unicode="&#x20c5;" horiz-adv-x="1163" 
d="M575 1366q189 0 299 -74q83 -54 126.5 -142t43.5 -177q0 -79 -29 -155t-79 -126q-125 -125 -358 -125h-95v-151h324v-144h-324v-272h-209v272h-149v144h149v151h-149v181h149v618h301zM483 1174v-426h95q144 0 213 69q53 53 53 146q0 89 -58 147q-40 39 -91 51.5
t-120 12.5h-92z" />
    <glyph glyph-name="uni20B6" unicode="&#x20c4;" horiz-adv-x="1163" 
d="M575 1366q189 0 299 -74q83 -54 126.5 -142t43.5 -177q0 -79 -29 -155t-79 -126q-125 -125 -358 -125h-95v-151h324v-144h-324v-272h-209v272h-149v144h149v151h-149v181h149v618h301zM483 1174v-426h95q144 0 213 69q53 53 53 146q0 89 -58 147q-40 39 -91 51.5
t-120 12.5h-92z" />
    <glyph glyph-name="uni20B6" unicode="&#x20c3;" horiz-adv-x="1163" 
d="M575 1366q189 0 299 -74q83 -54 126.5 -142t43.5 -177q0 -79 -29 -155t-79 -126q-125 -125 -358 -125h-95v-151h324v-144h-324v-272h-209v272h-149v144h149v151h-149v181h149v618h301zM483 1174v-426h95q144 0 213 69q53 53 53 146q0 89 -58 147q-40 39 -91 51.5
t-120 12.5h-92z" />
    <glyph glyph-name="uni20B6" unicode="&#x20c2;" horiz-adv-x="1163" 
d="M575 1366q189 0 299 -74q83 -54 126.5 -142t43.5 -177q0 -79 -29 -155t-79 -126q-125 -125 -358 -125h-95v-151h324v-144h-324v-272h-209v272h-149v144h149v151h-149v181h149v618h301zM483 1174v-426h95q144 0 213 69q53 53 53 146q0 89 -58 147q-40 39 -91 51.5
t-120 12.5h-92z" />
    <glyph glyph-name="uni20B6" unicode="&#x20c1;" horiz-adv-x="1163" 
d="M575 1366q189 0 299 -74q83 -54 126.5 -142t43.5 -177q0 -79 -29 -155t-79 -126q-125 -125 -358 -125h-95v-151h324v-144h-324v-272h-209v272h-149v144h149v151h-149v181h149v618h301zM483 1174v-426h95q144 0 213 69q53 53 53 146q0 89 -58 147q-40 39 -91 51.5
t-120 12.5h-92z" />
    <glyph glyph-name="uni20B6" unicode="&#x20c0;" horiz-adv-x="1163" 
d="M575 1366q189 0 299 -74q83 -54 126.5 -142t43.5 -177q0 -79 -29 -155t-79 -126q-125 -125 -358 -125h-95v-151h324v-144h-324v-272h-209v272h-149v144h149v151h-149v181h149v618h301zM483 1174v-426h95q144 0 213 69q53 53 53 146q0 89 -58 147q-40 39 -91 51.5
t-120 12.5h-92z" />
    <glyph glyph-name="uni20B6" unicode="&#x20bf;" horiz-adv-x="1163" 
d="M575 1366q189 0 299 -74q83 -54 126.5 -142t43.5 -177q0 -79 -29 -155t-79 -126q-125 -125 -358 -125h-95v-151h324v-144h-324v-272h-209v272h-149v144h149v151h-149v181h149v618h301zM483 1174v-426h95q144 0 213 69q53 53 53 146q0 89 -58 147q-40 39 -91 51.5
t-120 12.5h-92z" />
    <glyph glyph-name="uni20B6" unicode="&#x20be;" horiz-adv-x="1163" 
d="M575 1366q189 0 299 -74q83 -54 126.5 -142t43.5 -177q0 -79 -29 -155t-79 -126q-125 -125 -358 -125h-95v-151h324v-144h-324v-272h-209v272h-149v144h149v151h-149v181h149v618h301zM483 1174v-426h95q144 0 213 69q53 53 53 146q0 89 -58 147q-40 39 -91 51.5
t-120 12.5h-92z" />
    <glyph glyph-name="uni20B6" unicode="&#x20bd;" horiz-adv-x="1163" 
d="M575 1366q189 0 299 -74q83 -54 126.5 -142t43.5 -177q0 -79 -29 -155t-79 -126q-125 -125 -358 -125h-95v-151h324v-144h-324v-272h-209v272h-149v144h149v151h-149v181h149v618h301zM483 1174v-426h95q144 0 213 69q53 53 53 146q0 89 -58 147q-40 39 -91 51.5
t-120 12.5h-92z" />
    <glyph glyph-name="uni20B6" unicode="&#x20bc;" horiz-adv-x="1163" 
d="M575 1366q189 0 299 -74q83 -54 126.5 -142t43.5 -177q0 -79 -29 -155t-79 -126q-125 -125 -358 -125h-95v-151h324v-144h-324v-272h-209v272h-149v144h149v151h-149v181h149v618h301zM483 1174v-426h95q144 0 213 69q53 53 53 146q0 89 -58 147q-40 39 -91 51.5
t-120 12.5h-92z" />
    <glyph glyph-name="uni20B6" unicode="&#x20bb;" horiz-adv-x="1163" 
d="M575 1366q189 0 299 -74q83 -54 126.5 -142t43.5 -177q0 -79 -29 -155t-79 -126q-125 -125 -358 -125h-95v-151h324v-144h-324v-272h-209v272h-149v144h149v151h-149v181h149v618h301zM483 1174v-426h95q144 0 213 69q53 53 53 146q0 89 -58 147q-40 39 -91 51.5
t-120 12.5h-92z" />
    <glyph glyph-name="uni20B6" unicode="&#x20ba;" horiz-adv-x="1163" 
d="M575 1366q189 0 299 -74q83 -54 126.5 -142t43.5 -177q0 -79 -29 -155t-79 -126q-125 -125 -358 -125h-95v-151h324v-144h-324v-272h-209v272h-149v144h149v151h-149v181h149v618h301zM483 1174v-426h95q144 0 213 69q53 53 53 146q0 89 -58 147q-40 39 -91 51.5
t-120 12.5h-92z" />
    <glyph glyph-name="uni20B6" unicode="&#x20b9;" horiz-adv-x="1163" 
d="M575 1366q189 0 299 -74q83 -54 126.5 -142t43.5 -177q0 -79 -29 -155t-79 -126q-125 -125 -358 -125h-95v-151h324v-144h-324v-272h-209v272h-149v144h149v151h-149v181h149v618h301zM483 1174v-426h95q144 0 213 69q53 53 53 146q0 89 -58 147q-40 39 -91 51.5
t-120 12.5h-92z" />
    <glyph glyph-name="uni20B6" unicode="&#x20b7;" horiz-adv-x="1163" 
d="M575 1366q189 0 299 -74q83 -54 126.5 -142t43.5 -177q0 -79 -29 -155t-79 -126q-125 -125 -358 -125h-95v-151h324v-144h-324v-272h-209v272h-149v144h149v151h-149v181h149v618h301zM483 1174v-426h95q144 0 213 69q53 53 53 146q0 89 -58 147q-40 39 -91 51.5
t-120 12.5h-92z" />
    <glyph glyph-name="uni20B8" unicode="&#x20b8;" horiz-adv-x="1163" 
d="M999 903h-313v-903h-209v903h-313v197h835v-197zM999 1190h-835v176h835v-176z" />
    <glyph glyph-name="afii61352" unicode="&#x2116;" horiz-adv-x="2170" 
d="M373 0h-209v1458l909 -989v897h209v-1450l-909 989v-905zM1755 1366q135 0 232.5 -95t97.5 -227q0 -131 -97 -226t-233 -95t-233 95t-97 226q0 132 97.5 227t232.5 95zM1755 870q79 0 124.5 53.5t45.5 120.5t-45.5 121t-124.5 54t-124.5 -54t-45.5 -121t45.5 -120.5
t124.5 -53.5zM1466 416v164h578v-164h-578z" />
    <glyph glyph-name="uni2117" unicode="&#x2117;" horiz-adv-x="1552" 
d="M561 1079h223q128 0 193 -63q61 -58 61 -164q0 -104 -57 -164q-40 -43 -96.5 -57.5t-132.5 -14.5h-45v-303h-146v766zM707 950v-213h28q83 0 123 31q37 27 37 84q0 52 -39 80q-27 18 -100 18h-49zM776 1290q-250 0 -422 -172t-172 -436t172 -436t422 -172t422 172
t172 436t-172 436t-422 172zM1485 682q0 -154 -54 -285.5t-147 -224.5q-92 -92 -221.5 -146.5t-286.5 -54.5t-286.5 54.5t-221.5 146.5q-93 93 -146.5 224t-53.5 286t53.5 286t146.5 224q92 92 221.5 146.5t286.5 54.5t286.5 -54.5t221.5 -146.5q93 -93 147 -224.5
t54 -285.5z" />
    <glyph glyph-name="trademark" unicode="&#x2122;" horiz-adv-x="1454" 
d="M487 1231h-172v-643h-143v643h-172v135h487v-135zM678 588h-146l168 848l258 -574l261 574l165 -848h-145l-72 422l-209 -437l-208 437z" />
    <glyph glyph-name="partialdiff" unicode="&#x2202;" horiz-adv-x="1085" 
d="M197 1200l36 178q254 -29 437 -155q159 -110 241 -277q93 -184 93 -434q0 -278 -136 -418q-121 -121 -321 -121q-206 0 -332 129q-133 136 -133 328q0 205 131 336q119 119 291 119q160 0 268 -97q-55 198 -233 304q-157 94 -342 108zM543 154q115 0 176 61q36 34 58 92
t22 121q0 138 -82 213q-71 64 -174 64q-107 0 -174 -64q-82 -82 -82 -213q0 -141 82 -215q66 -59 174 -59z" />
    <glyph glyph-name="product" unicode="&#x220f;" horiz-adv-x="1462" 
d="M78 1339v197h1306v-197h-163v-1654h163v-197h-538v197h166v1654h-559v-1654h163v-197h-538v197h166v1654h-166z" />
    <glyph glyph-name="summation" unicode="&#x2211;" horiz-adv-x="1433" 
d="M66 1536h1224v-502h-192v305h-746l451 -782l-451 -872h762v301h193v-498h-1241v94l516 975l-516 885v94z" />
    <glyph glyph-name="minus" unicode="&#x2212;" 
d="M68 596v184h888v-184h-888z" />
    <glyph glyph-name="uni2215" unicode="&#x2215;" horiz-adv-x="1400" 
d="M0 -362l1077 1929l164 -74l-1077 -1929z" />
    <glyph glyph-name="uni2219" unicode="&#x2219;" horiz-adv-x="409" 
d="M45 696q0 68 46.5 114t113.5 46t113.5 -46t46.5 -114q0 -67 -46 -113t-114 -46t-114 46t-46 113z" />
    <glyph glyph-name="radical" unicode="&#x221a;" horiz-adv-x="1368" 
d="M807 1694h561v-181h-389l-395 -1513h-258l-146 586h-180v180h344l102 -514h17z" />
    <glyph glyph-name="infinity" unicode="&#x221e;" horiz-adv-x="1372" 
d="M686 563q-22 -31 -48.5 -58.5t-68.5 -60t-98 -52t-117 -19.5q-139 0 -228 90t-89 231q0 145 89 235.5t230 90.5q103 0 188.5 -54t141.5 -137q56 83 141.5 137t188.5 54q141 0 230 -90.5t89 -235.5q0 -141 -89 -231t-228 -90q-61 0 -117 19.5t-98 52t-68.5 60t-48.5 58.5z
M987 840q-56 0 -110.5 -42.5t-90.5 -101.5q35 -62 90 -102.5t111 -40.5q63 0 104.5 40.5t41.5 102.5q0 60 -43 102t-103 42zM385 553q56 0 111 40.5t90 102.5q-36 59 -90.5 101.5t-110.5 42.5q-60 0 -102.5 -42t-42.5 -102q0 -62 41 -102.5t104 -40.5z" />
    <glyph glyph-name="integral" unicode="&#x222b;" 
d="M154 -489l36 176q48 -27 109 -27q53 0 82 31q14 15 20.5 43t7.5 54t1 81v1266v56.5t1.5 51t5.5 57.5t11.5 47.5t19.5 52t29 42.5q38 45 101 69.5t139 24.5q80 0 153 -23l-36 -176q-48 27 -109 27q-53 0 -82 -31q-14 -15 -20.5 -43t-7.5 -54t-1 -81v-1266v-56.5t-1.5 -51
t-5.5 -57.5t-11.5 -47.5t-19.5 -52t-29 -42.5q-38 -45 -101 -69.5t-139 -24.5q-80 0 -153 23z" />
    <glyph glyph-name="approxequal" unicode="&#x2248;" 
d="M891 1034l117 -67q-56 -128 -136 -191q-73 -57 -170 -57q-50 0 -95 13.5t-134 51.5q-127 54 -178 54q-64 0 -105 -45q-35 -35 -59 -93l-115 74q40 100 103 170q76 86 188 86q78 0 225 -63q3 -2 28 -12.5t32.5 -14t29 -11.5t34.5 -11t31.5 -6t35.5 -3q57 0 100 37t68 88z
M891 662l117 -68q-56 -128 -136 -191q-73 -57 -170 -57q-50 0 -94 13.5t-135 52.5q-124 53 -178 53q-64 0 -105 -45q-35 -35 -59 -92l-115 73q40 100 103 170q76 86 188 86q78 0 225 -63q2 -1 24 -10.5t27.5 -12t24.5 -10t29 -10t26.5 -7t30.5 -6t29 -1.5q59 0 100 36
q42 36 68 89z" />
    <glyph glyph-name="notequal" unicode="&#x2260;" 
d="M68 778v172h487l107 226h159l-106 -226h241v-172h-323l-76 -160h399v-172h-481l-113 -237h-159l112 237h-247v172h329l76 160h-405z" />
    <glyph glyph-name="lessequal" unicode="&#x2264;" 
d="M281 801l675 -305v-189l-888 410v168l888 409v-188zM956 66h-888v184h888v-184z" />
    <glyph glyph-name="greaterequal" unicode="&#x2265;" 
d="M743 801l-675 305v188l888 -409v-168l-888 -410v189zM956 66h-888v184h888v-184z" />
    <glyph glyph-name="dotmath" unicode="&#x22c5;" horiz-adv-x="409" 
d="M45 696q0 68 46.5 114t113.5 46t113.5 -46t46.5 -114q0 -67 -46 -113t-114 -46t-114 46t-46 113z" />
    <glyph glyph-name="lozenge" unicode="&#x25ca;" horiz-adv-x="1433" 
d="M184 684l533 737l532 -737l-532 -737zM1016 684l-299 414l-299 -414l299 -414z" />
    <glyph glyph-name="openbullet" unicode="&#x25e6;" 
d="M213 1069q0 125 86 211t213 86t213 -86t86 -211t-86 -211t-213 -86t-213 86t-86 211zM340 1069q0 -76 50 -127t122 -51t122 51t50 127t-50 127t-122 51t-122 -51t-50 -127z" />
    <glyph glyph-name="uniF400" unicode="&#xf400;" horiz-adv-x="4" 
d="M-354 1382l184 -94l-319 -295l-111 70z" />
    <glyph glyph-name="uniF401" unicode="&#xf401;" horiz-adv-x="4" 
d="M-643 1489l-98 82l282 284l176 -122z" />
    <glyph glyph-name="uniF406" unicode="&#xf406;" 
d="M692 1790h168q-19 -100 -82 -176q-39 -47 -105.5 -83t-160.5 -36t-160.5 36t-105.5 83q-63 76 -82 176h168q19 -68 69 -100q45 -31 111 -31t111 31q50 32 69 100z" />
    <glyph glyph-name="uniF407" unicode="&#xf407;" 
d="M594 -109l176 -77l-229 -273l-131 66z" />
    <glyph glyph-name="uniF408" unicode="&#xf408;" 
d="M512 1663l-203 -168l-135 115l338 274l338 -274l-135 -115z" />
    <glyph glyph-name="uniF409" unicode="&#xf409;" 
d="M348 -496l148 394l180 -70l-184 -381z" />
    <glyph glyph-name="uniF40A" unicode="&#xf40a;" 
d="M307 958l168 435l180 -70l-213 -422z" />
    <glyph glyph-name="uniF40B" unicode="&#xf40b;" 
d="M375 1640q0 59 39.5 98.5t97.5 39.5t97.5 -39.5t39.5 -98.5q0 -58 -39.5 -97.5t-97.5 -39.5t-97.5 39.5t-39.5 97.5z" />
    <glyph glyph-name="uniF40C" unicode="&#xf40c;" 
d="M313 1686q0 83 59 140.5t140 57.5q83 0 141 -57.5t58 -140.5q0 -81 -57.5 -140t-141.5 -59q-82 0 -140.5 58.5t-58.5 140.5zM424 1686q0 -37 25.5 -63t62.5 -26t62.5 26t25.5 63t-25.5 62.5t-62.5 25.5t-62.5 -25.5t-25.5 -62.5z" />
    <glyph glyph-name="uniF40D" unicode="&#xf40d;" 
d="M762 1767l119 -94q-84 -172 -238 -172q-54 0 -113 27q-20 9 -35 17t-21 11t-13.5 6t-16.5 7q-52 18 -75 18q-73 0 -105 -86l-121 84q37 67 86 111q64 55 144 55q44 0 100 -18q67 -29 94 -43q60 -29 84 -29q36 0 66.5 27t44.5 79z" />
    <glyph glyph-name="uniF40E" unicode="&#xf40e;" 
d="M504 0h160q-66 -36 -105 -80q-43 -46 -43 -92q0 -64 82 -64q47 0 107 15l-19 -144q-64 -30 -135 -30q-83 0 -143 49t-60 131q0 71 53 131q37 43 103 84z" />
    <glyph glyph-name="uniF4C6" unicode="&#xf4c6;" horiz-adv-x="1241" 
d="M123 1366h209v-373q0 -31 1.5 -51t7.5 -53t22.5 -60t42.5 -47q55 -43 217 -43q106 0 245 15v612h209v-1542q0 -169 -90 -240q-67 -55 -192 -55q-75 0 -136 18v189q51 -19 97 -19q66 0 94 45q18 31 18 123v676q-187 -14 -278 -14q-228 0 -334 84q-133 105 -133 332v403z
" />
    <glyph glyph-name="uniF4C7" unicode="&#xf4c7;" horiz-adv-x="921" 
d="M594 862h201v-1038q0 -76 -17.5 -137t-72.5 -103q-70 -55 -185 -55q-87 0 -135 18v181q49 -19 96 -19q66 0 94 45q19 33 19 123v457q-97 -19 -176 -19q-147 0 -228 64q-37 29 -57 70.5t-23.5 70t-3.5 66.5v276h201v-235q0 -88 51 -119q36 -21 101 -21q71 0 135 23v352z
" />
    <glyph glyph-name="uniF4CC" unicode="&#xf4cc;" horiz-adv-x="1167" 
d="M12 1366h254l352 -729l320 729h217l-616 -1366h-217l176 387zM557 1489l-98 82l282 284l177 -122z" />
    <glyph glyph-name="uniF4CD" unicode="&#xf4cd;" horiz-adv-x="987" 
d="M63 -469l318 604l-369 727h242l246 -504l250 504h225l-686 -1331h-226zM647 1382l184 -94l-319 -295l-111 70z" />
    <glyph glyph-name="dollar.fitted" unicode="&#xf5f5;" horiz-adv-x="931" 
d="M864 1161l-168 -98q-19 50 -61 86q-57 49 -148 49q-96 0 -151 -55q-41 -41 -41 -105q0 -69 53 -114q44 -38 129 -70l103 -41q73 -30 129 -62.5t98 -80.5q94 -105 94 -258q0 -185 -119 -312q-94 -99 -225 -118v-207h-151v200q-158 13 -267 136q-101 112 -114 266l206 45
q0 -98 58 -174q65 -82 178 -82q100 0 162 65q63 63 63 164q0 88 -59 150q-11 11 -23 21t-20.5 16t-23.5 14t-21 11t-25 11.5t-24 10.5l-131 55q-49 22 -104.5 57t-88.5 68q-86 90 -86 209q0 163 104 264q87 83 216 102v183h151v-181q99 -8 178 -67q83 -64 129 -158z" />
    <glyph glyph-name="Euro.fitted" unicode="&#xf5f6;" horiz-adv-x="1224" 
d="M1163 1313l-88 -183q-100 68 -241 68q-161 0 -277.5 -74.5t-161.5 -210.5h596l-61 -143h-563q-10 -80 -2 -152h505l-61 -143h-424q35 -144 153.5 -226.5t276.5 -82.5q178 0 328 117v-224q-168 -86 -334 -86q-135 0 -258 41.5t-211 126.5q-138 132 -168 334h-139l61 143
h62q-8 72 2 152h-125l61 143h84q45 176 168 299q181 179 494 179q188 0 323 -78z" />
    <glyph glyph-name="cent.fitted" unicode="&#xf5f7;" horiz-adv-x="772" 
d="M735 1079v-223q-98 105 -250 105q-108 0 -178 -70q-39 -37 -59.5 -92t-20.5 -113q0 -130 78 -205q33 -32 83.5 -51.5t105.5 -19.5q143 0 241 110v-223q-90 -60 -192 -66v-204h-152v211q-147 23 -246 122q-122 122 -122 324q0 210 139 340q100 94 229 111v206h152v-202
q100 -8 192 -60z" />
    <glyph glyph-name="sterling.fitted" unicode="&#xf5f8;" horiz-adv-x="1146" 
d="M1049 909h-201v9q0 62 -18 120.5t-54 94.5q-63 63 -164 63q-110 0 -176 -63q-67 -67 -67 -166q0 -93 104 -291h266v-148h-207q25 -75 25 -133q0 -68 -29 -133l109 -39q8 -3 34 -12t42 -14t39 -10t41 -5q55 0 90 40t51 89l168 -98q-47 -96 -105 -154q-77 -77 -198 -77
q-19 0 -38.5 1.5t-39.5 5.5l-35 7t-34.5 9.5t-29.5 9.5t-29.5 10t-23.5 8q-153 57 -207 57q-41 0 -79.5 -28t-59.5 -93l-178 90q24 53 62 101t81 78q61 41 129 45q31 64 31 127q0 70 -31 118h-233v148h160q-84 177 -84 289q0 179 116 295q133 129 338 129q195 0 310 -115
q125 -125 125 -354v-11z" />
    <glyph glyph-name="yen.fitted" unicode="&#xf5f9;" horiz-adv-x="1110" 
d="M1044 772h-292l-84 -151h376v-144h-393v-477h-192v477h-393v144h376l-84 151h-292v143h213l-248 451h225l299 -547l299 547h225l-248 -451h213v-143z" />
    <glyph glyph-name="florin.fitted" unicode="&#xf5fa;" 
d="M1012 1497l-37 -190q-44 20 -90 20q-65 0 -105 -43q-37 -42 -57 -151l-49 -271h229l-29 -160h-229l-104 -571q-15 -76 -22.5 -111t-25.5 -95.5t-42.5 -102.5t-57.5 -74q-61 -59 -160.5 -88t-220.5 -20l33 190h12q130 0 185 55q26 25 45 70.5t26.5 79.5t18.5 94l104 573
h-174l29 160h174l53 295q32 183 119 270q89 89 235 89q72 0 140 -19z" />
    <glyph glyph-name="uni20B4.fitted" unicode="&#xf5fb;" horiz-adv-x="1071" 
d="M123 1161q71 97 170 156q119 74 272 74q156 0 246 -74q90 -72 90 -184q0 -117 -96 -218h227v-143h-336l-147 -151h483v-144h-608q-41 -36 -62.5 -83t-21.5 -87q0 -59 45 -100q48 -41 139 -41q113 0 191 63q69 56 96 127l174 -82q-45 -114 -147 -194q-74 -59 -151 -83
t-179 -24q-159 0 -254 68q-55 38 -89 98t-34 135q0 112 80 203h-170v144h283l147 151h-430v143h551q38 28 69 70.5t31 93.5q0 55 -33 84q-37 35 -112 35q-79 0 -150 -41q-69 -41 -106 -94z" />
    <glyph glyph-name="uni20B6.fitted" unicode="&#xf5fc;" horiz-adv-x="983" 
d="M492 1366q189 0 299 -74q83 -54 126.5 -142t43.5 -177q0 -79 -29 -154.5t-80 -126.5q-125 -125 -358 -125h-95v-151h324v-144h-324v-272h-209v272h-149v144h149v151h-149v181h149v618h302zM399 1174v-426h95q144 0 213 69q53 53 53 146q0 89 -58 147q-40 39 -90.5 51.5
t-119.5 12.5h-93z" />
    <glyph glyph-name="uni20B8.fitted" unicode="&#xf5fd;" horiz-adv-x="884" 
d="M860 903h-313v-903h-209v903h-313v197h835v-197zM860 1190h-835v176h835v-176z" />
    <glyph glyph-name="uniF639" unicode="&#xf639;" horiz-adv-x="1069" 
d="M535 -23q-180 0 -310 148q-174 200 -174 557q0 359 174 559q130 148 310 148q179 0 309 -148q174 -200 174 -559q0 -357 -174 -557q-130 -148 -309 -148zM535 1204q-112 0 -185 -112q-94 -140 -94 -408t94 -410q73 -112 185 -112q111 0 184 112q94 142 94 410t-94 408
q-73 112 -184 112z" />
    <glyph glyph-name="uniF63A" unicode="&#xf63a;" horiz-adv-x="1015" 
d="M961 193v-193h-918l473 573q108 132 164 213q72 105 72 197t-60 156.5t-168 64.5q-109 0 -172 -72t-69 -176h-201q4 92 37 170.5t78 128.5q119 134 319 134q106 0 191 -34t138.5 -92t82 -131.5t28.5 -154.5q0 -141 -98 -287q-56 -84 -194 -246l-213 -251h510z" />
    <glyph glyph-name="uniF63B" unicode="&#xf63b;" horiz-adv-x="966" 
d="M283 1018h-201q9 161 117 266q110 105 299 105q187 0 295 -113q98 -101 98 -260q0 -103 -47 -180q-48 -77 -123 -115q85 -33 135 -109q57 -83 57 -211q0 -189 -116 -305q-119 -119 -334 -119q-197 0 -305 115q-46 50 -78 125.5t-39 153.5h201q15 -94 73 -148
q66 -61 166 -61q96 0 160 57q72 68 72 193q0 101 -62 161q-64 62 -176 62h-41v176h29q115 0 174 59q53 53 53 146q0 84 -53 137q-53 51 -145 51q-99 0 -152 -55q-21 -22 -35 -54t-18 -50.5t-4 -26.5z" />
    <glyph glyph-name="uniF63C" unicode="&#xf63c;" horiz-adv-x="1069" 
d="M879 1466v-1015h147v-193h-147v-258h-201v258h-676zM367 446h311v441z" />
    <glyph glyph-name="uniF63D" unicode="&#xf63d;" 
d="M948 1366v-192h-422l-67 -228q40 4 63 4q89 0 172 -30.5t144 -90.5q133 -127 133 -350q0 -222 -140 -362q-144 -140 -378 -140q-156 0 -263 62q-97 58 -161 158l157 131q3 -8 14.5 -26t37 -46.5t53.5 -46.5q68 -47 178 -47q128 0 209 76q88 88 88 231t-82 221
q-82 76 -223 76q-80 0 -160 -29q-71 -26 -121 -61l203 690h565z" />
    <glyph glyph-name="uniF63E" unicode="&#xf63e;" horiz-adv-x="1028" 
d="M641 1413l152 -113l-326 -411q41 8 86 8q192 0 315 -127q56 -59 88.5 -143t32.5 -176q0 -95 -34.5 -187.5t-100.5 -157.5q-131 -129 -352 -129q-224 0 -352 134q-119 126 -119 309q0 135 65 262q15 29 30 55t34 53.5t30.5 43t36.5 47.5t35 45zM512 719q-53 0 -107 -20.5
t-90 -55.5q-35 -34 -57 -87.5t-22 -115.5q0 -55 20.5 -110t58.5 -92q33 -32 88.5 -54t108.5 -22q50 0 103 19.5t90 56.5t58 92.5t21 109.5t-21 110t-58 93q-35 35 -87.5 55.5t-105.5 20.5z" />
    <glyph glyph-name="uniF63F" unicode="&#xf63f;" horiz-adv-x="1083" 
d="M55 55l680 1119h-672v192h1016l-860 -1413z" />
    <glyph glyph-name="uniF640" unicode="&#xf640;" horiz-adv-x="962" 
d="M481 621q-98 0 -162 -64q-30 -30 -46.5 -75t-16.5 -91q0 -93 61 -160q61 -69 164 -69t164 69q62 68 62 160q0 45 -17 90.5t-47 75.5q-64 64 -162 64zM481 1204q-91 0 -149 -55q-58 -58 -58 -152q0 -87 56 -143q27 -29 68.5 -45t82.5 -16t83 16.5t69 44.5q55 55 55 143
q0 95 -57 152q-58 55 -150 55zM707 711q91 -39 143 -111q61 -81 61 -205q0 -179 -108 -291q-118 -127 -322 -127q-203 0 -321 127q-109 113 -109 291q0 122 62 205q52 72 143 111q-74 32 -121 102q-49 77 -49 186q0 173 115 285q110 105 280 105q171 0 281 -105
q115 -112 115 -285q0 -107 -50 -186q-47 -70 -120 -102z" />
    <glyph glyph-name="uniF641" unicode="&#xf641;" horiz-adv-x="1026" 
d="M387 -47l-151 113l321 411q-36 -8 -74 -8q-192 0 -319 127q-125 125 -125 311q0 100 36 188.5t99 153.5q137 140 352 140q222 0 353 -136q118 -122 118 -309q0 -133 -65 -260q-15 -29 -30 -55t-34 -53.5t-30.5 -43t-36.5 -47.5t-35 -45zM516 647q118 0 197 82
q38 39 59 93.5t21 109.5q0 117 -80 194q-38 37 -90 57.5t-105 20.5q-55 0 -106.5 -22t-87.5 -56q-80 -80 -80 -200q0 -123 80 -203q80 -76 192 -76z" />
    <glyph glyph-name="uniF6BA" unicode="&#xf6ba;" horiz-adv-x="696" 
d="M102 590v209h492v-209h-492z" />
    <glyph glyph-name="uniF6BB" unicode="&#xf6bb;" horiz-adv-x="1269" 
d="M143 602v184h983v-184h-983z" />
    <glyph glyph-name="uniF6BC" unicode="&#xf6bc;" horiz-adv-x="1720" 
d="M143 602v184h1434v-184h-1434z" />
    <glyph glyph-name="uniF6C3" unicode="&#xf6c3;" 
d="M348 -496l148 394l180 -70l-184 -381z" />
    <glyph glyph-name="uniF6C9" unicode="&#xf6c9;" 
d="M479 1489l-98 82l283 284l176 -122z" />
    <glyph glyph-name="uniF6CA" unicode="&#xf6ca;" 
d="M512 1716l203 168l135 -115l-338 -274l-338 274l135 115z" />
    <glyph glyph-name="uniF6CB" unicode="&#xf6cb;" 
d="M184 1628q0 54 36.5 90.5t90.5 36.5t90.5 -36.5t36.5 -90.5t-36.5 -90.5t-90.5 -36.5t-90.5 36.5t-36.5 90.5zM586 1628q0 54 36.5 90.5t90.5 36.5t90.5 -36.5t36.5 -90.5t-36.5 -90.5t-90.5 -36.5t-90.5 36.5t-36.5 90.5z" />
    <glyph glyph-name="uniF6CE" unicode="&#xf6ce;" 
d="M545 1489l-361 244l176 122l283 -284z" />
    <glyph glyph-name="uniF6CF" unicode="&#xf6cf;" 
d="M475 1855l160 -106l-320 -260l-90 74zM885 1855l159 -106l-319 -260l-90 74z" />
    <glyph glyph-name="uniF6D0" unicode="&#xf6d0;" 
d="M143 1501v164h738v-164h-738z" />
    <glyph glyph-name="uniF6D1" unicode="&#xf6d1;" 
d="M174 1704l164 74q11 -39 37 -65t57.5 -35.5t48.5 -12t31 -2.5t31 2.5t48.5 12t57.5 35.5t37 65l164 -74q-25 -60 -66.5 -103.5t-90 -65t-93 -31t-88.5 -9.5t-88.5 9.5t-93 31t-90 65t-66.5 103.5z" />
    <glyph glyph-name="uniF6D4" unicode="&#xf6d4;" 
d="M180 1235l164 47q39 -133 168 -133q66 0 106 32t62 101l164 -47q-22 -80 -81 -137t-123.5 -81t-127.5 -24t-127.5 24t-123.5 81t-81 137z" />
    <glyph glyph-name="uniF6DC" unicode="&#xf6dc;" horiz-adv-x="530" 
d="M248 0v1174h-238l115 192h332v-1366h-209z" />
    <glyph glyph-name="uniF6DE" unicode="&#xf6de;" horiz-adv-x="1290" 
d="M106 344v184h1076v-184h-1076z" />
    <glyph glyph-name="nbspace" horiz-adv-x="477" 
 />
    <glyph glyph-name="hyphenminus" horiz-adv-x="696" 
d="M102 332v209h492v-209h-492z" />
    <glyph glyph-name="dotlessi1" horiz-adv-x="454" 
d="M127 862h201v-862h-201v862z" />
    </font>
</defs>
</svg>
